#VERSION:0.83;
#TITLE:BOMBER BOMBER;
#SUBTITLE:;
#ARTIST:DJ NAGAI;
#TITLETRANSLIT:;
#SUBTITLETRANSLIT:;
#ARTISTTRANSLIT:;
#GENRE:J-Core;
#ORIGIN:;
#CREDIT:;
#BANNER:BOMBER BOMBER.png;
#BACKGROUND:BOMBER BOMBER-bg.png;
#PREVIEWVID:;
#JACKET:BOMBER BOMBER-jacket.png;
#CDIMAGE:;
#DISCIMAGE:;
#LYRICSPATH:;
#CDTITLE:cdtitle.png;
#MUSIC:BOMBER BOMBER.ogg;
#OFFSET:-0.047195;
#SAMPLESTART:39.839943;
#SAMPLELENGTH:19.896370;
#SELECTABLE:YES;
#BPMS:0.000=96.500,
48.000=193.000,
137.000=96.500,
171.000=193.000,
260.000=96.500;
#STOPS:75.333=0.933,
198.333=0.933;
#DELAYS:;
#WARPS:;
#TIMESIGNATURES:0.000=4=4;
#TICKCOUNTS:0.000=4;
#COMBOS:0.000=1;
#SPEEDS:0.000=1.000=0.000=0;
#SCROLLS:0.000=1.000;
#FAKES:;
#LABELS:0.000=Song Start;
#BGCHANGES:;
#KEYSOUNDS:;
#ATTACKS:
;

//---------------dance-single - ----------------
#NOTEDATA:;
#CHARTNAME:;
#STEPSTYPE:dance-single;
#DESCRIPTION:;
#CHARTSTYLE:;
#DIFFICULTY:Hard;
#METER:12;
#RADARVALUES:0.493082,0.635976,0.243436,0.634672,0.139106,397.000000,369.000000,28.000000,73.000000,0.000000,0.000000,0.000000,0.000000,0.000000,0.493082,0.635976,0.243436,0.634672,0.139106,397.000000,369.000000,28.000000,73.000000,0.000000,0.000000,0.000000,0.000000,0.000000;
#CREDIT:;
#OFFSET:-0.047195;
#BPMS:0.000000=96.500000
,48.000000=193.000000
,137.000000=96.500000
,171.000000=193.000000
,260.000000=96.500000
;
#STOPS:75.333336=0.932644
,198.333328=0.932651
;
#DELAYS:;
#WARPS:;
#TIMESIGNATURES:0.000000=4=4
;
#TICKCOUNTS:0.000000=4
;
#COMBOS:0.000000=1
;
#SPEEDS:0.000000=1.000000=0.000000=0
;
#SCROLLS:0.000000=1.000000
,48.000000=0.750000
,64.000000=0.770000
,65.000000=0.790000
,66.000000=0.810000
,67.000000=0.830000
,68.000000=0.850000
,69.000000=0.870000
,70.000000=0.890000
,71.000000=0.910000
,72.000000=0.930000
,73.000000=0.950000
,74.000000=0.970000
,75.000000=0.990000
,75.333336=1.000000
,171.000000=0.750000
,187.000000=0.770000
,188.000000=0.790000
,189.000000=0.810000
,190.000000=0.830000
,191.000000=0.850000
,192.000000=0.870000
,193.000000=0.890000
,194.000000=0.910000
,195.000000=0.930000
,196.000000=0.950000
,197.000000=0.970000
,198.000000=0.990000
,198.333328=1.000000
;
#FAKES:;
#LABELS:0.000000=Song Start
;
#NOTES:
// measure 0
0000
0000
0000
0000
,  // measure 1
0000
0000
0000
0000
,  // measure 2
0000
0000
0000
0000
,  // measure 3
0000
0000
0000
0000
0000
0000
0000
0000
0000
0000
1001
0000
0001
1000
0001
1000
,  // measure 4
0002
0000
0000
0000
0023
0000
0000
2030
0000
0000
3001
0000
0200
0000
2300
0000
,  // measure 5
3002
0000
0010
0000
1003
0001
0100
0010
,  // measure 6
2000
0000
0000
0000
3020
0000
0000
0032
0000
0000
1003
0000
0200
0000
0302
0000
,  // measure 7
2003
0000
0000
0000
0010
0000
0000
0000
3001
0000
0100
0000
0010
1000
0100
0010
,  // measure 8
0002
0000
0000
0103
0010
0000
0100
0000
2000
0000
0000
3100
0010
0000
0110
0000
,  // measure 9
0102
0000
0000
1003
0100
0000
0010
0000
0001
0000
0010
0001
0100
0000
0010
0000
,  // measure 10
2000
0000
0000
3100
0010
0000
0100
0000
0002
0000
0000
0103
0010
0000
0110
0000
,  // measure 11
2100
0000
0000
3001
0100
0000
0010
0000
1000
0000
0100
0000
0010
0001
0100
0010
,  // measure 12
2000
0000
0000
3010
0000
0000
1010
0000
,  // measure 13
0001
0000
0000
0001
0100
0001
0010
0000
,  // measure 14
0002
0000
0000
0013
0000
0000
0011
0000
,  // measure 15
1000
0000
1000
0000
0100
1000
0010
0000
,  // measure 16
2000
3200
0320
0032
,  // measure 17
1003
0100
0010
0001
1000
0100
0010
0001
,  // measure 18
2000
0000
0000
3020
0000
0000
0031
0000
0010
0000
1000
0000
,  // measure 19
1001
2100
0010
0100
,  // measure 20
3010
2000
0000
3200
0000
0302
0000
0103
,  // measure 21
0010
0100
0000
0100
1000
0010
0100
0010
,  // measure 22
0100
0001
0010
0000
0100
0010
0000
0010
,  // measure 23
0001
0102
0010
0100
,  // measure 24
0013
0002
0000
0203
0000
2300
0000
3100
,  // measure 25
0010
0100
0000
0100
0001
0010
0100
1000
,  // measure 26
0010
0100
0002
0000
1000
0000
1003
0100
,  // measure 27
0010
0001
0200
0300
0000
0000
0200
0300
,  // measure 28
1002
0000
0013
0001
0010
0001
0100
0010
,  // measure 29
1000
0001
0000
1000
0100
0010
0100
0010
,  // measure 30
0001
1000
0010
0000
0100
0010
0000
0010
,  // measure 31
1000
1001
0100
0100
,  // measure 32
0100
0010
0100
0000
1001
0000
0001
0010
,  // measure 33
0100
1000
0001
0100
0001
0100
1000
0100
,  // measure 34
0001
0100
1000
0200
0302
0023
0230
0000
,  // measure 35
0000
0001
0000
1000
,  // measure 36
0000
0000
0310
0001
1000
0010
0200
0000
,  // measure 37
0000
1000
0000
0001
,  // measure 38
0300
0000
0000
0000
0110
0000
1000
0000
0001
0100
0010
1000
0002
0000
0000
0013
,  // measure 39
1000
0000
0010
0000
0002
0000
0000
0103
1000
0000
1100
0000
0102
0000
0000
1003
,  // measure 40
0010
0000
0100
0000
0001
0000
0010
0001
0100
0000
0010
0000
2010
0000
0000
3010
,  // measure 41
0001
0000
0010
0000
2000
0000
0000
3100
0001
0000
0101
0000
2100
0000
0000
3001
,  // measure 42
0010
0000
0100
0000
1000
0000
0010
0000
0100
0001
0010
0100
2000
0000
0000
0000
,  // measure 43
0000
0000
3010
0000
0000
0000
0000
0000
0011
0000
0000
0000
1000
0000
0000
0100
,  // measure 44
0000
1000
0010
0000
1001
0000
0002
0000
,  // measure 45
0000
0000
0013
0000
0000
0000
0000
0000
1010
0000
0000
0000
0001
0000
0000
0100
,  // measure 46
0000
0001
0010
0000
1001
0000
0002
0000
,  // measure 47
0203
0000
0320
0000
2030
0000
3001
0100
,  // measure 48
0010
1000
0001
0100
0010
1000
0002
0000
,  // measure 49
0023
0000
0000
1030
0000
0010
0000
0001
0000
1001
0000
0000
,  // measure 50
1200
0000
0001
0000
1000
0000
0301
0200
,  // measure 51
0000
2300
0000
3020
0000
0031
0010
1000
,  // measure 52
0000
1000
0001
0100
0001
0100
1000
0100
,  // measure 53
0001
0000
1000
0100
0000
0010
0001
0000
,  // measure 54
0201
0000
1000
0000
0001
0000
1300
0200
,  // measure 55
0000
0302
0000
0023
0000
1030
0010
0001
,  // measure 56
0000
0001
1000
0100
0001
0100
1000
0010
,  // measure 57
2000
0000
0001
0000
3001
0100
0010
1000
,  // measure 58
0200
0300
0000
0000
0200
0300
2001
0000
,  // measure 59
3010
1000
0010
1000
0010
0001
0010
1000
,  // measure 60
0000
1000
0100
0001
0100
0001
0100
1000
,  // measure 61
0010
0000
0100
0001
0000
1000
0100
0000
,  // measure 62
1001
0000
0001
0100
1000
0000
1000
0100
,  // measure 63
0001
0000
0001
0010
1000
0010
0001
0000
,  // measure 64
1000
0100
1000
0100
0010
0001
0100
0010
,  // measure 65
1000
0020
2030
3200
0302
0000
0000
0000
,  // measure 66
0000
0000
0003
0000
;

//---------------dance-single - ----------------
#NOTEDATA:;
#CHARTNAME:;
#STEPSTYPE:dance-single;
#DESCRIPTION:;
#CHARTSTYLE:;
#DIFFICULTY:Challenge;
#METER:14;
#RADARVALUES:0.604864,0.809425,0.469484,0.660755,0.321683,487.000000,433.000000,54.000000,76.000000,26.000000,0.000000,16.000000,0.000000,0.000000,0.604864,0.809425,0.469484,0.660755,0.321683,487.000000,433.000000,54.000000,76.000000,26.000000,0.000000,16.000000,0.000000,0.000000;
#CREDIT:;
#OFFSET:-0.047195;
#BPMS:0.000000=96.500000
,48.000000=193.000000
,137.000000=96.500000
,171.000000=193.000000
,260.000000=96.500000
;
#STOPS:75.333336=0.932644
,198.333328=0.932651
;
#DELAYS:;
#WARPS:;
#TIMESIGNATURES:0.000000=4=4
;
#TICKCOUNTS:0.000000=4
;
#COMBOS:0.000000=1
;
#SPEEDS:0.000000=1.000000=0.000000=0
;
#SCROLLS:0.000000=1.000000
,48.000000=0.750000
,64.000000=0.770000
,65.000000=0.790000
,66.000000=0.810000
,67.000000=0.830000
,68.000000=0.850000
,69.000000=0.870000
,70.000000=0.890000
,71.000000=0.910000
,72.000000=0.930000
,73.000000=0.950000
,74.000000=0.970000
,75.000000=0.990000
,75.333336=1.000000
,171.000000=0.750000
,187.000000=0.770000
,188.000000=0.790000
,189.000000=0.810000
,190.000000=0.830000
,191.000000=0.850000
,192.000000=0.870000
,193.000000=0.890000
,194.000000=0.910000
,195.000000=0.930000
,196.000000=0.950000
,197.000000=0.970000
,198.000000=0.990000
,198.333328=1.000000
;
#FAKES:;
#LABELS:0.000000=Song Start
;
#NOTES:
// measure 0
0000
0000
0000
0000
,  // measure 1
0000
0000
0000
0000
,  // measure 2
0000
0000
0000
0000
,  // measure 3
0000
0000
0000
0000
0000
0000
0000
0000
0000
0000
1001
0000
0001
1000
0001
1000
,  // measure 4
0002
0000
0000
0000
0023
0000
0000
0230
0001
0000
0000
0000
0320
0000
0230
0000
,  // measure 5
2300
0000
0100
0000
3001
0011
1100
0101
,  // measure 6
2010
0000
0000
0000
3020
0000
0000
0230
1000
0000
0000
0000
0320
0000
0230
0000
,  // measure 7
0302
0000
0000
0000
0100
0000
0000
0000
1003
0010
0100
0001
0010
0001
0100
0010
,  // measure 8
2000
0000
3010
1000
0200
0000
0310
0002
0100
0000
1003
0010
0100
0000
0110
0000
,  // measure 9
0102
0000
1003
0002
1000
0000
0013
0002
0010
0000
1003
0001
0100
0000
1001
0000
,  // measure 10
0002
0000
0013
0001
0200
0000
0310
2000
0100
0000
3001
0010
0100
0000
0110
0000
,  // measure 11
2100
0000
3001
2000
0001
0000
3010
0000
1000
0100
0010
0001
0100
0001
0010
0100
,  // measure 12
2000
0000
0000
3100
1000
0010
1000
0000
,  // measure 13
1002
0000
0000
0000
0000
0000
0103
0000
0001
0000
0010
0001
0010
0000
0000
0000
,  // measure 14
2001
0000
0000
3010
0000
0000
1001
0000
,  // measure 15
2000
0000
3200
0000
0310
0001
1001
0000
,  // measure 16
0002
0203
2300
3020
,  // measure 17
0031
0100
0001
0100
1000
0100
0001
0010
,  // measure 18
0100
1000
0100
1000
0100
1000
0001
0000
0011
0000
2002
3003
,  // measure 19
MMMM
0201
1000
0001
,  // measure 20
1300
0100
0001
0100
0001
0010
1000
0010
,  // measure 21
0001
0000
0100
0000
M0MM
0000
0100
1000
0100
0000
1000
0000
0010
0000
1000
0000
,  // measure 22
0100
0010
0001
0000
0011
1001
0000
1010
,  // measure 23
1001
1200
0001
1000
,  // measure 24
0301
0100
1000
0100
1000
0010
0001
0010
,  // measure 25
1000
0000
0100
0000
M0MM
0000
0100
0001
0100
0000
0001
0000
0010
0000
0001
0000
,  // measure 26
1000
0010
1000
0010
2000
0000
0000
0000
0010
0000
0000
0000
3001
0000
0010
0000
,  // measure 27
0100
1000
2002
3003
0000
0000
2002
3003
,  // measure 28
0440
0330
0001
0010
1000
0010
0001
0100
,  // measure 29
0001
0000
0010
0000
MM0M
0000
0010
1000
0010
0000
1000
0000
0100
0000
1000
0000
,  // measure 30
0100
0010
0001
0000
1010
1001
0000
0011
,  // measure 31
1001
0100
0100
1001
,  // measure 32
0001
1000
0001
1000
0001
0000
0000
0000
1001
0000
0000
0000
1000
0000
0010
0000
,  // measure 33
0001
0000
0010
0000
4000
0000
3400
0000
0340
0000
0034
0000
4003
0400
0000
0000
,  // measure 34
0000
0000
3300
0002
0203
0320
0230
0000
,  // measure 35
0000
1000
0000
0001
,  // measure 36
0000
0000
0310
1000
0001
0010
0200
0000
,  // measure 37
0000
0001
0000
1000
,  // measure 38
0300
0000
0000
0000
0001
0010
0100
1000
0010
1000
0100
0010
0002
0000
0013
0001
,  // measure 39
0200
0000
1300
0200
0001
0000
0310
1000
0100
0000
0011
0000
2100
0000
3001
2000
,  // measure 40
0010
0000
3001
2000
0100
0000
3010
1000
0010
0000
1001
0000
2000
0000
3010
1000
,  // measure 41
0200
0000
0301
0200
1000
0000
0310
0001
0100
0000
1010
0000
0102
0000
1003
0002
,  // measure 42
0010
0000
1003
0001
1000
0010
0100
0001
0010
0001
0100
0010
2000
0000
0000
0000
,  // measure 43
0000
0000
3010
0000
1000
0000
0100
0000
1000
0000
0000
0000
1001
0000
0000
0010
,  // measure 44
0000
0000
0010
0000
1000
0000
0100
1000
0100
0000
0000
0000
0012
0000
0000
0000
,  // measure 45
0000
0000
0013
0000
0001
0000
0000
0000
0100
0000
0000
0000
1001
0000
0000
0010
,  // measure 46
0000
0010
0001
0100
0001
0000
2000
0000
,  // measure 47
3200
0000
0302
0000
0023
0000
1030
0100
,  // measure 48
1000
0000
0000
0100
0000
0000
0001
0000
0000
0100
0000
0000
1000
0000
0000
0010
0000
0000
0100
0000
0001
0000
0100
0000
,  // measure 49
0001
0100
0001
1000
0000
1010
0000
2002
3003
MMMM
0000
0000
,  // measure 50
0021
0000
1000
0000
0001
0000
1030
0010
,  // measure 51
0001
0100
1000
0100
1000
0001
0010
1000
,  // measure 52
0MMM
0000
1000
0100
1000
0000
0100
0000
0001
0000
0010
0000
0100
0000
0010
0000
,  // measure 53
0001
0000
0101
1001
0000
1100
1001
0000
,  // measure 54
1020
0000
0001
0000
1000
0000
0031
0010
,  // measure 55
1000
0100
1000
0100
0001
1000
0010
0001
,  // measure 56
MMM0
0000
0001
0100
0001
0000
0100
0000
1000
0000
0010
0000
1000
0001
1000
0001
,  // measure 57
2000
0000
0100
0000
3001
0100
0010
1000
,  // measure 58
2002
3003
0000
0000
2002
3003
0440
0330
,  // measure 59
1000
0100
0001
1000
0010
0001
0100
1000
,  // measure 60
0MMM
0000
1000
0010
1000
0000
0001
0000
0010
0000
0100
0000
0010
0000
0100
0000
,  // measure 61
1000
0000
1010
1001
0000
0011
1001
0000
,  // measure 62
1000
0000
0000
1000
0010
0000
0100
0000
0001
0000
0000
0001
0010
0000
0100
0000
,  // measure 63
1000
0000
0000
1000
0010
0000
0100
0000
0001
0000
0010
0000
1000
0000
0010
0000
,  // measure 64
0004
0000
0403
0000
0340
0000
4030
0000
3004
0400
0000
0000
0000
0000
0000
0000
,  // measure 65
0303
2000
3200
0302
0023
0000
0000
0000
,  // measure 66
0000
0000
0030
0000
;

//---------------dance-single - ----------------
#NOTEDATA:;
#CHARTNAME:;
#STEPSTYPE:dance-single;
#DESCRIPTION:;
#CHARTSTYLE:;
#DIFFICULTY:Medium;
#METER:9;
#RADARVALUES:0.399930,0.433620,0.286907,0.660755,0.000000,322.000000,289.000000,33.000000,76.000000,0.000000,0.000000,0.000000,0.000000,0.000000,0.399930,0.433620,0.286907,0.660755,0.000000,322.000000,289.000000,33.000000,76.000000,0.000000,0.000000,0.000000,0.000000,0.000000;
#CREDIT:;
#OFFSET:-0.047195;
#BPMS:0.000000=96.500000
,48.000000=193.000000
,137.000000=96.500000
,171.000000=193.000000
,260.000000=96.500000
;
#STOPS:75.333336=0.932644
,198.333328=0.932651
;
#DELAYS:;
#WARPS:;
#TIMESIGNATURES:0.000000=4=4
;
#TICKCOUNTS:0.000000=4
;
#COMBOS:0.000000=1
;
#SPEEDS:0.000000=1.000000=0.000000=0
;
#SCROLLS:0.000000=1.000000
,48.000000=0.750000
,75.333336=0.000000
,76.000000=1.000000
,171.000000=0.750000
,198.333328=0.000000
,199.000000=1.000000
;
#FAKES:;
#LABELS:0.000000=Song Start
;
#NOTES:
0000
0000
0000
0000
,
0000
0000
0000
0000
,
0000
0000
0000
0000
,
0000
0000
0000
0000
0000
0100
0010
0100
,
1002
0000
0023
0000
0230
0000
0320
0230
,
2300
0000
0010
0000
3001
0100
0010
0010
,
2000
0000
3020
0000
0230
0000
0320
0230
,
0302
0000
0010
0000
1003
0100
0001
0100
,
2001
0000
3020
0000
0032
0000
2003
3200
,
0302
0000
0010
0000
1003
0010
0100
0100
,
0002
0000
0023
0000
2030
0000
3002
0203
,
2300
0000
0010
0000
3001
0100
1000
0100
,
0002
0000
0023
0000
,
0230
0000
0310
0110
,
2000
0000
3010
1000
,
0100
1000
0010
0110
,
0002
2003
3002
2003
,
3001
1000
0001
0000
1000
0001
1000
0000
,
1001
0000
0000
0110
0000
0000
2002
0000
3000
0000
0003
0000
,
0000
0011
1010
0011
,
1000
0010
0000
1000
0000
0200
0000
1300
,
0010
1000
0000
1000
0001
0000
0100
0000
,
0001
0000
1000
0000
0100
0010
0000
0010
,
0001
1010
0011
1010
,
0001
0010
0000
0001
0000
0200
0000
0301
,
0010
0001
0000
0001
1000
0000
0010
0000
,
0100
0000
0101
0000
0000
0000
1000
0001
,
1000
0001
0020
0030
0000
0000
0020
0030
,
1001
0000
1000
0000
0100
0010
0000
0001
,
0100
0010
0000
0010
1000
0000
0010
0000
,
1000
0000
0100
0000
0010
0001
0000
0001
,
1000
0010
0010
0010
,
0010
0100
0000
0010
0000
2001
0000
3010
,
1000
0100
0000
0000
0110
0000
0001
1000
,
0001
1000
0001
0200
0320
2030
3200
0000
,
0000
0320
0000
0032
,
0000
0000
0013
0001
1000
0010
0200
0000
,
0000
0320
0000
2030
,
0000
0000
3001
0010
1000
0010
1002
0000
,
0203
0000
2300
0000
3002
2003
3200
0000
,
0001
0000
0310
1000
0001
0001
2000
0000
,
3200
0000
0302
0000
2003
3002
0203
0000
,
0010
0000
1300
0010
0001
0010
2000
0000
,
0000
3010
0000
0000
1010
0000
0100
0000
,
0001
0010
0110
0002
,
0000
0013
0000
0000
0011
0000
0100
0000
,
1000
0010
0110
0002
,
2003
0000
3002
0000
2003
0000
3001
1000
,
0001
0000
1000
0001
1000
0000
1001
0000
,
0110
0000
0000
2002
0000
3000
0000
0003
0000
0000
0000
0000
,
1010
0000
0101
0000
1010
0000
0001
0010
,
0000
0100
0000
0002
0000
0103
0010
0001
,
0000
0001
1000
0000
0100
0000
1000
0000
,
0001
0000
0100
0010
0000
0010
1000
0000
,
0011
0000
1100
0000
0011
0000
1000
0010
,
0000
0100
0000
2000
0000
3100
0010
1000
,
0000
1000
0001
0000
0010
0000
0100
0000
,
1100
0000
0000
0000
0001
1000
0001
1000
,
0020
0030
0000
0000
0020
0030
1001
0000
,
0001
0000
0100
0010
0000
1000
0100
0010
,
0000
0010
0001
0000
0010
0000
0001
0000
,
0100
0000
0010
1000
0000
1000
0001
0000
,
1000
0000
0001
0010
0001
0000
1000
0010
,
1000
0000
0001
0010
0001
0000
1000
0010
,
1000
0000
0100
0000
1000
0100
0010
0001
,
1000
0200
0320
0032
0203
0000
0000
0000
,
0000
0000
0300
0000
;

//---------------dance-single - ----------------
#NOTEDATA:;
#CHARTNAME:;
#STEPSTYPE:dance-single;
#DESCRIPTION:;
#CHARTSTYLE:;
#DIFFICULTY:Easy;
#METER:6;
#RADARVALUES:0.248404,0.310816,0.052165,0.521648,0.000000,200.000000,194.000000,6.000000,60.000000,0.000000,0.000000,0.000000,0.000000,0.000000,0.248404,0.310816,0.052165,0.521648,0.000000,200.000000,194.000000,6.000000,60.000000,0.000000,0.000000,0.000000,0.000000,0.000000;
#CREDIT:;
#OFFSET:-0.047195;
#BPMS:0.000000=96.500000
,48.000000=193.000000
,137.000000=96.500000
,171.000000=193.000000
,260.000000=96.500000
;
#STOPS:75.333336=0.932644
,198.333328=0.932651
;
#DELAYS:;
#WARPS:;
#TIMESIGNATURES:0.000000=4=4
;
#TICKCOUNTS:0.000000=4
;
#COMBOS:0.000000=1
;
#SPEEDS:0.000000=1.000000=0.000000=0
;
#SCROLLS:0.000000=1.000000
,48.000000=0.750000
,75.333336=0.000000
,76.000000=1.000000
,171.000000=0.750000
,198.333328=0.000000
,199.000000=1.000000
;
#FAKES:;
#LABELS:0.000000=Song Start
;
#NOTES:
0000
0000
0000
0000
,
0000
0000
0000
0000
,
0000
0000
0000
0000
,
0000
0000
0000
0000
,
2000
0000
3020
0000
2030
0000
3020
2030
,
3200
1300
0100
0010
,
0002
0000
0023
0000
0032
0000
0023
0032
,
0203
0000
0301
0000
0100
0010
0100
0000
,
0020
0000
2030
0000
3200
0000
0302
0203
,
2300
3001
1000
0100
,
0020
0000
0032
0000
0203
0000
2300
3200
,
0302
0000
1003
0000
0010
0100
0010
0000
,
2000
0000
3200
0000
,
0320
0000
0130
1001
,
0002
0000
0103
0000
,
0001
0100
0010
1001
,
2000
0000
3002
0000
,
2003
0000
3002
0000
,
1003
0000
0000
0001
0000
0000
2002
0000
3000
0000
0003
0000
,
0000
1000
0010
0100
,
0010
1000
0000
0010
,
0000
1000
0100
1000
,
0100
1000
0000
1000
,
0000
0001
0010
0100
,
0010
0001
0000
0010
,
0000
0001
0001
1000
,
1000
0001
0000
0001
,
0001
0100
0000
0100
,
0110
1000
0010
1000
,
0000
0001
0010
0001
,
0010
0001
0000
0010
,
0000
0100
0100
0100
,
0000
0010
0010
0010
,
0000
0001
0100
0010
,
1000
0001
0000
2000
,
0000
3200
0000
0320
,
0000
0030
0000
0002
,
0000
0203
0000
0320
,
0000
1030
0010
2000
,
3200
0000
0302
0000
2003
3020
0032
0000
,
1003
0010
0100
0002
,
0203
0000
2300
0000
3002
0023
2030
0000
,
3001
0000
0010
0100
0010
0000
0002
0000
,
0000
0013
0000
0001
,
0010
0001
0000
2000
,
0000
3010
0000
1000
,
0010
1000
0000
0002
,
0000
2003
0000
3002
,
0000
2003
0000
3001
,
1000
0000
0000
2002
0000
3000
0000
0003
0000
0000
0000
0000
,
0001
0010
1000
0010
,
0001
0000
0010
0000
,
0001
0100
0010
0100
,
0001
0000
0001
0000
,
1000
0010
0001
0010
,
1000
0000
0010
0000
,
1000
1000
0001
0001
,
1000
0000
1000
1000
,
0100
0000
0100
0110
,
0001
0010
0001
0000
,
1000
0010
0100
0010
,
1000
0000
0010
0000
,
1000
0000
0001
0000
,
1000
0000
0001
0000
,
1000
0100
0010
0001
,
1000
0000
0000
0000
;

//---------------dance-single - ----------------
#NOTEDATA:;
#CHARTNAME:;
#STEPSTYPE:dance-single;
#DESCRIPTION:;
#CHARTSTYLE:;
#DIFFICULTY:Beginner;
#METER:3;
#RADARVALUES:0.185061,0.264737,0.034777,0.086941,0.000000,149.000000,145.000000,4.000000,10.000000,0.000000,0.000000,0.000000,0.000000,0.000000,0.185061,0.264737,0.034777,0.086941,0.000000,149.000000,145.000000,4.000000,10.000000,0.000000,0.000000,0.000000,0.000000,0.000000;
#CREDIT:;
#OFFSET:-0.047195;
#BPMS:0.000000=193.000000
;
#STOPS:;
#DELAYS:;
#WARPS:;
#TIMESIGNATURES:0.000000=4=4
;
#TICKCOUNTS:0.000000=4
;
#COMBOS:0.000000=1
;
#SPEEDS:0.000000=1.000000=0.000000=0
;
#SCROLLS:0.000000=1.000000
;
#FAKES:;
#LABELS:0.000000=Song Start
;
#NOTES:
0000
0000
0000
0000
,
0000
0000
0000
0000
,
0000
0000
0000
0000
,
0000
0000
0000
0000
,
0000
0000
0000
0000
,
0000
0000
0000
0000
,
0000
0000
0000
0000
,
0000
0000
0000
0000
,
1000
0000
1000
0000
,
1000
0000
0000
0000
,
0020
0000
0030
0000
,
0100
0000
0000
0000
,
0001
0000
0001
0000
,
0001
0000
0000
0000
,
0020
0000
0030
0000
,
0100
0000
0000
0000
,
1000
0000
0010
0000
,
1000
0000
0000
0000
,
0200
0000
0300
0000
,
0010
0000
0000
0000
,
0001
0000
0010
0000
,
0001
0000
0000
0000
,
0200
0000
0300
0000
,
0010
0000
0000
0000
,
1000
0000
1000
0000
,
1000
0000
1001
0000
,
0001
0000
0001
0000
,
0001
0000
1001
0000
,
1000
0000
0001
0000
,
1000
0000
0001
0000
,
0010
0000
0000
0010
0000
0000
0020
0000
0000
0000
0030
0000
,
0000
0000
0000
0000
,
0001
0001
0001
0000
,
0010
0000
0001
0000
,
0100
0100
0100
0000
,
0010
0000
0010
0000
,
1000
1000
1000
0000
,
0010
0000
1000
0000
,
0100
0100
0100
0000
,
1001
0000
0000
0000
,
1000
0000
1000
0000
,
1000
1000
1000
0000
,
0010
0010
0010
0000
,
1000
0000
1000
0000
,
0100
0100
0100
0000
,
0010
0000
0001
0000
,
0100
0100
0100
0000
,
0100
0000
0000
0000
,
0010
0000
0000
0000
,
0010
0000
0000
0000
,
0020
0000
0000
0000
,
0030
0000
0000
0000
,
0100
0000
0000
0000
,
0100
0000
0000
0000
,
0200
0000
0000
0000
,
0300
0000
0000
0000
,
0001
0000
1000
0000
,
0001
0000
0000
0000
,
0020
0000
0030
0000
,
0100
0000
0000
0000
,
1000
0000
0001
0000
,
1000
0000
0000
0000
,
0020
0000
0030
0000
,
0100
0000
0000
0000
,
0001
0000
0001
0000
,
0001
0001
0001
0000
,
1000
0000
1000
0000
,
1000
1000
1000
0000
,
0001
0000
1000
0000
,
0001
0000
1000
0000
,
0010
0000
0000
0010
0000
0000
0020
0000
0000
0000
0030
0000
,
0000
0000
0000
0000
,
1000
1000
1000
0000
,
0010
0000
1000
0000
,
0100
0100
0100
0000
,
0010
0000
0010
0000
,
0001
0001
0001
0000
,
0010
0000
0001
0000
,
0100
0100
0100
0000
,
1001
0000
0000
0000
,
0001
0000
0001
0000
,
0001
0001
0001
0000
,
0010
0010
0010
0000
,
0001
0000
0001
0000
,
0100
0100
0100
0000
,
0010
0000
1000
0000
,
0100
0100
0100
0100
,
0100
0000
0000
0000
;
