#VERSION:0.83;
#TITLE:BAAM;
#SUBTITLE:;
#ARTIST:MOMOLAND;
#TITLETRANSLIT:;
#SUBTITLETRANSLIT:;
#ARTISTTRANSLIT:;
#GENRE:K-Pop;
#ORIGIN:;
#CREDIT:;
#BANNER:BAAM.png;
#BACKGROUND:BAAM-bg.png;
#PREVIEWVID:;
#JACKET:BAAM-jacket.png;
#CDIMAGE:;
#DISCIMAGE:;
#LYRICSPATH:;
#CDTITLE:cdtitle.png;
#MUSIC:BAAM.ogg;
#OFFSET:1.874975;
#SAMPLESTART:67.337624;
#SAMPLELENGTH:15.118111;
#SELECTABLE:YES;
#BPMS:0.000=127.000;
#STOPS:;
#DELAYS:;
#WARPS:;
#TIMESIGNATURES:0.000=4=4;
#TICKCOUNTS:0.000=4;
#COMBOS:0.000=1;
#SPEEDS:0.000=1.000=0.000=0;
#SCROLLS:0.000=1.000;
#FAKES:;
#LABELS:0.000=Song Start;
#BGCHANGES:3.979=BAAM.avi=1.000=1=0=0=StretchNoLoop==CrossFade==,
99999=-nosongbg-=1.000=0=0=0 // don't automatically add -songbackground-
;
#KEYSOUNDS:;
#ATTACKS:
;

//---------------dance-single - ----------------
#NOTEDATA:;
#CHARTNAME:;
#STEPSTYPE:dance-single;
#DESCRIPTION:;
#CHARTSTYLE:;
#DIFFICULTY:Challenge;
#METER:11;
#RADARVALUES:0.517279,0.524085,0.381153,0.304922,0.144838,475.000000,425.000000,50.000000,40.000000,60.000000,0.000000,0.000000,0.000000,0.000000,0.517279,0.524085,0.381153,0.304922,0.144838,475.000000,425.000000,50.000000,40.000000,60.000000,0.000000,0.000000,0.000000,0.000000;
#CREDIT:;
#NOTES:
0000
0000
0000
0000
,
0000
0000
0000
0000
,
0000
0000
0000
0000
,
0000
0000
0000
0000
,
0000
0000
0000
0000
0110
0000
0000
1000
0001
0000
1000
0000
0100
0000
0010
0000
,
0021
0000
0000
0031
0010
0000
0001
0000
0100
0000
0001
0000
0100
0000
0010
0000
,
1020
0000
0000
1030
0010
0000
1000
0000
0100
0000
1000
0000
0100
0000
0010
0000
,
0021
0000
0000
0031
0010
0000
0001
0000
1000
0000
0010
0000
0010
0000
0010
0000
,
MMMM
1001
MMMM
1001
,
1200
0000
0000
0310
0100
0000
1000
0000
0010
0000
1000
0000
0010
0000
0100
0000
,
0201
0000
0000
0310
0100
0000
0001
0000
0010
0000
0001
0000
0010
0000
0100
0000
,
1200
0000
0000
0310
0100
0000
1000
0000
0001
0000
0100
0000
0100
0000
0100
0000
,
MMMM
1001
MMMM
1001
,
1010
0000
0000
0000
0011
0000
0000
0000
1000
0000
0010
0000
1000
0000
0000
0001
,
0010
0001
0010
0100
0001
0100
0010
0001
,
1001
0000
1001
0000
0001
0100
0010
1000
,
0001
0002
0100
0003
1000
2000
0100
3000
,
0011
0000
1010
0000
0001
0010
0001
0000
,
1000
0010
1000
0010
0100
1000
0100
0010
,
0110
0000
0110
0000
0100
0001
0010
0100
,
1000
2000
0001
3000
1000
0010
0001
0020
,
0000
0000
1030
0000
0100
M00M
0100
0000
0001
0000
0010
0000
1000
0000
0020
0000
,
0000
0000
0031
0000
0100
M00M
0100
0000
1000
0000
0010
0000
0100
0000
0001
0000
,
0010
M00M
0010
0000
1000
0000
0001
0000
0100
M00M
0100
0000
1000
0000
0001
0000
,
0100
0001
0100
0000
0001
1000
0001
0000
1000
0100
1000
0000
0001
0000
0020
0000
,
0000
0000
0031
0000
0100
M00M
0100
0000
1000
0000
0001
0000
1000
0000
0020
0000
,
0000
0000
1030
0000
0100
M00M
0100
0000
0001
0000
1000
0000
0001
0000
0020
0000
,
0000
0130
1000
1000
1000
0000
1000
0020
,
0000
0130
0001
0001
0001
0000
1001
0000
,
1000
0010
1000
0010
1000
0100
1000
0100
,
0001
0100
0001
0100
1000
1000
2000
0000
,
3001
0010
0001
0010
0001
0100
0001
0100
,
2000
0000
3000
0200
0000
0301
0002
0000
,
1003
0100
1000
0100
1000
1000
0010
0000
,
0001
0100
0001
0100
0001
0001
0010
0000
,
1000
0100
1000
0100
0010
0001
0100
0010
,
2002
0000
0000
0000
0000
0000
0000
0000
3003
0000
1000
0000
0010
M00M
0010
0000
,
0012
0000
0000
0000
0100
0000
0100
0000
0103
0000
0001
0000
0010
M00M
0010
0000
,
2010
0000
0100
0100
3100
0000
1000
0100
,
0010
0001
1000
0001
0100
0001
0000
0110
,
0000
0000
1000
0000
0010
0000
0001
0000
0010
0000
1000
0000
0100
M00M
0100
0000
,
0102
0000
0000
0000
0010
0000
0010
0000
0013
0000
0001
0000
0100
M00M
0100
0000
,
1000
1000
0010
1000
0001
2000
0000
3000
,
0010
1000
0001
1000
0100
1000
0000
0110
,
0000
0001
0000
0110
0000
1001
0000
1000
,
0001
0100
0001
0000
1000
0100
0000
0000
1002
0000
0000
0000
0103
0000
0001
0000
,
1000
1000
0001
0010
1000
0010
0001
0100
,
0010
0000
0000
0010
0000
0000
0010
0000
1000
0000
0000
1000
0000
0000
2100
0000
,
0000
0001
0000
0001
0000
3010
1000
0000
,
1100
0000
0000
0000
0001
0100
0001
0000
2001
0000
0000
0000
3100
0000
1000
0000
,
0001
0001
1000
0010
0001
0010
1000
0100
,
0001
0000
0000
0001
0000
0000
0100
0000
1000
0000
0000
1000
0000
0000
2002
0000
,
0000
0000
0000
0000
0000
0000
0000
0000
3003
0000
0001
0000
0010
M00M
0010
0000
,
2010
0000
0000
0000
0100
0000
0100
0000
3100
0000
1000
0000
0010
M00M
0010
0000
,
0012
0000
0100
0100
0103
0000
0001
0100
,
1000
0001
0010
1000
0100
1000
0000
0110
,
0000
0000
0001
0000
0010
0000
1000
0000
0010
0000
0001
0000
0100
M00M
0100
0000
,
2100
0000
0000
0000
0010
0000
0010
0000
3010
0000
1000
0000
0100
M00M
0100
0000
,
0001
0001
0010
0001
1000
0002
0000
0003
,
1000
0010
0001
1000
0100
0001
0000
0110
,
0000
1000
0000
0110
0000
1001
0000
0001
,
0021
0000
0000
0130
0010
0000
0001
0000
1000
0000
0001
0000
0100
0000
0010
0000
,
1020
0000
0000
0130
0010
0000
1000
0000
0001
0000
1000
0000
0100
0000
0010
0000
,
0021
0000
0000
0130
0010
0000
0001
0000
1000
0000
0010
0000
0010
0000
0010
0000
,
MMMM
1001
MMMM
1001
,
1200
0000
0000
0310
0001
0000
0100
0000
1000
0000
0100
0000
0010
0000
0100
0000
,
0201
0000
0000
0310
1000
0000
0100
0000
0001
0000
0100
0000
0010
0000
0100
0000
,
1200
0000
0000
0310
0001
0000
1000
0000
0001
0000
0100
0000
0100
0000
0100
0000
,
MMMM
1001
MMMM
1001
;

//---------------dance-single - ----------------
#NOTEDATA:;
#CHARTNAME:;
#STEPSTYPE:dance-single;
#DESCRIPTION:;
#CHARTSTYLE:;
#DIFFICULTY:Hard;
#METER:10;
#RADARVALUES:0.460650,0.445472,0.182953,0.373530,0.015246,423.000000,399.000000,24.000000,49.000000,0.000000,0.000000,0.000000,0.000000,0.000000,0.460650,0.445472,0.182953,0.373530,0.015246,423.000000,399.000000,24.000000,49.000000,0.000000,0.000000,0.000000,0.000000,0.000000;
#CREDIT:;
#NOTES:
0000
0000
0000
0000
,
0000
0000
0000
0000
,
0000
0000
0000
0000
,
0000
0000
0000
0000
,
0000
0000
0110
0000
0001
0010
0100
1000
,
0020
0000
0130
0001
0100
0001
1000
0100
,
0020
0000
0130
1000
0100
1000
0001
0100
,
0020
0000
0130
0001
1000
0100
0100
0100
,
1000
0110
0001
0110
,
2001
0000
3010
1000
0010
1000
0100
0010
,
0002
0000
0013
0001
0010
0001
0100
0010
,
2000
0000
3010
1000
0001
0010
0010
0010
,
0100
1001
0010
1001
,
0011
0000
1010
0000
0010
1000
0100
0000
,
1000
0100
1000
0010
0001
0010
1000
0100
,
0010
0000
0010
0000
0100
0010
0001
0100
,
0010
0010
1000
0000
0010
0010
1000
0000
,
1010
0000
0011
0000
0010
0001
0100
0000
,
0001
0100
0001
0010
1000
0010
0001
0100
,
0010
0000
0010
0000
0100
0010
1000
0100
,
0010
0010
0001
0000
0010
0001
1000
0020
,
0000
0130
0001
0001
0010
0100
1000
0002
,
0000
0103
0010
0010
1000
0001
0010
0100
,
1000
1000
0100
1000
0001
0001
0100
0001
,
0010
0010
0100
0100
0010
0100
1000
0002
,
0000
0103
0010
0010
0000
0100
0010
2000
,
0000
3100
0010
0010
0000
0100
1000
0020
,
0000
0031
0010
0010
1000
0000
0001
0020
,
0000
1030
0010
0010
0001
0000
1001
0000
,
2000
3010
0020
0130
,
0200
0000
0301
0000
1000
1000
1000
0000
,
0002
0013
0020
0130
,
0200
0000
0300
2000
0000
3001
0001
0000
,
1000
0010
1000
0010
1000
0010
0100
0000
,
0001
0010
0001
0010
0001
0010
0100
0000
,
1000
0100
0010
0001
0100
0010
1000
0001
,
0020
0000
0000
0000
0030
0100
0010
0001
,
0200
0000
0001
0001
0301
0100
0001
0100
,
2000
0000
0100
0100
3100
0000
1000
0100
,
0001
0100
0001
0100
0001
0020
0000
0031
,
0000
0010
0001
0100
0010
1000
0001
1000
,
0200
0000
0010
0010
0310
0100
1000
0100
,
0001
0100
0010
0100
1000
0020
0000
0030
,
0100
0001
0100
0001
1000
0002
0000
0013
,
0000
2010
0000
3010
0000
0012
0000
1003
,
0010
0100
0010
0000
2002
0000
3003
1000
,
0010
1000
0010
1000
0100
0001
0100
1000
,
0010
0000
0000
0010
0000
0000
0100
0000
0010
0000
0000
0010
0000
0000
1002
0000
,
0000
0010
0000
0010
0000
0103
0001
0000
,
0010
0000
0100
0010
2002
0000
3003
0001
,
0010
0001
0010
0001
0100
1000
0100
0001
,
0010
0000
0000
0001
0000
0000
1000
0000
0010
0000
0000
1000
0000
0000
2002
0000
,
0000
0000
0000
0000
3003
1000
0010
1000
,
0200
0000
1000
1000
1300
0100
1000
0100
,
0002
0000
0100
0100
0103
0000
0001
0100
,
1000
0100
0001
0100
1000
0020
0000
1030
,
0000
0010
0100
0001
1000
0100
0010
0001
,
0200
0000
0010
0010
0310
0100
0001
0100
,
1000
0100
0010
0100
0001
0020
0000
0030
,
0001
0010
1000
0010
0001
0200
0000
0310
,
0000
2010
0000
3001
0000
0021
0000
0031
,
0020
0000
0130
1000
0010
1000
0100
1000
,
0020
0000
0130
0001
0010
0001
0100
0001
,
0020
0000
0130
1000
0010
0100
0100
0100
,
0001
0110
1000
0110
,
1002
0000
1003
0010
0100
0001
0010
0100
,
2000
0000
3001
0100
0010
1000
0100
0010
,
0002
0000
0103
0010
1000
0100
0100
0100
,
0010
1001
0100
1001
;

//---------------dance-single - ----------------
#NOTEDATA:;
#CHARTNAME:;
#STEPSTYPE:dance-single;
#DESCRIPTION:;
#CHARTSTYLE:;
#DIFFICULTY:Medium;
#METER:7;
#RADARVALUES:0.351750,0.393064,0.243938,0.373530,0.000000,323.000000,291.000000,32.000000,49.000000,0.000000,0.000000,0.000000,0.000000,0.000000,0.351750,0.393064,0.243938,0.373530,0.000000,323.000000,291.000000,32.000000,49.000000,0.000000,0.000000,0.000000,0.000000,0.000000;
#CREDIT:;
#NOTES:
0000
0000
0000
0000
,
0000
0000
0000
0000
,
0000
0000
0000
0000
,
0000
0000
0000
0000
,
0000
1001
0100
0100
,
1002
0000
0013
0001
0010
0000
0001
0000
,
2001
0000
3010
1000
0010
0000
1000
0000
,
1002
0000
0013
0000
0001
0100
0001
0200
,
0000
0000
0010
0300
0000
0000
0110
0000
,
2001
0000
3100
1000
0100
0000
0010
0000
,
1002
0000
0103
0001
0100
0000
0010
0000
,
2001
0000
3010
0000
1000
0100
1000
0200
,
0000
0000
0010
0300
0000
0000
0110
0000
,
0001
0000
0001
0000
1000
0010
1000
0000
,
0001
0010
1000
0100
,
0001
0000
0001
0000
0010
0001
0100
0000
,
0002
1003
2000
3001
,
1000
0000
1000
0000
0001
0010
0001
0000
,
1000
0010
0001
0100
,
1000
0000
1000
0000
0010
1000
0100
0000
,
0020
0000
0130
0000
0010
0001
1000
0000
,
0002
0000
0103
0000
0010
1000
0001
0000
,
2000
0000
3100
0000
0010
0100
0010
0000
,
1001
0100
1001
0010
,
1001
0000
0110
0000
1001
0000
0001
0200
,
0000
0310
0000
0010
0000
0100
0010
2000
,
0000
0001
0000
3001
0000
1000
0100
0020
,
0000
0000
0031
0000
0001
0000
0100
0020
,
0000
1030
1000
1000
,
0001
0010
0001
1000
,
0001
0000
0100
0000
0001
0100
0001
0000
,
1000
0010
1000
0001
,
1000
0000
0000
0100
0000
1000
0100
0000
,
0010
0000
0010
0000
0010
0001
1000
0000
,
0010
0000
0010
0000
0010
1000
0001
0000
,
1000
0100
0001
0010
,
2020
0000
3030
0010
,
1002
0000
0100
0100
0103
0000
0010
0000
,
2001
0000
0100
0100
3100
0000
0010
0000
,
0001
0000
0001
0000
1000
0200
0000
1300
,
0000
0001
0100
0000
0010
0000
1000
0000
,
1002
0000
0010
0010
0013
0000
0001
0000
,
1000
0010
1000
0000
0001
0010
0001
0000
,
1000
0000
1000
0000
0001
0200
0000
0301
,
0000
0200
0000
0301
0000
0020
0000
0031
,
1000
1000
0220
0330
,
1000
0010
0100
0000
0010
0100
0001
0000
,
1000
1000
0100
0100
,
2002
0000
3003
0000
1000
0001
1000
0000
,
0001
0001
0220
0330
,
0001
0010
0100
0000
1000
0010
0100
0000
,
0001
0001
1000
1000
,
0220
0000
0330
0010
,
2001
0000
0100
0100
3100
0000
0010
0000
,
1002
0000
0100
0100
0103
0000
0010
0000
,
1000
0000
0100
0000
0001
0200
0000
0301
,
0000
0100
1000
0000
0010
0000
0100
0000
,
2001
0000
0010
0010
3010
0000
1000
0000
,
0001
0010
0001
0000
1000
0010
1000
0000
,
0001
0000
0100
0000
1000
0200
0000
1300
,
0000
0200
0000
0301
0000
0020
0000
0031
,
2000
0000
3010
1000
0100
0000
0010
0000
,
1002
0000
0013
0001
0100
0000
0010
0000
,
2001
0000
3010
0000
1000
0100
1000
0200
,
0000
0000
0010
0300
0000
0000
0110
0000
,
1002
0000
0103
0001
0010
0000
0001
0000
,
2001
0000
3100
1000
0010
0000
1000
0000
,
1002
0000
0013
0000
0001
0100
0001
0200
,
0000
0000
0010
0300
0000
0000
0110
0000
;

//---------------dance-single - ----------------
#NOTEDATA:;
#CHARTNAME:;
#STEPSTYPE:dance-single;
#DESCRIPTION:;
#CHARTSTYLE:;
#DIFFICULTY:Easy;
#METER:5;
#RADARVALUES:0.257006,0.314451,0.198199,0.426891,0.000000,236.000000,210.000000,26.000000,56.000000,0.000000,0.000000,0.000000,0.000000,0.000000,0.257006,0.314451,0.198199,0.426891,0.000000,236.000000,210.000000,26.000000,56.000000,0.000000,0.000000,0.000000,0.000000,0.000000;
#CREDIT:;
#NOTES:
0000
0000
0000
0000
,
0000
0000
0000
0000
,
0000
0000
0000
0000
,
0000
0000
0000
0000
,
0000
0100
0010
0100
,
2002
3003
0001
0100
,
2002
3003
1000
0100
,
2002
3003
0001
0100
,
0120
1000
0030
1000
,
2002
3003
1000
0010
,
2002
3003
0001
0010
,
2002
3003
1000
0100
,
0120
0001
0030
0001
,
1000
1000
1000
1000
,
0010
1000
0100
0010
,
0100
0100
0100
0010
,
0002
0003
2000
3000
,
0001
0001
0001
0001
,
0010
0001
0100
0010
,
0100
0100
0100
0010
,
2000
3000
0001
0010
,
0200
0300
1000
0010
,
0200
0300
0001
0010
,
0011
0000
1010
0000
,
0011
1010
0011
0000
,
1000
0010
1000
0000
,
0001
0100
0001
0000
,
1000
0100
0002
0003
,
0001
0010
1000
1000
,
0002
0000
0023
0000
,
0230
0000
1300
0001
,
2000
0000
3020
0000
,
0230
0000
0301
0001
,
1000
0100
0010
0000
,
0100
0010
0001
0000
,
0010
0001
0100
0010
,
2002
0000
3003
0001
,
1000
0010
1000
0010
,
0001
0010
0001
0010
,
1000
1000
0100
0100
,
0010
0100
0010
0010
,
0001
0100
0001
0100
,
1000
0001
0020
0030
,
1000
0100
0010
0001
,
2000
3000
0002
0003
,
0100
0100
2002
3003
,
0001
0100
0010
1000
,
0100
0100
0010
0010
,
0022
0000
0033
1000
,
0100
0100
2002
3003
,
1000
0100
0010
0001
,
0100
0100
0010
0010
,
2020
0000
3030
1000
,
0001
0010
0001
0010
,
1000
0010
1000
0010
,
0001
0001
0100
0100
,
0010
0100
0010
0010
,
1000
0100
1000
0100
,
0001
1000
0020
0030
,
0001
0100
0010
1000
,
0200
0300
0200
0300
,
0022
0033
0001
0100
,
2020
3030
1000
0100
,
0022
0033
0001
0100
,
0120
1000
0030
1000
,
0202
0303
0001
0010
,
2200
3300
1000
0010
,
0202
0303
1000
0100
,
0120
0001
0030
0001
;

//---------------dance-single - ----------------
#NOTEDATA:;
#CHARTNAME:;
#STEPSTYPE:dance-single;
#DESCRIPTION:;
#CHARTSTYLE:;
#DIFFICULTY:Beginner;
#METER:3;
#RADARVALUES:0.191665,0.209634,0.068607,0.030492,0.000000,176.000000,167.000000,9.000000,4.000000,0.000000,0.000000,0.000000,0.000000,0.000000,0.191665,0.209634,0.068607,0.030492,0.000000,176.000000,167.000000,9.000000,4.000000,0.000000,0.000000,0.000000,0.000000,0.000000;
#CREDIT:;
#NOTES:
0000
0000
0000
0000
,
0000
0000
0000
0000
,
0000
0000
0000
0000
,
0000
0000
0000
0000
,
0000
0000
0000
0000
,
1000
0000
0010
0010
,
0010
0000
1000
1000
,
1000
0000
0100
0100
,
0000
1001
0000
1001
,
0001
0000
0010
0010
,
0010
0000
0001
0001
,
0001
0000
0100
0100
,
0000
1001
0000
1001
,
0001
0000
0001
0000
,
0010
0010
0010
0000
,
0001
1000
0001
0000
,
0100
0000
0100
0000
,
0001
0000
1000
0000
,
0010
0010
0010
0000
,
1000
0001
1000
0000
,
0100
0000
1000
1000
,
1000
0000
0010
0010
,
0010
0000
0100
0100
,
0100
0000
0100
0000
,
0001
0001
0001
0000
,
0010
0000
0010
0000
,
0100
0000
0100
0000
,
1000
1000
1000
0000
,
0001
0001
0001
0000
,
1000
0000
0010
0000
,
1000
0000
1000
0000
,
0001
0000
0010
0000
,
0001
0000
0001
0000
,
1000
1000
1000
0000
,
0001
0001
0001
0000
,
0010
0010
0010
0010
,
0020
0000
0030
0000
,
0001
0010
0001
0000
,
1000
0010
1000
0000
,
0001
0001
0001
0000
,
1000
0000
0001
0000
,
0010
0100
0010
0000
,
0001
1000
0001
0000
,
0100
0100
0100
0000
,
0100
0000
0100
0000
,
0001
0001
0001
0000
,
0010
0010
0010
0000
,
0001
0000
1000
0000
,
0002
0000
0003
0000
,
1000
1000
1000
0000
,
0010
0010
0010
0000
,
1000
0000
0001
0000
,
2002
0000
3003
0000
,
1000
0010
1000
0000
,
0001
0010
0001
0000
,
1000
1000
1000
0000
,
0001
0000
1000
0000
,
0010
0100
0010
0000
,
1000
0001
1000
0000
,
0100
0100
0100
0000
,
0100
0000
0100
0000
,
1000
0000
0010
0010
,
0010
0000
1000
1000
,
1000
0000
0100
0100
,
0000
1001
0000
1001
,
0001
0000
0010
0010
,
0010
0000
0001
0001
,
0001
0000
0100
0100
,
0000
1001
0000
1001
;
