#VERSION:0.83;
#TITLE:Avant Raze;
#SUBTITLE:;
#ARTIST:Sampling Masters MEGA;
#TITLETRANSLIT:;
#SUBTITLETRANSLIT:;
#ARTISTTRANSLIT:;
#GENRE:Hardcore;
#ORIGIN:;
#CREDIT:;
#BANNER:Avant Raze.png;
#BACKGROUND:Avant Raze-bg.png;
#PREVIEWVID:;
#JACKET:Avant Raze-jacket.png;
#CDIMAGE:;
#DISCIMAGE:;
#LYRICSPATH:;
#CDTITLE:cdtitle.png;
#MUSIC:Avant Raze.ogg;
#OFFSET:-0.058616;
#SAMPLESTART:24.958618;
#SAMPLELENGTH:19.200001;
#SELECTABLE:YES;
#BPMS:0.000=200.000;
#STOPS:;
#DELAYS:;
#WARPS:;
#TIMESIGNATURES:0.000=4=4;
#TICKCOUNTS:0.000=4;
#COMBOS:0.000=1;
#SPEEDS:0.000=1.000=0.000=0;
#SCROLLS:0.000=1.000;
#FAKES:;
#LABELS:0.000=Song Start;
#BGCHANGES:;
#KEYSOUNDS:;
#ATTACKS:
;

//---------------dance-single - ----------------
#NOTEDATA:;
#CHARTNAME:;
#STEPSTYPE:dance-single;
#DESCRIPTION:;
#CHARTSTYLE:;
#DIFFICULTY:Challenge;
#METER:14;
#RADARVALUES:0.748481,0.834740,0.393710,0.476994,0.219569,692.000000,640.000000,52.000000,63.000000,0.000000,0.000000,0.000000,0.000000,0.000000,0.748481,0.834740,0.393710,0.476994,0.219569,692.000000,640.000000,52.000000,63.000000,0.000000,0.000000,0.000000,0.000000,0.000000;
#CREDIT:;
#NOTES:
// measure 0
0000
0000
0000
0000
,  // measure 1
0000
0000
0000
0000
,  // measure 2
0000
0000
0000
0000
,  // measure 3
0000
0000
0000
0000
,  // measure 4
1002
0000
0010
0000
0010
0000
1003
0001
,  // measure 5
2000
0000
0010
0000
3010
1000
0001
1000
,  // measure 6
0200
1000
0320
0001
,  // measure 7
0100
0000
0100
0000
0031
0010
0100
1000
,  // measure 8
0001
0100
0010
1000
0000
1000
0001
0100
,  // measure 9
0010
1000
0000
1000
0001
0100
0001
0020
,  // measure 10
0000
0130
0010
0100
1000
0001
1000
0010
,  // measure 11
0200
0000
0000
0301
0010
0100
1000
0001
,  // measure 12
2001
0000
0010
0000
0100
0000
3001
1000
,  // measure 13
0002
0000
0010
0000
0103
0001
0010
0001
,  // measure 14
2000
0010
3002
0100
,  // measure 15
1000
0000
1000
0000
0103
0001
1000
0100
,  // measure 16
0010
0001
1000
0010
0000
0010
0100
0001
,  // measure 17
1000
0100
0000
0100
0010
0001
0100
0020
,  // measure 18
0000
1030
0010
0100
0001
0010
0100
1000
,  // measure 19
0010
0000
0001
0000
0010
0000
1000
0000
0001
0000
0010
0000
0100
0010
0100
0010
,  // measure 20
0200
0000
0000
0000
0000
0000
0000
0000
0000
0000
0000
0000
0310
0001
0010
0001
,  // measure 21
1000
0000
1000
1000
0001
0010
0010
0000
,  // measure 22
1001
0000
0000
0000
0001
0000
0100
0000
0001
0000
0000
0001
1000
0000
0001
0000
,  // measure 23
0020
2030
3020
0032
,  // measure 24
0103
0000
1000
0000
0200
0000
0000
0000
0302
0000
0103
0000
0010
1000
0010
1000
,  // measure 25
0001
0000
0001
0001
1000
0010
0010
0000
,  // measure 26
1001
0000
0000
0000
1000
0000
0100
0000
1000
0000
0000
1000
0001
0000
1000
0000
,  // measure 27
0020
0032
0023
2030
,  // measure 28
3100
0001
0200
0000
2300
0000
3001
0100
,  // measure 29
0020
0000
0130
0100
0100
0100
0100
0100
,  // measure 30
0100
0100
0010
1000
0001
0001
1000
0100
,  // measure 31
0020
0000
0130
0010
0100
0100
0100
0100
,  // measure 32
0100
0100
0010
0001
0100
0010
1000
0001
,  // measure 33
0020
0000
0031
0001
0001
0001
0001
0001
,  // measure 34
0001
0001
1000
0100
0010
0010
0001
0100
,  // measure 35
0020
0000
1030
0010
1000
1000
1000
1000
,  // measure 36
1000
0000
1000
0000
0010
0000
1000
0000
1001
0000
0000
0000
0001
0100
0010
1000
,  // measure 37
0001
0000
0001
0001
0100
0010
0010
0000
,  // measure 38
1001
0000
0000
0000
1000
0000
0100
0000
0001
0000
0000
0001
0100
0000
1000
0000
,  // measure 39
0020
0032
0023
2030
,  // measure 40
3100
0000
0001
0000
0200
0000
0000
0000
2300
0000
3001
0000
1000
0100
0010
0001
,  // measure 41
1000
0000
1000
1000
0100
0010
0010
0000
,  // measure 42
1001
0000
0000
0000
0001
0000
0100
0000
1000
0000
0000
1000
0100
0000
0001
0000
,  // measure 43
0020
2030
3020
0032
,  // measure 44
0103
0000
0000
1000
0000
0000
0200
0000
0000
0000
0000
0000
0301
0000
0100
0000
0001
0000
0100
0000
0010
0000
1000
0000
,  // measure 45
0200
0000
0301
0001
0001
0001
0001
0001
,  // measure 46
0001
0001
0100
0010
0001
0001
1000
0010
,  // measure 47
0200
0000
1300
0100
1000
1000
1000
1000
,  // measure 48
1000
1000
0100
0010
1000
0001
1000
0100
,  // measure 49
0020
0000
1030
1000
1000
1000
1000
1000
,  // measure 50
1000
1000
0010
0001
1000
1000
0001
0100
,  // measure 51
0020
0000
0031
0010
0001
0001
0001
0001
,  // measure 52
0001
0000
0001
0000
0010
0000
1000
0000
1001
0000
0000
0000
1000
0100
1000
0100
,  // measure 53
0020
0000
0000
0000
0000
0000
0130
1000
,  // measure 54
2100
0000
0000
0000
0000
0000
3001
0100
,  // measure 55
0102
0000
0100
0000
,  // measure 56
0103
0000
0100
0000
0001
0000
1000
0000
1000
0000
0001
0000
,  // measure 57
0012
0000
0000
0000
0000
0000
1003
0010
,  // measure 58
0201
0000
0000
0000
0000
0000
0301
0010
,  // measure 59
1100
0000
0001
0000
1000
0000
0101
0000
1000
0000
0001
0000
,  // measure 60
1010
0000
0000
0000
0000
0000
0000
0000
0001
0000
0000
0000
0000
0000
0000
0000
1000
0000
0000
0000
0000
0000
0000
0000
0001
0000
0000
0010
0000
0000
0001
0000
0000
0010
0000
0000
0001
0000
0000
0000
0000
0000
0000
0000
0000
0000
0000
0000
,  // measure 61
1000
1010
0000
0110
0000
1010
0000
0110
,  // measure 62
0000
1010
0010
0100
0010
1000
0001
0010
,  // measure 63
0001
0011
0000
0110
0000
0011
0000
0110
,  // measure 64
0000
0011
0010
0100
0001
0100
1000
0001
,  // measure 65
0100
0101
0000
1010
0000
1100
0000
0011
,  // measure 66
0000
1001
1000
0010
0100
1000
0100
0001
,  // measure 67
1001
0100
1001
0010
,  // measure 68
1001
0000
0000
0000
0110
0000
0000
0000
0001
1000
0001
0000
1001
0000
0000
0000
,  // measure 69
2000
0100
0000
0000
0001
0000
0000
3100
,  // measure 70
2000
0000
0000
0000
0010
0000
0000
0000
0001
0000
0001
0000
0000
0000
3001
0100
,  // measure 71
0002
0100
0000
0000
1000
0000
0000
0103
,  // measure 72
0002
0000
0010
0000
1000
1003
1001
0000
,  // measure 73
1000
0100
0010
0100
0001
0100
0010
0100
,  // measure 74
1000
0010
0100
0010
0001
0010
0100
0010
,  // measure 75
1000
0100
0001
0100
1000
0010
0001
0010
,  // measure 76
1000
0010
1000
0010
0100
0010
0100
0001
0100
0001
1000
0001
,  // measure 77
0020
0000
0000
0000
,  // measure 78
0000
0000
0030
0110
,  // measure 79
0001
0001
0010
1000
0000
1000
0010
0001
,  // measure 80
1000
1000
0010
0001
0000
0001
0010
1000
,  // measure 81
0001
0001
0001
0010
0100
1000
0001
0100
,  // measure 82
0010
0010
1000
0010
1000
0000
0101
0000
,  // measure 83
1000
1000
0100
0001
0000
0001
0100
1000
,  // measure 84
0001
0001
0100
1000
0000
1000
0100
0001
,  // measure 85
1000
1000
1000
0001
0010
1000
0001
0100
,  // measure 86
1000
0010
0001
1000
0100
0000
0101
0000
,  // measure 87
0002
0000
1003
0100
0010
0010
0100
0100
,  // measure 88
1000
0100
0001
0100
0010
0001
0100
0010
,  // measure 89
2000
0000
3001
0100
0010
0010
0100
0100
,  // measure 90
0010
1000
0001
0000
0001
1000
0100
0000
,  // measure 91
1002
0000
1003
0010
0100
0100
0010
0010
,  // measure 92
1000
0010
0001
0010
0100
0001
0010
0100
,  // measure 93
2000
0000
3001
0010
0100
0100
0010
0010
,  // measure 94
0001
0000
0011
0000
1001
0000
0101
0000
0110
0000
1010
0000
,  // measure 95
2001
0000
3001
0100
1000
1000
0100
0100
,  // measure 96
0010
1000
0001
0100
1000
0001
0010
1000
,  // measure 97
0002
0000
1003
0100
0001
0001
0100
0100
,  // measure 98
0010
0001
0010
0001
0010
0001
1000
0010
1000
0010
1000
0010
,  // measure 99
0200
0000
0301
0010
1000
1000
0010
0010
,  // measure 100
0100
1000
0001
0010
1000
0001
0100
1000
,  // measure 101
0002
0000
1003
0010
0001
0001
0010
0010
,  // measure 102
1000
0000
1010
0000
1001
0000
1100
0000
0011
0000
1001
0000
,  // measure 103
0202
0000
0000
0000
,  // measure 104
0000
0000
0000
0000
,  // measure 105
0303
0000
0000
0000
;

//---------------dance-single - ----------------
#NOTEDATA:;
#CHARTNAME:;
#STEPSTYPE:dance-single;
#DESCRIPTION:;
#CHARTSTYLE:;
#DIFFICULTY:Hard;
#METER:11;
#RADARVALUES:0.539728,0.596243,0.363424,0.590565,0.045428,499.000000,451.000000,48.000000,78.000000,0.000000,0.000000,0.000000,0.000000,0.000000,0.539728,0.596243,0.363424,0.590565,0.045428,499.000000,451.000000,48.000000,78.000000,0.000000,0.000000,0.000000,0.000000,0.000000;
#CREDIT:;
#NOTES:
0000
0000
0000
0000
,
0000
0000
0000
0000
,
0000
0000
0000
0000
,
0000
0000
0000
0000
,
0002
0010
1003
0001
,
2000
0010
3001
1000
,
0200
1000
0320
0001
,
0130
1000
0001
0100
,
0010
1000
0010
1000
0000
0001
0010
0001
,
0010
0001
0000
1000
0010
0100
0001
2000
,
0000
3100
0010
0001
,
2002
0000
3003
0000
1000
0010
0100
0001
,
2000
0010
3100
1000
,
0002
0010
0103
0001
,
2000
0010
3002
0010
,
1003
0001
1000
0010
,
1000
0010
1000
0100
0000
0010
0001
0010
,
0001
0100
0000
0001
0100
0010
1000
0200
,
0000
0310
0001
0100
,
0010
0000
1000
0000
0001
0010
0100
0010
,
0200
0000
0000
0000
0000
0000
0310
0001
,
1000
0000
0001
0100
0000
0100
0001
0000
,
0011
0000
0000
1100
0000
0000
1001
0000
,
2000
3020
0032
0023
,
0030
1000
0020
0000
0032
0000
0013
1000
,
0001
0000
1000
0100
0000
0100
1000
0000
,
1010
0000
0000
0101
0000
0000
1001
0000
,
0002
0023
2030
3020
,
0030
0001
0200
0000
0320
0000
1030
0000
,
1002
0010
0010
0010
,
0013
0000
0010
0100
1000
0000
0010
0100
,
0002
0000
1000
2003
0000
3100
0010
0000
,
0100
0000
0010
0001
1000
0000
0001
0000
,
2001
0010
0010
0010
,
3010
0000
0010
0100
0001
0000
0010
0100
,
2000
0000
0001
3002
0000
0103
0010
0000
,
0100
0000
0010
1000
0100
0000
0010
0001
,
1000
0000
0001
0100
0000
1000
0100
0000
,
0101
0000
0000
1010
0000
0000
1001
0000
,
0002
0023
2030
3020
,
0030
0001
0200
0000
2300
0000
3100
0001
,
1000
0000
0100
0001
0000
0100
1000
0000
,
1100
0000
0000
0011
0000
0000
1001
0000
,
2000
3020
0032
0023
,
0030
1000
0200
0000
0320
0000
0031
0000
,
1002
0100
0100
0100
,
0103
0000
0001
0100
1000
0000
1000
0100
,
0002
0000
0010
0023
0000
0130
1000
0000
,
0001
0000
1000
0010
0100
0000
0001
0000
,
2001
0100
0100
0100
,
3100
0000
1000
0100
0001
0000
0001
0100
,
2000
0000
0010
3020
0000
0130
0001
0000
,
1000
0000
0010
1000
0100
0000
0010
0001
,
2000
0000
0000
3001
,
0102
0000
0000
1003
,
2001
0000
0001
0000
,
3100
0000
0010
0000
0001
0000
1000
0000
0100
0000
0010
0000
,
0002
0000
0000
0013
,
2100
0000
0000
3010
,
0202
0303
2200
3300
,
1001
0000
1001
0000
0001
1000
0001
0000
,
1000
0010
0000
0010
0000
0010
0000
0010
,
0000
0010
1000
0000
0001
0000
1000
0100
,
0000
0100
0000
0100
0000
0100
0000
0100
,
0000
0010
0001
0000
0100
0010
1000
0000
,
0001
0100
0000
0100
0000
0100
0000
0100
,
0000
0100
0001
0000
1000
0000
0001
0010
,
0100
0000
1001
0000
,
1001
0000
0110
0000
0001
1000
0001
0000
,
2000
0100
0000
0000
0100
0000
0000
3100
,
0020
0000
0001
0000
0100
0000
0000
0001
,
0032
0010
0000
0000
0100
0000
0000
0103
,
0020
0100
1030
1001
,
1000
0100
1000
0000
0100
0010
0100
0000
,
0010
0001
0010
0000
0100
0010
0100
0000
,
1000
0001
0100
0000
0001
1000
0100
0000
,
0020
0032
2003
3020
,
0230
0000
0000
0000
,
0000
0000
0000
0301
,
1000
0000
0001
0100
0000
0010
1000
0000
,
0100
0000
0010
0001
0000
0100
0010
0000
,
1000
0010
0100
0000
0001
0010
0100
0000
,
1000
0001
1000
0000
0001
0000
1001
0000
,
0001
0000
0100
1000
0000
0100
0001
0000
,
0010
0000
1000
0010
0000
0001
0100
0000
,
0010
1000
0100
0000
0010
0001
0100
0000
,
0010
0100
0010
0000
0100
0000
0001
0000
,
1002
0000
0013
0001
0100
0000
0001
0000
,
0101
0000
0011
0000
0001
0100
0001
0000
,
2001
0000
3010
1000
0100
0000
1000
0000
,
1100
0000
1010
0000
0001
1000
0100
0000
,
0120
0000
0130
1000
0010
0000
1000
0000
,
0011
0000
1100
0000
1000
0001
0100
0000
,
0120
0000
0130
0001
0010
0000
0100
0000
,
1000
0000
0010
0000
0100
0000
0001
0000
1000
0000
0001
0000
,
1002
0000
1003
0100
0001
0000
0100
0000
,
0101
0000
1100
0000
1000
0010
1000
0000
,
2001
0000
3001
0100
1000
0000
0100
0000
,
0020
2030
3200
0310
,
0110
0000
0001
0010
1000
0000
0010
0000
,
1010
0000
0011
0000
0010
0001
0100
0000
,
0110
0000
1000
0010
0001
0000
0010
0000
,
1000
0000
0010
0000
0100
0000
0001
0000
1000
0000
0100
0000
,
0220
0000
0000
0000
,
0000
0000
0000
0000
,
0330
0000
0000
0000
;

//---------------dance-single - ----------------
#NOTEDATA:;
#CHARTNAME:;
#STEPSTYPE:dance-single;
#DESCRIPTION:;
#CHARTSTYLE:;
#DIFFICULTY:Medium;
#METER:8;
#RADARVALUES:0.370996,0.476995,0.257426,0.741991,0.000000,343.000000,309.000000,34.000000,98.000000,0.000000,0.000000,0.000000,0.000000,0.000000,0.370996,0.476995,0.257426,0.741991,0.000000,343.000000,309.000000,34.000000,98.000000,0.000000,0.000000,0.000000,0.000000,0.000000;
#CREDIT:;
#NOTES:
0000
0000
0000
0000
,
0000
0000
0000
0000
,
0000
0000
0000
0000
,
0000
0000
0000
0000
,
0002
0000
0013
0100
,
2000
0000
3010
0100
,
0002
0000
2003
0000
,
3001
0000
1000
0100
,
0010
0000
0000
0100
0000
0000
0010
0000
,
0000
0100
0000
0000
0010
0000
0000
0002
,
0000
0103
0010
1000
,
2002
3003
1000
0001
,
2000
0000
3010
1000
,
0200
0000
0310
0001
,
0200
0000
0320
0000
,
1030
0000
0001
1000
,
0100
0000
0000
0010
0000
0000
0100
0000
,
0000
0010
0000
0000
0001
0000
0000
2000
,
0000
3001
0100
0010
,
1010
0000
0001
1000
,
0200
0000
0000
0310
,
0001
0000
0000
1000
0000
0000
0001
0000
,
0100
0000
0000
0100
0000
0000
0100
0000
,
0020
2030
3002
2003
,
3000
0020
2030
3002
,
1003
0000
0000
0001
0000
0000
1000
0000
,
0100
0000
0000
0100
0000
0000
0100
0000
,
0020
0032
2003
3002
,
0003
0200
0320
1030
,
2002
3003
1000
1000
,
1000
1000
1000
0010
,
2002
3003
0001
0001
,
0001
0001
0001
0010
,
2002
3003
0001
0100
,
0001
0100
0001
0010
,
2002
3003
1000
0100
,
1000
0100
1000
0010
,
1000
0000
0000
0001
0000
0000
0010
0000
,
0100
0000
0000
0100
0000
0000
0100
0000
,
0020
0032
2003
3002
,
0003
0020
0032
2003
,
3001
0000
0000
1000
0000
0000
0010
0000
,
0100
0000
0000
0100
0000
0000
0100
0000
,
0020
2030
3002
2003
,
3000
0200
0320
0031
,
2002
3003
0001
0001
,
0001
0001
0001
0100
,
2002
3003
1000
1000
,
1000
1000
1000
0100
,
2002
3003
1000
0010
,
1000
0100
1000
0010
,
2002
3003
0001
0010
,
0001
0100
0001
1000
,
2002
0000
3003
0000
,
0022
0000
0033
0000
,
2200
0000
3300
0000
,
1000
0000
0001
0000
,
0202
0000
0303
0000
,
2020
0000
3030
0000
,
1001
0000
1001
0000
,
1001
1001
2000
3001
,
0000
0001
0000
0010
0000
0001
0000
0010
,
0000
0100
0000
1000
0000
0001
0000
0100
,
0000
0010
0000
0100
0000
0010
0000
0100
,
0000
0001
0000
1000
0000
0100
0000
0010
,
0000
0001
0000
1000
0000
0001
0000
1000
,
0000
0001
0000
0100
0000
0010
0000
0100
,
0010
0000
1001
0000
,
1001
0110
1001
1001
,
2000
0000
0000
0000
3100
0000
0000
0100
,
0020
0001
0031
0000
,
0002
0000
0000
0000
0103
0000
0000
0100
,
0020
1000
1030
0001
,
1000
0100
0010
0100
,
1000
0100
0001
0100
,
1000
1000
0001
0001
,
2000
3020
0230
0302
,
2003
0000
0000
0000
,
0000
0000
0000
3001
,
1000
0000
0000
0100
0000
0000
0010
0000
,
0001
0000
0000
0100
0000
0000
0010
0000
,
1000
1000
0010
0100
,
0001
1000
0001
1001
,
0001
0000
0000
0010
0000
0000
0100
0000
,
1000
0000
0000
0010
0000
0000
0100
0000
,
0001
0001
1000
0100
,
0010
0001
0100
0010
,
2020
3030
0001
0001
,
1000
0010
1000
0100
,
0022
0033
1000
1000
,
0001
0010
0001
0100
,
0202
0303
1000
1000
,
0010
1000
0100
0010
,
2200
3300
0001
0010
,
0002
0000
0003
0000
,
0202
0303
1000
1000
,
0010
0001
0010
1000
,
2200
3300
0001
0001
,
0020
0032
0203
0310
,
2020
3030
0001
0001
,
0010
1000
0010
0001
,
0202
0303
1000
0100
,
0020
0000
0030
0000
,
0220
0000
0000
0000
,
0000
0000
0000
0000
,
0330
0000
0000
0000
;

//---------------dance-single - ----------------
#NOTEDATA:;
#CHARTNAME:;
#STEPSTYPE:dance-single;
#DESCRIPTION:;
#CHARTSTYLE:;
#DIFFICULTY:Easy;
#METER:6;
#RADARVALUES:0.300690,0.437245,0.234712,0.454280,0.000000,278.000000,247.000000,31.000000,60.000000,0.000000,0.000000,0.000000,0.000000,0.000000,0.300690,0.437245,0.234712,0.454280,0.000000,278.000000,247.000000,31.000000,60.000000,0.000000,0.000000,0.000000,0.000000,0.000000;
#CREDIT:;
#NOTES:
0000
0000
0000
0000
,
0000
0000
0000
0000
,
0000
0000
0000
0000
,
0000
0000
0000
0000
,
0002
0000
0003
1000
,
2000
0000
3010
0100
,
0020
0000
0230
0000
,
0300
0000
0001
1000
,
0100
0000
0100
0000
,
0100
0000
0010
0001
,
0200
0000
0310
1000
,
2002
3003
1000
0000
,
2000
0000
3000
0001
,
0002
0000
0013
0100
,
0020
0000
0230
0000
,
0300
0000
1000
0001
,
0100
0000
0100
0000
,
0100
0000
0010
1000
,
0200
0000
0310
0001
,
0200
0000
0310
1000
,
0001
0000
0000
0000
,
0001
0010
0001
0000
,
0010
0000
0100
0000
,
1000
1000
1000
0000
,
0001
0001
0001
0000
,
1000
0010
1000
0000
,
0010
0000
0100
0000
,
0001
0001
0001
0000
,
1000
1000
1000
0000
,
1002
0000
0013
0000
,
0010
0010
0010
0000
,
2001
0000
3010
0000
,
0010
0010
0010
0000
,
2001
0000
3100
0000
,
0100
0100
0100
0000
,
1002
0000
0103
0000
,
0100
0100
0100
0000
,
0001
0010
0100
0000
,
0010
0000
0100
0000
,
1000
1000
1000
0000
,
0001
0001
0001
0000
,
1000
0010
0100
0000
,
0010
0000
0100
0000
,
0001
0001
0001
0000
,
1000
1000
1000
0000
,
1002
0000
0013
0000
,
0010
0001
0010
0000
,
2001
0000
3010
0000
,
0010
1000
0010
0000
,
2001
0000
3100
0000
,
0100
1000
0100
0000
,
1002
0000
0103
0000
,
0100
0001
0100
0000
,
2002
0000
3003
0000
,
0022
0000
0033
0000
,
2200
0000
3300
0000
,
1000
0000
0001
0000
,
0202
0000
0303
0000
,
2020
0000
3030
0000
,
1001
0000
1001
0000
,
1001
1001
2002
3003
,
1000
0000
1000
0000
,
1000
0100
0010
0001
,
1000
0000
1000
0000
,
0001
0100
0010
1000
,
0001
0000
0001
0000
,
0001
0100
0010
1000
,
0001
0000
1000
0000
,
0001
1000
1001
0000
,
2000
0000
3100
0000
,
0200
0000
0310
0000
,
0020
0000
0031
0000
,
0002
0000
0103
0000
,
0010
0100
0010
0000
,
1000
0001
1000
0000
,
0100
0010
0001
0000
,
0100
0010
0100
0010
,
2000
0000
0000
0000
,
0000
0000
0000
3000
,
0001
0001
1000
0000
,
1000
1000
0001
0000
,
0010
0100
1000
0000
,
0001
0100
0010
0000
,
1000
1000
0010
0000
,
0001
0001
0010
0000
,
1000
0100
0010
0000
,
0001
0100
0010
0000
,
2020
3030
0001
0000
,
0001
1000
0001
0000
,
0022
0033
1000
0000
,
1000
0001
1000
0000
,
0202
0303
1000
0000
,
0001
1000
0001
0000
,
2200
3300
0001
1000
,
2002
0000
3003
0000
,
0202
0303
1000
0010
,
1000
0010
1000
0000
,
2200
3300
0001
0010
,
0001
0010
0001
0000
,
0022
0033
1000
0010
,
0100
0001
1000
0000
,
2020
3030
0001
1000
,
2002
0000
3003
0000
,
0220
0000
0000
0000
,
0000
0000
0000
0000
,
0330
0000
0000
0000
;

//---------------dance-single - ----------------
#NOTEDATA:;
#CHARTNAME:;
#STEPSTYPE:dance-single;
#DESCRIPTION:;
#CHARTSTYLE:;
#DIFFICULTY:Beginner;
#METER:3;
#RADARVALUES:0.158998,0.238497,0.098427,0.211998,0.000000,147.000000,134.000000,13.000000,28.000000,0.000000,0.000000,0.000000,0.000000,0.000000,0.158998,0.238497,0.098427,0.211998,0.000000,147.000000,134.000000,13.000000,28.000000,0.000000,0.000000,0.000000,0.000000,0.000000;
#CREDIT:;
#NOTES:
0000
0000
0000
0000
,
0000
0000
0000
0000
,
0000
0000
0000
0000
,
0000
0000
0000
0000
,
0002
0000
0003
0000
,
2000
0000
3000
0000
,
0010
0000
0020
0000
,
0030
0000
0000
0000
,
0100
0000
0000
0000
,
0100
0000
0000
0000
,
0001
0000
0001
0000
,
0001
0000
0000
0000
,
2000
0000
3000
0000
,
0002
0000
0003
0000
,
0010
0000
0020
0000
,
0030
0000
0000
0000
,
0100
0000
0000
0000
,
0100
0000
0000
0000
,
1000
0000
1000
0000
,
1000
0000
0000
0000
,
0010
0000
0000
0000
,
1000
0000
1000
0000
,
1000
0000
0000
0000
,
0010
0000
0000
0000
,
0100
0000
0000
0000
,
0001
0000
0001
0000
,
0001
0000
0000
0000
,
0010
0000
0000
0000
,
0100
0000
0000
0000
,
1000
0000
1000
0000
,
1000
0000
1000
0000
,
0001
0000
0001
0000
,
0001
0000
0001
0000
,
1000
0000
1000
0000
,
1000
0000
1000
0000
,
0001
0000
0001
0000
,
0001
0000
0001
0000
,
1000
0000
0010
0000
,
1000
0000
0000
0000
,
0010
0000
0000
0000
,
0100
0000
0000
0000
,
0001
0000
0010
0000
,
0001
0000
0000
0000
,
0010
0000
0000
0000
,
0100
0000
0000
0000
,
1000
0000
1000
0000
,
1000
0000
1000
0000
,
0001
0000
0001
0000
,
0001
0000
0001
0000
,
0100
0000
0100
0000
,
0100
0000
0100
0000
,
0010
0000
0010
0000
,
0010
0000
0010
0000
,
1001
0000
0000
0000
,
1001
0000
0000
0000
,
1001
0000
0000
0000
,
0000
0000
0000
0000
,
0110
0000
0000
0000
,
0110
0000
0000
0000
,
1000
0000
0001
0000
,
1000
0000
0000
0000
,
0001
0000
0000
0000
,
0010
0000
0000
0000
,
0100
0000
0000
0000
,
0010
0000
0000
0000
,
0001
0000
0000
0000
,
0100
0000
0000
0000
,
0010
0000
0010
0000
,
0010
0000
0010
0000
,
2000
0000
3000
0000
,
0200
0000
0300
0000
,
0020
0000
0030
0000
,
0002
0000
0003
0000
,
0100
0000
0000
0000
,
0010
0000
0000
0000
,
1000
0000
0000
0000
,
0001
0000
0010
0000
,
0200
0000
0000
0000
,
0300
0000
0000
0000
,
0010
0000
0000
0000
,
0010
0000
0000
0000
,
0001
0000
1000
0000
,
0001
0000
0000
0000
,
0100
0000
0000
0000
,
0100
0000
0000
0000
,
0001
0000
1000
0000
,
0001
0000
0000
0000
,
2002
0000
3003
0000
,
0010
0000
0010
0000
,
2002
0000
3003
0000
,
0100
0000
0100
0000
,
2002
0000
3003
0000
,
0010
0000
0010
0000
,
2002
0000
3003
0000
,
1000
0000
0001
0000
,
2002
0000
3003
0000
,
0001
0000
0010
0000
,
2002
0000
3003
0000
,
1000
0000
0010
0000
,
2002
0000
3003
0000
,
0100
0000
0010
0000
,
2002
0000
3003
0000
,
0010
0000
0010
0000
,
0200
0000
0000
0000
,
0000
0000
0000
0000
,
0300
0000
0000
0000
;
