#VERSION:0.83;
#TITLE:Airbase;
#SUBTITLE:;
#ARTIST:Anamanaguchi;
#TITLETRANSLIT:;
#SUBTITLETRANSLIT:;
#ARTISTTRANSLIT:;
#GENRE:Chip-Rock;
#ORIGIN:;
#CREDIT:;
#BANNER:Airbase.png;
#BACKGROUND:Airbase-bg.png;
#PREVIEWVID:;
#JACKET:Airbase-jacket.png;
#CDIMAGE:;
#DISCIMAGE:;
#LYRICSPATH:;
#CDTITLE:cdtitle.png;
#MUSIC:Airbase.ogg;
#OFFSET:-0.111325;
#SAMPLESTART:26.996325;
#SAMPLELENGTH:10.240000;
#SELECTABLE:YES;
#DISPLAYBPM:187.500000;
#BPMS:0.000=187.500,
290.000=199.565,
292.000=187.500;
#STOPS:;
#DELAYS:;
#WARPS:;
#TIMESIGNATURES:0.000=4=4;
#TICKCOUNTS:0.000=4;
#COMBOS:0.000=1;
#SPEEDS:0.000=1.000=0.000=0;
#SCROLLS:0.000=1.000,
290.000=0.940,
292.000=1.000;
#FAKES:;
#LABELS:0.000=Song Start;
#BGCHANGES:;
#KEYSOUNDS:;
#ATTACKS:
;

//---------------dance-single - ----------------
#NOTEDATA:;
#CHARTNAME:;
#STEPSTYPE:dance-single;
#DESCRIPTION:;
#CHARTSTYLE:;
#DIFFICULTY:Challenge;
#METER:15;
#RADARVALUES:0.893978,1.004414,0.281731,0.435402,0.362835,733.000000,700.000000,33.000000,51.000000,0.000000,0.000000,0.000000,0.000000,0.000000,0.893978,1.004414,0.281731,0.435402,0.362835,733.000000,700.000000,33.000000,51.000000,0.000000,0.000000,0.000000,0.000000,0.000000;
#CREDIT:;
#DISPLAYBPM:187.500000;
#NOTES:
0000
0000
0000
0000
,
1000
0100
0001
1000
0010
0001
1000
0100
,
0001
0100
1000
0010
0001
1000
0100
0001
,
0010
0010
0001
0000
0010
0010
0001
2000
,
0000
0000
3010
0000
1000
0000
0100
0010
0100
0000
0010
0000
0001
0000
1000
0000
,
0001
0100
1000
0001
0010
1000
0001
0100
,
1000
0100
0001
0010
1000
0001
0100
1000
,
0010
0010
1000
0000
0010
0010
1000
0002
,
0000
0000
0013
0000
0001
0000
0100
0010
0100
0000
0010
0000
1000
0000
0001
0000
,
1000
0100
0010
1000
0001
0100
1000
0010
,
0100
1000
0001
0010
1000
0100
0010
0001
,
1000
1000
0010
0000
1000
1000
0010
0200
,
0000
0000
0301
0000
1000
0000
0100
0010
0100
0000
0010
0000
0001
0000
1000
0000
,
0001
0100
0010
0001
1000
0100
0001
0010
,
0100
0001
1000
0010
0001
0100
0010
1000
,
0001
0001
0010
0000
0001
0001
0010
0200
,
0000
0000
1300
0000
0001
0000
0100
0010
0100
0000
0010
0000
1000
0000
0001
0000
,
0020
0100
0100
0000
0130
0010
0001
0200
,
0000
0010
0310
1000
0100
0001
0100
1000
,
0010
0100
0001
0010
1000
0010
0001
0200
,
0000
0000
0010
0000
0310
0000
1000
0000
0001
0100
0001
0100
0010
1000
0010
1000
,
0001
0010
0100
0010
0002
0000
1003
1010
,
0000
0110
0000
0101
0000
1001
0000
1000
,
0001
0000
1000
0100
1000
0000
0001
0010
0001
0000
1000
0100
1000
0000
0001
0100
,
0010
0000
1000
0010
0100
0000
0001
0000
1000
0100
1000
0100
0010
0001
0010
0001
,
1000
0010
0001
0010
2000
0000
3100
0011
,
0000
1100
0000
1010
0000
0102
0000
1003
,
0100
0000
0010
0100
0010
0000
0100
0010
0100
0000
0010
0001
1000
0000
0001
1000
,
0010
0000
0100
0010
0100
0000
0010
0000
1000
0010
1000
0010
0100
0001
0100
0001
,
1000
0010
0100
0010
2000
0000
3001
0011
,
0000
0110
0000
1100
0000
1001
0000
0001
,
1000
0000
0001
0100
0001
0000
1000
0010
1000
0000
0001
0100
0001
0000
1000
0100
,
0010
0000
0001
0010
0100
0000
1000
0000
0001
0100
0001
0100
0010
1000
0010
1000
,
0001
1000
0100
1000
0002
0000
0103
1010
,
0000
0101
0000
0011
0000
2100
0000
3001
,
0100
0000
0010
0100
0010
0000
0100
0010
0100
0000
0010
1000
0001
0000
1000
0001
,
0010
0000
0100
0010
0100
0000
0010
0000
0001
1000
0001
1000
0010
0100
0010
0100
,
0001
0001
0010
0001
0100
0100
0010
2000
,
0000
3010
1000
0100
0001
0100
2000
0000
,
3002
0010
0013
0100
0002
0100
0103
1000
,
0020
0100
0130
1000
0200
0010
0310
0100
,
0002
1000
1003
0100
0020
0001
0031
0100
,
0020
1000
1030
0100
0001
0100
1000
0010
,
0110
0000
0110
0000
0010
0100
0010
2001
,
0000
0000
3100
0000
0010
0000
0001
1000
0001
0000
0100
0000
0010
0000
1000
0000
,
0001
0001
0010
0001
0100
0100
0010
2000
,
0000
3010
1000
0100
0001
0100
1000
0010
,
0100
0001
0010
1000
0010
0001
0100
0020
,
0000
0000
1000
0000
1030
0000
0010
0100
0001
0000
0010
0000
0010
0000
0001
0000
,
2000
0000
0000
0000
3001
0000
0100
0010
1000
0000
0001
0000
0010
0000
2000
0000
,
0000
3010
0001
0100
0010
1000
0010
0010
,
0000
0000
0010
0000
1000
0000
0100
0010
0001
0000
1000
0000
0010
0000
0200
0000
,
0000
0001
0302
0000
1003
1000
0001
0001
,
1000
0010
0001
1000
0100
0001
1000
0010
,
0001
0010
1000
0100
0001
1000
0010
0001
,
0100
0100
0001
0000
0100
0100
0001
0020
,
0000
0000
0130
0000
1000
0000
0010
0100
0010
0000
0100
0000
0001
0000
1000
0000
,
0001
0010
1000
0001
0100
1000
0001
0010
,
1000
0010
0001
0100
1000
0001
0010
1000
,
0100
0100
1000
0000
0100
0100
1000
0020
,
0000
0000
0130
0000
0001
0000
0010
0100
0010
0000
0100
0000
1000
0000
0001
0000
,
1000
0010
0100
1000
0001
0010
1000
0100
,
0010
1000
0001
0100
1000
0010
0100
0001
,
1000
1000
0100
0000
1000
1000
0100
0020
,
0000
0000
0031
0000
1000
0000
0010
0100
0010
0000
0100
0000
0001
0000
1000
0000
,
0001
0010
0100
0001
1000
0010
0001
0100
,
0010
0001
1000
0100
0001
0010
0100
1000
,
0001
0001
0100
0000
0001
0001
0100
0020
,
0000
0000
1030
0000
0001
0000
0010
0100
0010
0000
0100
0000
1000
0000
0001
0000
,
0200
0000
0001
0000
0301
1000
0000
0200
,
0000
0000
0310
0100
0010
0100
1000
0000
0001
0000
0100
0010
0100
0000
0010
1000
,
0001
0010
1000
0010
0001
0200
0000
2300
,
0000
3100
0001
1000
0100
0000
0000
0000
,
1000
0010
0100
0010
2000
0000
3001
0011
,
0000
0110
0000
1100
0000
1001
0000
0001
,
1000
0000
0001
0100
0001
0000
1000
0100
1000
0000
0001
0100
0001
0000
1000
0100
,
0010
0000
0001
0010
0100
0000
1000
0000
0001
0100
0001
0100
0010
1000
0010
1000
,
0001
0010
1000
0010
0002
0000
0103
1010
,
0000
0011
0000
1100
0000
0102
0000
1003
,
0100
0000
0010
0100
0010
0000
0100
0010
0100
0000
0010
0001
1000
0000
0001
1000
,
0010
0000
0100
0010
0100
0000
0010
0000
1000
0100
1000
0100
0010
0001
0010
0001
,
1000
0010
0100
0001
0020
0000
0130
1100
,
0000
0011
0000
1010
0000
0201
0000
0310
,
1000
0000
0001
0010
0001
0000
1000
0010
1000
0000
0001
0100
0001
0000
1000
0010
,
0100
0000
0001
0100
0010
0000
1000
0000
0100
0010
0100
0010
0001
1000
0001
1000
,
0010
0000
0100
0000
0010
0000
0100
0000
0002
0000
0000
0000
0013
0001
2000
0000
,
0000
3020
0000
0230
0000
0302
0000
0003
,
2001
0000
0000
0000
0000
3001
1000
0200
,
0000
0000
0000
0310
,
2002
0000
0000
0000
,
0000
0000
3003
0000
0000
0000
1000
0001
1000
0000
0000
0000
0000
0000
0000
0000
;

//---------------dance-single - ----------------
#NOTEDATA:;
#CHARTNAME:;
#STEPSTYPE:dance-single;
#DESCRIPTION:;
#CHARTSTYLE:;
#DIFFICULTY:Hard;
#METER:12;
#RADARVALUES:0.643957,0.656732,0.461014,0.674447,0.000000,528.000000,474.000000,54.000000,79.000000,0.000000,0.000000,0.000000,0.000000,0.000000,0.643957,0.656732,0.461014,0.674447,0.000000,528.000000,474.000000,54.000000,79.000000,0.000000,0.000000,0.000000,0.000000,0.000000;
#CREDIT:;
#DISPLAYBPM:187.500000;
#NOTES:
0000
0000
0000
0000
,
1000
0000
0100
1000
0000
1000
0010
0000
,
0001
0010
0000
0010
1000
0000
1010
0000
,
0001
0001
0010
0000
0001
0001
0000
0102
,
0000
1000
1003
0100
0010
0100
1000
0000
,
0001
0000
0100
0001
0000
0001
0010
0000
,
1000
0010
0000
0010
0001
0000
0011
0000
,
1000
1000
0010
0000
1000
1000
0000
2100
,
0000
0001
3001
0100
0010
0100
0001
0000
,
1000
0000
0001
0010
0000
0010
1000
0000
,
0001
0100
0000
0100
1000
0000
1100
0000
,
0001
0001
0100
0000
0001
0001
0000
0012
,
0000
1000
1003
0010
0100
0001
1000
0000
,
0001
0000
1000
0010
0000
0010
0001
0000
,
1000
0100
0000
0100
0001
0000
0101
0000
,
1000
1000
0100
0000
1000
1000
0000
2010
,
0000
0001
3001
0010
0100
1000
0001
0000
,
0020
0000
0000
0000
0130
0020
0000
0032
,
0000
0000
0000
0000
1003
0010
0100
0001
,
1000
0100
0010
0100
1000
0002
0000
0200
,
0000
0303
0101
1010
,
0001
0010
0100
0010
0002
0000
1003
1010
,
0000
1001
0000
0101
0000
2002
0000
3003
,
1000
0100
0010
0001
1000
0100
0010
0001
,
1000
0010
0100
0010
1000
0100
0010
0100
,
1000
0010
0100
0001
0020
0000
1030
0020
,
0000
0032
0000
0203
0000
2300
0000
0000
,
3200
0000
0010
0000
0310
1000
0001
0020
,
0100
0130
1001
1001
,
1000
0010
0100
0010
2000
0000
3001
0011
,
0000
1001
0000
1100
0000
2002
0000
3003
,
0001
0100
0010
1000
0001
0100
0010
1000
,
0001
0010
0100
0010
0001
0100
0010
0100
,
0001
0010
0100
0010
0002
0000
0103
0110
,
0000
1010
0000
1001
0000
0021
0000
0000
,
0230
0000
0010
0000
0310
0001
1000
0020
,
0100
0000
0130
0000
0010
0100
0001
1000
,
0200
0000
0300
0010
0200
0000
0310
0002
,
0000
1003
0010
0100
0001
0000
0010
0000
,
0012
1003
0102
1003
,
2010
3001
2100
3001
,
1002
0000
0003
0100
0020
0000
0000
1030
,
0002
0000
0003
1000
0100
0010
0100
1000
,
0001
0000
0001
0000
0100
0010
0000
2010
,
0000
3001
0000
0012
0000
0000
1003
0000
,
2002
0000
3003
0000
1000
0020
0000
0230
,
0000
0000
0301
0000
1000
0100
0010
0001
,
0100
0010
1000
0010
0100
0002
0000
2003
,
0000
0000
3100
0010
0001
0100
0010
0000
,
2000
0000
3010
1000
0010
0001
0010
2000
,
0000
0000
0001
3001
0000
1000
0100
0100
,
0000
1000
0100
0001
0100
2000
0000
3002
,
0000
1000
1003
0000
1001
0000
1001
0000
,
1000
0000
0010
1000
0000
1000
0100
0000
,
0001
0100
0000
0100
1000
0000
1100
0000
,
0001
0001
0100
0000
0001
0001
0000
0012
,
0000
1000
1003
0010
0100
0010
1000
0000
,
0001
0000
0010
0001
0000
0001
0100
0000
,
1000
0100
0000
0100
0001
0000
0101
0000
,
1000
1000
0100
0000
1000
1000
0000
2010
,
0000
0001
3001
0010
0100
0010
0001
0000
,
1000
0000
0001
0100
0000
0100
1000
0000
,
0001
0010
0000
0010
1000
0000
1010
0000
,
0001
0001
0010
0000
0001
0001
0000
0102
,
0000
1000
1003
0100
0010
0001
1000
0000
,
0001
0000
1000
0100
0000
0100
0001
0000
,
1000
0010
0000
0010
0001
0000
0011
0000
,
1000
1000
0010
0000
1000
1000
0000
2100
,
0000
0001
3001
0100
0010
1000
0001
0000
,
0020
0000
0000
0000
0031
2000
0000
3200
,
0000
1300
0001
1000
0010
0100
0001
0010
,
0001
0100
0010
1000
0001
0020
0000
0200
,
0000
0000
0330
0000
,
0001
0010
0100
0010
0002
0000
0103
0101
,
0000
0110
0000
1010
0000
2002
0000
3003
,
0001
0010
0100
1000
0001
0010
0100
1000
,
0010
0100
0001
0010
0100
0010
0001
0100
,
0010
1000
0001
1000
0200
0000
0301
0200
,
0000
2300
0000
3020
0000
0032
0000
0000
,
0023
0000
0100
0000
0130
0001
1000
0200
,
0010
0310
1001
1001
,
1000
0010
0100
0010
2000
0000
3100
1100
,
0000
0110
0000
0011
0000
2002
0000
3003
,
1000
0010
0100
0001
1000
0010
0100
0001
,
0010
0100
1000
0010
0100
0010
1000
0100
,
0010
0001
0010
0001
2000
0000
3001
0200
,
0000
0320
0000
2030
0000
3001
0000
0000
,
2002
0000
0000
3003
0000
0001
1000
0200
,
0000
0000
0000
0310
,
2002
0000
0000
0000
,
0000
3003
0000
0100
0100
0000
0000
0000
;

//---------------dance-single - ----------------
#NOTEDATA:;
#CHARTNAME:;
#STEPSTYPE:dance-single;
#DESCRIPTION:;
#CHARTSTYLE:;
#DIFFICULTY:Medium;
#METER:9;
#RADARVALUES:0.450038,0.502207,0.213433,0.734208,0.000000,369.000000,344.000000,25.000000,86.000000,0.000000,0.000000,0.000000,0.000000,0.000000,0.450038,0.502207,0.213433,0.734208,0.000000,369.000000,344.000000,25.000000,86.000000,0.000000,0.000000,0.000000,0.000000,0.000000;
#CREDIT:;
#DISPLAYBPM:187.500000;
#NOTES:
0000
0000
0000
0000
,
1000
0000
0000
0100
0000
0000
0001
0000
,
0000
1000
0000
0000
0010
0000
0001
0000
,
1000
0010
0000
0000
1000
0010
0000
2001
,
0000
0000
3100
0000
0010
0100
0010
0000
,
0001
0000
0000
0100
0000
0000
1000
0000
,
0000
0001
0000
0000
0010
0000
1000
0000
,
0001
0010
0000
0000
0001
0010
0000
1002
,
0000
0000
0103
0000
0010
0100
0010
0000
,
1000
0000
0000
0001
0000
0000
0010
0000
,
0000
1000
0000
0000
0001
0000
0100
0000
,
0010
0001
0000
0000
0010
0001
0000
2001
,
0000
0000
3001
0000
0010
0100
0010
0000
,
0001
0000
0000
1000
0000
0000
0010
0000
,
0000
0001
0000
0000
1000
0000
0100
0000
,
0010
1000
0000
0000
0010
1000
0000
1002
,
0000
0000
1003
0000
0010
0100
0010
0000
,
2000
0000
0000
0000
3100
0020
0000
0032
,
0000
0000
1003
0010
,
0100
0000
0001
0000
1000
0200
0000
0020
,
0000
0330
0110
1001
,
0001
0000
0100
0000
0010
0000
0100
2000
,
0000
3200
0000
0302
0000
2003
0000
0000
,
3001
0010
1000
0010
,
0001
0000
0100
0000
0010
1000
0100
0010
,
0001
0000
0010
0000
0100
0000
1000
0020
,
0000
0032
0000
2003
0000
3200
0000
0000
,
0302
0000
0100
0000
0103
0001
1000
0200
,
1000
1300
1001
1001
,
1000
0000
0100
0000
0010
0000
0100
0002
,
0000
0203
0000
2300
0000
3002
0000
0000
,
1003
0010
0001
0010
,
1000
0000
0100
0000
0010
0001
0100
0010
,
1000
0000
0001
0000
0010
0000
0100
0002
,
0000
0203
0000
2300
0000
3002
0000
0000
,
2003
0000
0100
0000
3100
1000
0001
0200
,
0001
0000
0301
0000
1000
0010
0100
0001
,
1000
0000
0000
1000
0100
0000
1000
0100
,
0000
0010
0001
0010
0001
0000
1000
0000
,
2020
3030
0202
0303
,
0022
0033
2200
3300
,
1002
0000
0003
1000
0020
0000
0030
0100
,
0002
0000
0003
1000
0100
1000
0100
0000
,
0010
0000
0001
0000
1000
0010
0000
0220
,
0000
0330
0000
1002
0000
0000
0013
0000
,
0200
0000
0300
0000
0010
0002
0000
2000
,
0000
3003
1000
0010
,
0001
0000
0010
0000
1000
0200
0000
0320
,
0000
0031
0100
0010
,
2000
0000
3100
0000
0010
0000
0100
0002
,
0000
0003
0100
2000
0000
3000
0001
0100
,
0000
0000
0001
0100
0010
2000
0000
3002
,
0000
0013
0100
0000
0110
0000
1001
0000
,
1000
0000
0000
0010
0000
0000
0001
0000
,
0000
1000
0000
0000
0100
0000
0001
0000
,
1000
0100
0000
0000
1000
0100
0000
2001
,
0000
0000
3100
0000
0010
0100
0010
0000
,
0001
0000
0000
0010
0000
0000
1000
0000
,
0000
0001
0000
0000
0100
0000
1000
0000
,
0001
0100
0000
0000
0001
0100
0000
1002
,
0000
0000
0103
0000
0010
0100
0010
0000
,
1000
0000
0000
0001
0000
0000
0100
0000
,
0000
1000
0000
0000
0001
0000
0010
0000
,
0100
0001
0000
0000
0100
0001
0000
2001
,
0000
0000
3001
0000
0010
0100
0010
0000
,
0001
0000
0000
1000
0000
0000
0100
0000
,
0000
0001
0000
0000
1000
0000
0010
0000
,
0100
1000
0000
0000
0100
1000
0000
1002
,
0000
0000
1003
0000
0010
0100
0010
0000
,
2000
0000
0000
0000
3100
0020
0000
0032
,
0000
0010
1000
0103
,
0001
0000
0010
0000
0100
2000
0000
0002
,
0000
0000
3003
0000
,
1000
0000
0010
0000
0100
0000
0010
0002
,
0000
0023
0000
2030
0000
3002
0000
0000
,
1003
0100
0001
0100
,
1000
0000
0010
0000
0100
0001
1000
0100
,
0010
0000
0001
0000
0100
0000
1000
0200
,
0000
0302
0000
0023
0000
0230
0000
0000
,
2300
0000
0010
0000
3010
1000
0001
0020
,
0001
0031
0110
0110
,
0001
0000
0010
0000
0100
0000
0010
2000
,
0000
3020
0000
0032
0000
2003
0000
0000
,
3001
0100
1000
0100
,
0001
0000
0010
0000
0100
1000
0001
0200
,
0020
0000
0000
0000
0330
0000
2000
0002
,
0000
0000
0000
0000
0000
3003
0000
0000
,
2200
0000
0000
3300
0000
0001
0200
0002
,
0000
0000
0303
0010
,
2002
0000
0000
0000
,
0000
0000
3003
0000
;

//---------------dance-single - ----------------
#NOTEDATA:;
#CHARTNAME:;
#STEPSTYPE:dance-single;
#DESCRIPTION:;
#CHARTSTYLE:;
#DIFFICULTY:Easy;
#METER:7;
#RADARVALUES:0.358567,0.386313,0.170746,0.452477,0.000000,294.000000,274.000000,20.000000,53.000000,0.000000,0.000000,0.000000,0.000000,0.000000,0.358567,0.386313,0.170746,0.452477,0.000000,294.000000,274.000000,20.000000,53.000000,0.000000,0.000000,0.000000,0.000000,0.000000;
#CREDIT:;
#DISPLAYBPM:187.500000;
#NOTES:
0000
0000
0000
0000
,
1000
0010
1000
0010
,
1000
0001
1000
0100
,
0010
0000
0000
0000
0010
0000
0000
2002
,
0000
3003
1000
1000
,
0001
0010
0001
0010
,
0001
1000
0001
0100
,
0010
0000
0000
0000
0010
0000
0000
2002
,
0000
3003
0001
0001
,
1000
0100
1000
0100
,
0010
0001
0100
0010
,
1000
0000
0000
0000
1000
0000
0000
0220
,
0000
0330
1000
1000
,
0001
0100
0001
0100
,
0010
1000
0100
0010
,
0001
0000
0000
0000
0001
0000
0000
0220
,
0000
0330
0001
0001
,
2000
0000
0000
0000
3010
0000
0000
0200
,
0000
0000
0301
0001
,
1000
0000
0100
0000
0010
0000
0000
0200
,
0000
0000
0010
0310
,
0001
0000
0001
0000
0100
0000
0000
0010
,
0000
1000
0000
1000
0000
0100
0000
0000
,
0010
0010
0100
0100
,
1000
0001
1000
0001
,
1000
0000
1000
0000
0010
0000
0000
1000
,
0000
0001
0000
0001
0000
0010
0000
0000
,
0012
0000
0103
0010
,
2010
0000
0001
3001
,
1000
0000
1000
0000
0100
0000
0000
0010
,
0000
0001
0000
0001
0000
0100
0000
0000
,
0010
0010
0100
0100
,
0001
1000
0001
1000
,
0100
0000
0100
0000
1000
0000
0000
0001
,
0000
0100
0000
0100
0000
0010
0000
0000
,
2010
0000
3100
0010
,
0012
0000
1000
1003
,
0001
0100
0001
0000
,
1000
0100
0010
0001
,
2000
0000
3020
0000
,
0230
0000
0302
0000
,
2003
3000
0200
0300
,
0002
0003
0100
1000
,
0001
0000
0001
0000
0001
0000
0000
0200
,
0000
0000
0300
0020
0000
0000
0030
0000
,
2000
0000
3001
1000
,
0200
0000
0310
0010
,
0001
0000
1000
0000
0001
0000
0000
2000
,
0000
3000
0001
0001
,
0100
0000
1000
0000
0100
0000
0000
0002
,
0000
1003
0001
1000
,
0000
0000
0100
0000
0010
0000
0000
0002
,
0000
1003
1000
1000
,
0001
0100
0001
0100
,
0001
1000
0001
0010
,
0100
0000
0000
0000
0100
0000
0000
2002
,
0000
3003
0001
0001
,
1000
0100
1000
0100
,
1000
0001
1000
0010
,
0100
0000
0000
0000
0100
0000
0000
2002
,
0000
3003
1000
1000
,
0001
0010
0001
0010
,
0100
1000
0010
0100
,
0001
0000
0000
0000
0001
0000
0000
0220
,
0000
0330
0001
0001
,
1000
0010
1000
0010
,
0100
0001
0010
0100
,
1000
0000
0000
0000
1000
0000
0000
0220
,
0000
0330
1000
1000
,
0002
0000
0000
0000
0103
0000
0000
0020
,
0000
0000
1030
0001
,
0010
0000
0100
0000
1000
0000
0000
0220
,
0000
0000
0330
0000
,
1000
0000
1000
0000
0010
0000
0000
0001
,
0000
0010
0000
0010
0000
1000
0000
0000
,
0001
0001
0010
0010
,
0100
1000
0100
1000
,
0001
0000
0001
0000
0100
0000
0000
0010
,
0000
1000
0000
1000
0000
0100
0000
0000
,
2100
0000
3010
0100
,
0102
0000
1000
1003
,
0001
0000
0001
0000
0010
0000
0000
1000
,
0000
0010
0000
0010
0000
0001
0000
0000
,
1000
1000
0010
0010
,
0100
0001
0100
0001
,
2002
0000
0000
0000
3003
0000
0000
0220
,
0000
0000
0000
0000
0000
0330
0000
0000
,
2200
0000
0000
0000
0000
3300
0000
0202
,
0000
0000
0000
0303
,
2002
0000
0000
0000
,
0000
0000
3003
0000
;

//---------------dance-single - ----------------
#NOTEDATA:;
#CHARTNAME:;
#STEPSTYPE:dance-single;
#DESCRIPTION:;
#CHARTSTYLE:;
#DIFFICULTY:Beginner;
#METER:2;
#RADARVALUES:0.180503,0.231788,0.025612,0.170746,0.000000,148.000000,145.000000,3.000000,20.000000,0.000000,0.000000,0.000000,0.000000,0.000000,0.180503,0.231788,0.025612,0.170746,0.000000,148.000000,145.000000,3.000000,20.000000,0.000000,0.000000,0.000000,0.000000,0.000000;
#CREDIT:;
#DISPLAYBPM:187.500000;
#NOTES:
0000
0000
0000
0000
,
1000
0000
0010
0000
,
1000
0000
0010
0000
,
1000
0000
1000
0000
,
2000
0000
3000
0000
,
0001
0000
0010
0000
,
0001
0000
0010
0000
,
0001
0000
0001
0000
,
0002
0000
0003
0000
,
1000
0000
0100
0000
,
1000
0000
0100
0000
,
1000
0000
1000
0000
,
2000
0000
3000
0000
,
0001
0000
0100
0000
,
0001
0000
0100
0000
,
0001
0000
0001
0000
,
0002
0000
0003
0000
,
1000
0000
0100
0000
,
0020
0000
0030
0000
,
0001
0000
0100
0000
,
0020
0000
0030
0000
,
1000
0000
0001
0000
,
1000
0000
0001
0000
,
0010
0000
0010
0000
,
0010
0000
0010
0000
,
0001
0000
1000
0000
,
0001
0000
1000
0000
,
0020
0000
0030
0000
,
0200
0000
0300
0000
,
0001
0000
1000
0000
,
0001
0000
1000
0000
,
0010
0000
0010
0000
,
0010
0000
0010
0000
,
1000
0000
0001
0000
,
1000
0000
0001
0000
,
0020
0000
0030
0000
,
0200
0000
0300
0000
,
1000
0000
0000
0000
,
0010
0000
0000
0000
,
1000
0000
0001
0000
,
1000
0000
0001
0000
,
1000
0000
0000
0000
,
0100
0000
0000
0000
,
0010
0000
0010
0000
,
0010
0000
0000
0000
,
0001
0000
0000
0000
,
1000
0000
0000
0000
,
0001
0000
0100
0000
,
0001
0000
0000
0000
,
1000
0000
0010
0000
,
0100
0000
0000
0000
,
0001
0000
0010
0000
,
0100
0000
0000
0000
,
1000
0000
0100
0000
,
1000
0000
0100
0000
,
1000
0000
1000
0000
,
2000
0000
3000
0000
,
0001
0000
0100
0000
,
0001
0000
0100
0000
,
0001
0000
0001
0000
,
0002
0000
0003
0000
,
1000
0000
0010
0000
,
1000
0000
0010
0000
,
1000
0000
1000
0000
,
2000
0000
3000
0000
,
0001
0000
0010
0000
,
0001
0000
0010
0000
,
0001
0000
0001
0000
,
0002
0000
0003
0000
,
1000
0000
0010
0000
,
1000
0000
0000
0000
,
0001
0000
0010
0000
,
0001
0000
0000
0000
,
1000
0000
0001
0000
,
1000
0000
0001
0000
,
0100
0000
0100
0000
,
0100
0000
0100
0000
,
0001
0000
1000
0000
,
0001
0000
1000
0000
,
0020
0000
0030
0000
,
0200
0000
0300
0000
,
0001
0000
1000
0000
,
0001
0000
1000
0000
,
0100
0000
0100
0000
,
0100
0000
0100
0000
,
1001
0000
0000
0000
,
0110
0000
0000
0000
,
2000
0000
3000
0000
,
0002
0000
0003
0000
,
2002
0000
0000
0000
,
0000
0000
3003
0000
;
