#VERSION:0.83;
#TITLE:ANALYS;
#SUBTITLE:;
#ARTIST:HAYAKO;
#TITLETRANSLIT:;
#SUBTITLETRANSLIT:;
#ARTISTTRANSLIT:;
#GENRE:Radical Full-On;
#ORIGIN:;
#CREDIT:;
#BANNER:ANALYS.png;
#BACKGROUND:ANALYS-bg.png;
#PREVIEWVID:;
#JACKET:ANALYS-jacket.png;
#CDIMAGE:;
#DISCIMAGE:;
#LYRICSPATH:;
#CDTITLE:cdtitle.png;
#MUSIC:ANALYS.ogg;
#OFFSET:1.409765;
#SAMPLESTART:14.119647;
#SAMPLELENGTH:11.294117;
#SELECTABLE:YES;
#BPMS:0.000=170.000,
40.000=85.000,
42.000=170.000,
130.000=85.000,
134.000=170.000;
#STOPS:179.500=0.353,
210.750=0.353,
309.500=0.706;
#DELAYS:;
#WARPS:;
#TIMESIGNATURES:0.000=4=4;
#TICKCOUNTS:0.000=4;
#COMBOS:0.000=1;
#SPEEDS:0.000=1.000=0.000=0;
#SCROLLS:0.000=1.000;
#FAKES:;
#LABELS:0.000=Song Start;
#BGCHANGES:2.938=ANALYS.avi=1.000=1=0=0=StretchNoLoop==CrossFade==,
99999=-nosongbg-=1.000=0=0=0 // don't automatically add -songbackground-
;
#KEYSOUNDS:;
#ATTACKS:
;

//---------------dance-single - ----------------
#NOTEDATA:;
#CHARTNAME:;
#STEPSTYPE:dance-single;
#DESCRIPTION:;
#CHARTSTYLE:;
#DIFFICULTY:Challenge;
#METER:17;
#RADARVALUES:0.997130,1.136813,0.382461,0.533852,1.031848,876.000000,828.000000,48.000000,67.000000,0.000000,0.000000,0.000000,0.000000,0.000000,0.997130,1.136813,0.382461,0.533852,1.031848,876.000000,828.000000,48.000000,67.000000,0.000000,0.000000,0.000000,0.000000,0.000000;
#CREDIT:;
#OFFSET:1.409765;
#BPMS:0.000000=170.000000
,40.000000=85.000000
,42.000000=340.000000
,42.500000=170.000000
,42.750000=85.000000
,43.000000=170.000000
,58.000000=85.000000
,58.250000=170.000000
,58.500000=340.000000
,59.000000=170.000000
,74.000000=340.000000
,74.500000=170.000000
,89.500000=340.000000
,90.000000=170.000000
,129.000000=85.000000
,133.000000=170.000000
,148.000000=340.000000
,148.250000=170.000000
,148.375000=85.000000
,148.625000=170.000000
,148.750000=340.000000
,149.000000=170.000000
,173.000000=340.000000
,179.500000=170.000000
,179.750000=85.000000
,180.000000=340.000000
,182.000000=170.000000
,188.000000=680.000000
,188.250000=170.000000
,188.312500=85.000000
,188.500000=680.000000
,188.750000=170.000000
,188.812500=85.000000
,189.000000=680.000000
,189.250000=170.000000
,189.312500=85.000000
,189.500000=680.000000
,189.750000=170.000000
,189.812500=85.000000
,190.000000=170.000000
,196.000000=340.000000
,198.000000=170.000000
,210.000000=340.000000
,210.500000=170.000000
,210.750000=85.000000
,211.000000=340.000000
,212.000000=680.000000
,212.500000=170.000000
,212.625000=85.000000
,213.000000=170.000000
,242.000000=340.000000
,242.500000=170.000000
,242.750000=85.000000
,243.000000=170.000000
,299.000000=340.000000
,308.500000=170.000000
,315.000000=340.000000
,315.500000=170.000000
,315.750000=85.000000
,316.000000=340.000000
,316.500000=170.000000
,316.750000=85.000000
,317.000000=170.000000
,323.000000=340.000000
,325.000000=170.000000
,345.000000=85.000000
,345.375000=340.000000
,345.875000=170.000000
;
#STOPS:74.000000=0.132353
,74.250000=0.132353
,89.500000=0.132353
,89.750000=0.132353
,173.000000=0.176470
,174.000000=0.088233
,174.500000=0.088236
,175.000000=0.132353
,175.750000=0.132350
,176.500000=0.132350
,177.250000=0.044116
,177.500000=0.044116
,177.750000=0.044116
,178.000000=0.088236
,178.500000=0.441180
,180.000000=0.044123
,180.250000=0.044116
,180.500000=0.044116
,180.750000=0.044116
,181.000000=0.044116
,181.250000=0.044116
,181.500000=0.044116
,181.750000=0.044116
,196.000000=0.044123
,196.250000=0.044116
,196.500000=0.044116
,196.750000=0.044116
,197.000000=0.044116
,197.250000=0.044116
,197.500000=0.044116
,197.750000=0.044116
,209.750000=0.352946
,211.000000=0.044123
,211.250000=0.044116
,211.500000=0.044116
,211.750000=0.044116
,299.000000=0.176470
,300.000000=0.088244
,300.500000=0.088236
,301.000000=0.132357
,301.750000=0.132357
,302.500000=0.132357
,303.250000=0.132357
,304.000000=0.132357
,304.750000=0.132357
,305.500000=0.132357
,306.250000=0.044116
,306.500000=0.044116
,306.750000=0.044116
,307.000000=0.132350
,307.750000=0.132357
,308.500000=0.705882
,323.000000=0.044123
,323.250000=0.044116
,323.500000=0.044116
,323.750000=0.044116
,324.000000=0.044116
,324.250000=0.044116
,324.500000=0.088236
;
#DELAYS:;
#WARPS:;
#TIMESIGNATURES:0.000000=4=4
;
#TICKCOUNTS:0.000000=4
;
#COMBOS:0.000000=1
;
#SPEEDS:0.000000=1.000000=0.000000=0
;
#SCROLLS:0.000000=1.000000
;
#FAKES:;
#LABELS:0.000000=Song Start
;
#NOTES:
0000
0000
0000
0000
,
0000
0000
0000
0000
,
0000
0000
0000
0000
,
0000
0000
0000
0000
,
0000
0000
0000
0000
,
0202
0000
0303
2020
0000
3030
0202
0000
,
0303
2002
0000
3003
2200
3300
0022
0033
,
1000
0100
1000
0100
0010
0001
0010
0001
,
1000
0100
0010
0001
0100
0010
1000
0001
,
0010
0100
0010
0100
1000
0001
1000
0001
0100
0010
0100
0010
1000
0100
0010
0001
,
0100
0000
0000
0000
0010
0100
0010
0100
0010
0000
1000
0000
1001
0000
0000
0000
0020
0000
0000
0000
0000
0000
0030
0000
1000
0000
0000
0000
0010
0000
0000
0000
,
0001
0000
0010
0000
1000
0010
1000
0000
0001
1000
0001
1000
0100
0000
1000
0000
,
0100
0000
0001
0000
0100
0000
1000
0000
0001
0010
0001
0000
0001
0010
0001
0000
,
0001
0100
0001
0000
0001
0100
0001
0000
1000
0100
0010
0000
0001
0100
0010
0000
,
1000
0100
1000
0100
0020
0000
0100
0000
0031
0000
0000
0000
0001
0000
0010
0000
,
1000
0000
0010
0000
0001
0010
0001
0000
1000
0001
1000
0001
0100
0000
0001
0000
,
0100
0000
1000
0000
0100
0000
0001
0000
1000
0010
1000
0000
1000
0001
1000
0000
,
0001
0010
0001
0000
0001
1000
0001
0000
0100
0000
0001
1000
0100
0000
1000
0001
,
0100
0010
0100
0010
2000
0000
0000
0000
3001
0001
1000
0000
0100
0000
0001
0000
,
0100
0010
0000
0100
0010
0000
0001
1000
0001
1000
0001
0000
0100
0000
1000
0000
,
0100
0010
0000
0100
0001
0000
1000
0010
1000
0000
1000
0010
1000
0000
1000
0100
,
1000
0000
1000
0100
1000
0000
0001
0100
0010
0000
1000
0100
0010
0000
0100
0010
,
0100
0010
0001
0100
0010
1000
0001
0001
1000
0000
0001
0000
0010
0000
1000
0010
,
0000
0010
0100
0000
1000
0000
1000
0000
0001
0000
1000
0000
0010
0000
0001
0010
,
0000
0010
0100
0000
0001
0100
0001
0000
0001
0010
0001
0000
1000
0100
1000
0000
,
1000
0010
1000
0000
0001
0000
1000
0100
0001
0000
1000
0010
0001
0000
0100
0000
,
0010
1000
0010
1000
0200
0000
0310
0000
0001
0000
0010
0000
0001
0000
0010
0000
,
0200
0310
1000
0010
1000
0010
0200
0310
,
0001
1000
0020
0130
0001
0100
0001
0100
,
0020
0130
1000
0100
1000
0100
0020
1030
,
0001
0010
0200
0301
0100
0001
0100
1000
,
0020
0031
0010
0001
0010
1000
0200
0310
,
0001
0000
0000
0000
0100
0000
0000
0000
0010
0000
0000
0000
0000
0000
1000
0010
1000
0000
0000
0000
0010
0000
1000
0000
0001
0000
0000
0010
0000
0000
0001
0000
,
1000
0000
0000
0000
1002
0000
0013
0000
0001
0010
0001
0000
0010
0000
0001
0100
,
0000
0001
0000
0000
2001
0000
3010
0000
1000
0010
1000
0000
0010
0000
1000
0100
,
0000
1000
0000
0000
1002
0000
0013
0000
0001
0100
0001
0000
2001
0000
3010
0000
,
1000
0100
1000
0000
1002
0000
0013
0000
2001
0000
3010
0000
1001
0000
1000
0001
,
2000
0000
3000
0000
0010
0000
1000
0000
0010
0000
1000
0000
0001
0000
1000
0100
,
0000
1000
0000
0100
0010
0000
0001
0000
0010
0000
0001
0000
1000
0000
0001
0100
,
0000
0001
0000
0100
0010
0000
1000
0000
0100
1000
0100
0000
0010
0000
0001
0000
,
0100
0001
0100
0000
0010
0000
1000
0000
0010
1000
0001
0000
0010
0001
1000
0001
,
0010
0001
1000
0000
0001
0100
0001
0100
0010
0100
0010
0100
0010
1000
0010
1000
,
0100
1000
0100
0010
0001
0100
0010
1000
0001
0010
0100
1000
0010
0100
0001
0010
,
0100
1000
0010
0100
0001
0000
0000
0000
1100
0000
0110
0000
0011
0000
0000
1100
,
0000
0000
0110
0000
0000
0001
1000
0100
0010
0000
0001
0000
1001
0000
0000
0000
,
1000
0010
1000
0010
1000
0010
1000
0010
0100
0001
1000
0000
1000
0001
0010
0000
,
0010
0001
1000
0010
0000
0010
1000
0001
0000
0001
1000
0100
0000
0100
0010
0001
,
2000
0000
3020
0000
0032
0000
0023
0000
1030
0010
0100
0000
0100
0001
0010
0000
,
0010
0100
1000
0010
0000
0010
1000
0001
0000
0001
1000
0100
1000
0100
0010
0001
,
0100
0001
0100
0001
0100
0001
0100
0001
0100
0000
0001
0000
0010
0001
0010
0000
,
0001
0000
1000
0000
0010
1000
0010
1000
0000
1000
0100
0010
0001
0000
1000
0100
,
0010
0001
1000
0001
0010
0001
1000
0001
0100
0001
1000
0001
0010
0100
1000
0001
,
0100
0010
0100
0010
1000
0100
0010
0001
1001
0000
0000
0000
0001
0100
0001
0100
,
2000
0000
0000
0000
3001
0000
0010
0000
1000
0001
1000
0000
0100
0000
0100
0000
,
1000
0001
1000
0001
0100
0001
1000
0001
0010
0000
1000
0000
0001
0000
0100
0000
,
1000
0100
1000
0000
0001
0000
0001
0000
1000
0010
1000
0000
0001
0000
0001
0000
,
1000
0100
0010
0001
1000
0100
0010
0001
0100
0000
1000
0000
0100
0010
0100
0000
,
0100
0001
1000
0000
0001
0000
0010
0000
0001
1000
0001
0000
0100
0000
0100
0000
,
0001
1000
0001
1000
0100
1000
0001
1000
0010
0000
0100
0000
0001
0000
0000
0000
,
0100
0000
0001
0000
0010
0000
0100
1000
0001
0000
0010
0000
0100
1000
0001
0100
,
0010
0000
0100
0000
0010
0000
0010
0000
1001
0000
0000
0000
0001
1000
0010
1000
,
0001
0000
1000
0000
0010
0000
1000
0000
0100
1000
0001
1000
0100
0000
1000
0000
,
0001
0000
0001
0000
0010
0001
0100
0010
1000
0000
0001
0000
1000
0001
0010
0001
,
1000
0000
0001
0000
0010
0000
0001
0000
0100
0001
1000
0001
0100
0000
0001
0000
,
1000
0000
1000
0000
0010
1000
0100
0010
0001
0000
1000
0000
0001
0100
0010
1000
,
0100
0000
0010
0000
0001
0000
0010
0000
0100
1000
0010
0100
0001
0000
1000
0000
,
0100
0000
0100
0000
0010
0001
0100
0001
0010
0000
0100
0000
1000
0010
0100
0001
,
0010
0000
0001
0000
1000
0000
0001
0000
0010
0001
0100
0010
1000
0000
0001
0100
,
0010
1000
0100
0010
0001
1000
0100
0010
0001
0100
0010
1000
0001
0100
0001
0100
,
1000
0000
0100
0000
0001
0000
1000
0000
0001
0010
0001
0010
1000
0000
0010
0000
,
0001
0000
0001
0000
0010
0100
1000
0010
0100
0000
0001
0000
1000
0100
1000
0100
,
0001
0000
0100
0000
1000
0000
0001
0000
1000
0010
1000
0010
0001
0000
0010
0000
,
1000
0000
1000
0000
0010
0100
0001
0010
0100
0000
1000
0000
0001
0100
1000
0100
,
0010
0000
1000
0000
0100
0000
0100
0000
1000
0100
0001
0100
0010
0000
0001
0000
,
0100
0000
0100
0000
0001
0100
0010
1000
0100
0010
0001
0000
1001
0000
0000
0000
,
1001
0000
0110
0000
1001
0000
0000
1100
0000
0000
0101
0000
0000
0011
0000
0000
,
1010
0000
0000
1001
0000
0000
0011
0000
0000
0100
1000
0001
0100
0000
0000
1010
,
0000
1001
0202
0000
0303
2020
0000
3030
,
0202
0000
0000
0000
0303
0000
2002
0000
0000
0000
3003
0000
2000
0000
0000
3000
,
0002
0000
0000
0003
2200
0000
0000
0000
3300
0000
0022
0000
0000
0000
0033
0000
,
2200
0000
0000
0000
3300
0000
2002
0000
0000
0000
3003
0000
0001
0100
0001
0100
,
0010
1000
0010
0000
2002
0000
0000
0000
3003
0000
0022
0000
0000
0000
0033
0000
,
2002
0000
3003
2020
0000
3030
2002
3003
,
0220
0000
0330
0000
0001
0100
0001
0100
0001
1000
0001
1000
0001
0010
0001
0010
,
0100
1000
0100
1000
0001
1000
0001
1000
0010
1000
0010
1000
0001
0100
0001
1000
,
0100
1000
0001
0100
0001
0010
0100
1000
0010
0100
0001
1000
0100
0010
0001
0100
,
0010
0000
1000
0000
0001
0000
1000
0000
0200
0000
0000
0000
0000
0000
0000
0300
0000
0000
0000
0000
0000
0000
0000
0000
0000
0000
0000
0000
0000
0000
0000
0000
;

//---------------dance-single - ----------------
#NOTEDATA:;
#CHARTNAME:;
#STEPSTYPE:dance-single;
#DESCRIPTION:;
#CHARTSTYLE:;
#DIFFICULTY:Hard;
#METER:13;
#RADARVALUES:0.692072,0.831653,0.454172,0.462140,0.235054,608.000000,551.000000,57.000000,58.000000,0.000000,0.000000,0.000000,0.000000,0.000000,0.692072,0.831653,0.454172,0.462140,0.235054,608.000000,551.000000,57.000000,58.000000,0.000000,0.000000,0.000000,0.000000,0.000000;
#CREDIT:;
#OFFSET:1.409765;
#BPMS:0.000000=170.000000
,40.000000=85.000000
,42.000000=170.000000
,128.000000=85.000000
,132.000000=170.000000
,333.000000=85.000000
,333.375000=340.000000
,333.875000=170.000000
;
#STOPS:42.000000=0.176470
,57.500000=0.176470
,73.000000=0.088235
,73.250000=0.088235
,88.500000=0.088236
,88.750000=0.088235
,132.000000=1.235293
,132.500000=1.235293
,133.000000=0.529410
,133.500000=0.529410
,134.000000=0.176467
,134.500000=0.176467
,135.000000=0.176467
,135.500000=0.176467
,165.500000=0.352946
,296.500000=0.705889
;
#DELAYS:;
#WARPS:;
#TIMESIGNATURES:0.000000=4=4
;
#TICKCOUNTS:0.000000=4
;
#COMBOS:0.000000=1
;
#SPEEDS:0.000000=1.000000=0.000000=0
;
#SCROLLS:0.000000=1.000000
;
#FAKES:;
#LABELS:0.000000=Song Start
;
#NOTES:
0000
0000
0000
0000
,
0000
0000
0000
0000
,
0000
0000
0000
0000
,
0000
0000
0000
0000
,
0000
0000
0000
0000
,
2200
0000
3300
0022
0000
0033
2200
0000
,
3300
2002
0000
3003
0202
0303
2020
3030
,
1002
0100
1000
0010
,
2003
0100
0001
0010
,
3001
0010
0001
0010
0100
1000
0010
0100
,
0001
0000
0000
0000
1001
1000
0010
0001
,
0010
0000
1000
0000
0000
0000
1000
0100
1000
0000
0100
0000
0001
0000
0100
0000
,
1000
0000
0001
0000
0000
0000
1000
0010
0000
0000
0010
0100
0000
0000
0100
0001
,
0000
0000
0001
1000
0000
0000
0001
0010
0000
0000
1000
0010
0000
0000
0001
0000
,
1000
0001
0000
1001
0001
0010
1000
0010
,
0001
0000
0000
0000
0001
0100
0001
0000
0100
0000
1000
0000
0100
0000
0001
0000
,
1000
0000
0001
0010
0100
0010
0001
0010
,
0100
0010
0001
0000
0001
0000
0001
0100
,
1000
0000
0000
0000
0100
0010
0110
0000
0000
0000
1000
0000
0010
0100
0000
0100
,
0001
0000
0010
0000
0100
0000
1000
0000
0000
0000
0001
0000
0100
0010
0000
0010
,
1000
0000
0001
0010
0000
0000
0010
0100
0000
0000
0100
1000
0000
0000
1000
0001
,
0000
0000
1000
0010
0000
0000
0001
0010
0000
0000
1000
0000
0010
0000
0100
0000
,
0001
0000
0010
0100
0110
0000
0000
0000
0001
0000
1000
0100
0000
0100
1000
0000
,
0010
0000
1000
0000
0001
0000
0000
0000
1000
0000
0001
0100
0000
0100
0001
0000
,
1000
0100
0010
0100
1000
0100
0010
0100
,
1000
0010
1000
0010
0001
0010
2000
0000
,
3001
0010
0100
1000
0100
1000
0001
0010
,
0100
1000
0100
1000
0001
0010
1000
0010
,
0001
0100
0010
1000
0010
1000
0001
0100
,
0010
1000
0010
1000
0001
0100
1000
0100
,
0001
0010
0100
1000
0100
1000
0001
0100
,
0010
1000
0010
1000
0001
0100
1000
0001
,
0010
0000
0000
0000
0000
0000
1000
0000
1000
0000
0000
0000
0010
0000
1000
0000
0001
0000
0000
0010
0000
0000
0100
0000
1000
0000
0000
0000
0000
0000
0000
0000
,
1001
0110
1100
0101
1010
0011
1010
0000
,
0011
0010
0001
0001
,
1010
0010
1000
1000
,
0101
0100
0001
0001
,
1100
0100
1000
0001
,
1000
0010
0100
0001
0010
0001
0100
0010
,
1000
0100
1000
0010
0100
0001
0010
0100
,
0110
0000
0000
0000
1000
0000
0001
0000
1001
0000
0000
1010
0000
0000
0011
0000
,
0000
0101
0000
0000
1100
0000
0000
0000
1001
0000
0000
0000
0002
0000
0100
0000
,
0100
0000
0103
0000
0001
1000
0001
0000
0000
1000
0100
0000
0000
0100
0001
0000
,
0000
0001
0100
0000
0000
0100
1000
0000
0000
1000
0001
0000
0200
0000
2300
0000
,
3002
0000
0023
0000
1030
0010
1000
0000
0000
0001
0010
0000
0000
0010
1000
0000
,
0000
1000
0010
0000
0000
0010
0001
0000
0100
0000
0001
0000
2000
0000
0100
0000
,
0100
0000
3100
0000
1000
0000
0001
0000
1000
0010
1000
0000
0001
0000
1000
0000
,
0001
0010
0001
0000
0000
0010
0100
0000
1000
0000
0001
0000
0100
0000
0010
0000
,
0100
0010
1000
0001
0100
0010
2000
0001
,
0001
0000
3001
0000
1000
0000
0100
0000
0110
0000
0000
0000
0001
0010
0001
0010
,
0002
0000
0000
0000
1003
0000
0010
0000
0100
0010
0100
0000
0010
0000
1000
0000
,
0001
1000
0001
0000
1000
0000
0100
0000
0001
0000
0100
0000
1000
0000
0000
0000
,
0010
1000
0010
0000
1000
0000
0001
0000
0010
0001
0010
0000
0001
0000
1000
0000
,
0010
1000
0010
0000
1000
0000
0001
0000
0010
0000
0001
0000
0100
0000
0000
0000
,
0100
0010
0100
0000
0001
0000
0010
0000
0100
0010
0100
0000
0010
0000
0001
0000
,
1000
0001
1000
0000
0001
0000
0100
0000
1000
0000
0100
0000
0002
0000
0000
0000
,
0023
0000
0230
0000
2300
0000
3001
0010
,
0100
1000
0001
0100
0110
0000
1000
0010
,
0100
0001
1000
0100
0010
0001
1000
0010
,
0100
0010
1000
0100
0001
0100
1000
0001
,
0100
0010
1000
0001
0010
0100
1000
0010
,
1000
0001
0100
1000
0100
0001
0010
0100
,
1000
0010
0100
0001
0010
0001
0100
0010
,
1000
0100
1000
0010
0001
0010
1000
0100
,
0010
0001
0010
0100
1000
0010
0100
0001
,
1000
0100
1000
0100
0010
0001
1000
0010
,
0100
1000
0100
0010
1000
0001
0010
0100
,
0001
0100
0010
0001
1000
0010
0100
0001
,
0010
1000
0010
0001
1000
0010
0001
0010
,
1000
0001
0010
0100
1000
0010
0100
0001
,
0010
1000
0001
0100
1000
0001
1000
0010
,
0001
1000
0100
0001
1000
0100
0110
0000
,
0001
0000
0100
0000
0110
0000
0000
1010
0000
0000
1001
0000
0000
0011
0000
0000
,
0110
0000
0000
1100
0000
0000
1001
0000
0000
0101
0000
0000
0110
0000
0000
1010
,
0000
1001
2200
0000
3300
0022
0000
0033
,
2200
0000
3300
2002
0000
3003
2000
3000
,
0002
0003
0202
0000
0303
2020
0000
3030
,
0202
0000
0303
2002
0000
3003
1000
0100
,
0010
0001
2002
0000
3003
2020
0000
3030
,
2002
0000
3003
0022
0000
0033
2002
3003
,
0202
0303
0001
0100
1000
0100
0001
0100
,
1000
0100
0001
0010
1000
0010
0001
0010
,
1000
0010
0001
0100
1000
0001
0010
1000
,
0001
0010
2000
0000
3000
0000
0000
0000
;

//---------------dance-single - ----------------
#NOTEDATA:;
#CHARTNAME:;
#STEPSTYPE:dance-single;
#DESCRIPTION:;
#CHARTSTYLE:;
#DIFFICULTY:Medium;
#METER:9;
#RADARVALUES:0.441651,0.575683,0.215134,0.645403,0.027888,388.000000,361.000000,27.000000,81.000000,0.000000,0.000000,0.000000,0.000000,0.000000,0.441651,0.575683,0.215134,0.645403,0.027888,388.000000,361.000000,27.000000,81.000000,0.000000,0.000000,0.000000,0.000000,0.000000;
#CREDIT:;
#OFFSET:1.409765;
#BPMS:0.000000=170.000000
,40.000000=85.000000
,42.000000=170.000000
,128.000000=85.000000
,132.000000=170.000000
,339.000000=85.000000
,339.375000=340.000000
,339.875000=170.000000
;
#STOPS:42.000000=0.176470
,57.500000=0.176470
,73.000000=0.176470
,88.500000=0.176470
,132.000000=1.058821
,133.000000=1.058825
,134.000000=0.352942
,135.000000=0.352942
,138.000000=0.352942
;
#DELAYS:;
#WARPS:;
#TIMESIGNATURES:0.000000=4=4
;
#TICKCOUNTS:0.000000=4
;
#COMBOS:0.000000=1
;
#SPEEDS:0.000000=1.000000=0.000000=0
;
#SCROLLS:0.000000=1.000000
,300.500000=0.000000
,302.000000=1.000000
;
#FAKES:;
#LABELS:0.000000=Song Start
;
#NOTES:
0000
0000
0000
0000
,
0000
0000
0000
0000
,
0000
0000
0000
0000
,
0000
0000
0000
0000
,
0000
0000
0000
0000
,
2000
0000
0000
3200
0000
0000
0320
0000
,
0000
0032
0000
0000
0203
0000
0320
0000
,
2030
0010
0001
0010
,
3002
0010
1000
0010
,
2003
3020
0230
0302
,
1003
0000
0000
0000
0010
1001
0000
0010
,
0001
0100
0000
0001
1000
0001
0000
0010
,
0001
0100
0000
0002
0000
0023
0000
0230
,
0000
2300
0000
3002
0000
0203
0000
2300
,
0000
3200
0000
0301
1001
0000
0010
1000
,
0100
0000
1000
0001
1000
0000
0010
1000
,
0100
0010
0010
0001
,
0001
0000
1100
0000
0011
0000
1000
0001
,
0100
0000
0010
0110
0000
1000
0010
0100
,
0010
1000
0000
0001
0000
0010
0001
1000
,
0001
0200
0000
0320
0000
2030
0000
3002
,
0000
2003
0000
3200
0000
0302
0000
0203
,
0000
1300
0110
0000
0001
0010
0100
0010
,
0001
0000
1000
0000
0010
1000
0001
1000
,
0100
0100
0010
0010
,
1100
0000
0011
0000
0100
1000
0010
0000
,
2020
0000
0030
0200
,
0000
0300
0020
3030
,
0022
0000
0030
0200
,
0000
0300
0020
0033
,
2020
0000
3030
0022
,
0000
0033
2020
0030
,
3001
0000
0010
0001
0100
0010
1000
0000
,
1001
0110
1100
0101
,
1010
0011
1010
0001
,
0010
0001
0010
1000
,
0010
1000
0010
1000
,
0100
1000
0100
0001
,
0100
0000
0001
0000
0001
0000
1000
0100
,
0010
0000
0001
0100
0010
0000
1000
0100
,
0010
0000
0001
0100
0010
0000
0110
0000
,
1001
0000
0000
0000
0010
0000
0000
0010
0000
0000
0010
0000
0000
0010
0000
0000
,
0010
0000
1001
0200
,
0300
1000
0100
0001
,
0100
0000
1000
0000
0001
0000
1000
1000
,
1000
0010
0001
0100
,
1000
0000
0010
0100
0010
0000
2002
0000
,
3003
0001
0100
1000
,
0100
0000
0001
0000
1000
0000
0001
0010
,
0100
0000
1000
0010
0100
0000
0001
0001
,
0001
0000
1001
0020
,
0030
0000
0001
0010
0001
0000
1000
0100
,
1000
0000
0001
0010
0001
0000
1000
0000
,
1000
0000
0001
0100
0001
0000
1000
0010
,
1000
0000
0001
0100
0001
0000
1000
0000
,
1000
0000
0001
0010
0100
0000
1000
0010
,
0100
0000
0001
0010
0100
0000
2000
0000
,
3020
0000
0230
0000
0302
0000
1003
0010
,
0100
0001
0010
0000
0110
0000
1000
0100
,
2000
0000
0010
0000
3001
0100
0002
0000
,
0010
0000
1003
0100
1000
0000
0001
0010
,
0002
0000
0100
0000
1003
0010
2000
0000
,
0100
0000
3001
0010
0001
0000
1000
0010
,
0200
0000
0010
0000
0301
0100
0020
0000
,
0100
0000
1030
0010
0100
0000
0001
1000
,
0200
0000
1000
0000
0310
0001
2000
0000
,
3001
0100
0001
0100
0001
0000
0010
0001
,
0200
0000
1000
0000
0310
1000
0200
0000
,
0001
0000
0310
0100
0010
0000
0100
1000
,
0020
0000
0001
0000
0130
0001
0020
0000
,
1000
0000
0130
0010
0100
0000
0010
0001
,
0200
0000
0001
0000
0310
1000
0200
0000
,
1000
0000
0310
0001
0100
0000
1001
0000
,
0010
0000
0100
0000
0010
0000
0000
0010
0000
0000
0010
0000
0000
0010
0000
0000
,
0010
0000
0000
0010
0000
0000
0010
0000
0000
0010
0000
0000
0010
0000
0000
0010
,
0000
0010
0000
0000
0000
0000
2000
0000
,
0000
3020
0000
0000
0032
0000
0000
0023
,
0000
1030
1000
0002
,
0000
0023
0000
0000
2030
0000
0000
3020
,
0000
0000
0031
1000
0001
0000
2000
0000
,
0000
3020
0000
0000
0230
0000
0000
0302
,
0000
0023
0230
2300
,
0010
0001
0010
3002
,
0010
0000
1000
0000
0010
0000
1003
0010
,
1000
0010
1000
0010
0100
0001
2000
0000
,
3000
0000
0000
0000
;

//---------------dance-single - ----------------
#NOTEDATA:;
#CHARTNAME:;
#STEPSTYPE:dance-single;
#DESCRIPTION:;
#CHARTSTYLE:;
#DIFFICULTY:Easy;
#METER:7;
#RADARVALUES:0.330100,0.417121,0.239038,0.541820,0.000000,290.000000,260.000000,30.000000,68.000000,0.000000,0.000000,0.000000,0.000000,0.000000,0.330100,0.417121,0.239038,0.541820,0.000000,290.000000,260.000000,30.000000,68.000000,0.000000,0.000000,0.000000,0.000000,0.000000;
#CREDIT:;
#OFFSET:1.409765;
#BPMS:0.000000=170.000000
,128.000000=85.000000
,132.000000=170.000000
,348.000000=85.000000
,348.375000=340.000000
,348.875000=170.000000
;
#STOPS:40.000000=1.411765
;
#DELAYS:;
#WARPS:;
#TIMESIGNATURES:0.000000=4=4
;
#TICKCOUNTS:0.000000=4
;
#COMBOS:0.000000=1
;
#SPEEDS:0.000000=1.000000=0.000000=0
;
#SCROLLS:0.000000=1.000000
,309.500000=0.000000
,311.000000=1.000000
;
#FAKES:;
#LABELS:0.000000=Song Start
;
#NOTES:
0000
0000
0000
0000
,
0000
0000
0000
0000
,
0000
0000
0000
0000
,
0000
0000
0000
0000
,
0000
0000
0000
0000
,
2000
0000
0000
3001
0000
0000
0002
0000
,
0000
1003
0000
0000
2000
0000
3001
0000
,
2002
0000
0000
0000
,
0000
0000
0000
3003
,
2000
3020
0230
0302
,
1003
1001
0001
0010
,
0100
0010
0001
0010
,
0100
0100
1000
1000
,
0001
0001
0100
0200
,
0300
1001
1000
0010
,
0100
0010
1000
0010
,
1000
1000
0001
0001
,
1000
0100
0010
0002
,
0003
1001
1000
0100
,
0001
0100
1000
0100
,
0010
0010
0001
0001
,
1000
1000
0010
0020
,
0030
1001
0001
0100
,
1000
0100
0001
0100
,
0001
0001
1000
1000
,
0001
0010
0001
1000
,
2020
0000
0030
0002
,
0000
0003
0020
3030
,
0022
0000
0030
2000
,
0000
3000
0020
0033
,
2002
0000
3003
0220
,
0000
0330
2002
0000
,
3003
1000
0100
0001
,
1001
0000
0000
0000
,
0110
0000
0000
0000
,
1001
0000
0110
0000
,
1001
0110
1001
0000
,
0001
0001
0010
0010
,
0001
0001
0010
0010
,
1000
1000
0010
0010
,
1000
1000
0010
0010
,
0001
0010
1000
0010
,
0001
0010
1000
0010
,
1001
0100
0020
0000
,
0000
0030
0000
1001
,
2000
3000
1000
1000
,
0010
0010
0001
0001
,
1000
1000
0001
0010
,
1000
0001
1000
0100
,
0220
0330
0001
0001
,
0010
0010
1000
1000
,
0001
1000
0010
0001
,
0100
0100
0000
1001
,
0002
0003
0001
0010
,
0100
0010
1000
0010
,
0001
0001
0100
0010
,
0100
0001
0100
1000
,
0100
0100
0001
0010
,
0100
0010
1000
0010
,
0002
0203
0320
2030
,
3200
0000
0310
0011
,
2000
0010
3001
0002
,
0010
1003
2000
0010
,
3002
0100
1003
2000
,
0100
3001
0002
0100
,
2003
0100
3010
2000
,
0010
3100
2000
0001
,
3002
0100
0013
0002
,
0010
0103
0101
1010
,
2000
0001
3100
0200
,
1000
0301
0100
1000
,
0002
1000
0103
0200
,
0001
1300
0100
0001
,
0020
1000
0031
0020
,
0001
1030
1010
0011
,
1001
0000
0200
0000
,
0000
0000
0000
0000
,
0000
0000
0000
0300
0000
0000
0000
0000
,
2000
0000
0000
3001
0000
0000
0002
0000
,
0000
1003
0000
0000
1001
0000
1001
0000
,
0002
0000
0000
1003
0000
0000
2000
0000
,
0000
3001
0000
0000
0010
0000
0010
0000
,
0002
0000
0000
1003
0000
0000
2000
0000
,
0000
3001
0000
0000
0002
0000
1003
0000
,
2002
0000
0000
0000
,
0000
0000
0000
3003
,
2000
3020
0032
0203
,
2300
3000
0000
0000
;

//---------------dance-single - ----------------
#NOTEDATA:;
#CHARTNAME:;
#STEPSTYPE:dance-single;
#DESCRIPTION:;
#CHARTSTYLE:;
#DIFFICULTY:Beginner;
#METER:4;
#RADARVALUES:0.229932,0.390031,0.135455,0.270910,0.000000,202.000000,185.000000,17.000000,34.000000,0.000000,0.000000,0.000000,0.000000,0.000000,0.229932,0.390031,0.135455,0.270910,0.000000,202.000000,185.000000,17.000000,34.000000,0.000000,0.000000,0.000000,0.000000,0.000000;
#CREDIT:;
#OFFSET:1.409765;
#BPMS:0.000000=170.000000
;
#STOPS:;
#DELAYS:;
#WARPS:;
#TIMESIGNATURES:0.000000=4=4
;
#TICKCOUNTS:0.000000=4
;
#COMBOS:0.000000=1
;
#SPEEDS:0.000000=1.000000=0.000000=0
;
#SCROLLS:0.000000=1.000000
;
#FAKES:;
#LABELS:0.000000=Song Start
;
#NOTES:
// measure 0
0000
0000
0000
0000
,  // measure 1
0000
0000
0000
0000
,  // measure 2
0000
0000
0000
0000
,  // measure 3
0000
0000
0000
0000
,  // measure 4
0000
0000
0000
0000
,  // measure 5
2000
0000
0000
3000
0000
0000
0002
0000
,  // measure 6
0000
0003
0000
0000
1000
0000
0001
0000
,  // measure 7
2000
0000
0000
0000
,  // measure 8
3000
0000
0000
0000
,  // measure 9
0010
0010
0010
0010
,  // measure 10
0010
0000
0000
0000
,  // measure 11
1001
0000
0001
0000
,  // measure 12
0001
0010
0001
0000
,  // measure 13
1000
1000
1000
0000
,  // measure 14
0001
0001
0001
0000
,  // measure 15
1001
0000
1000
0000
,  // measure 16
1000
0010
1000
0000
,  // measure 17
0010
0010
0100
0000
,  // measure 18
0100
0100
0010
0000
,  // measure 19
1001
0000
1000
0100
,  // measure 20
1000
0000
0001
0100
,  // measure 21
0001
0001
0001
0000
,  // measure 22
1000
1000
1000
0000
,  // measure 23
1001
0000
0001
0010
,  // measure 24
0001
0000
1000
0010
,  // measure 25
1000
1000
0001
0000
,  // measure 26
0001
1000
0001
0000
,  // measure 27
0002
0000
0003
0020
,  // measure 28
0000
0030
0002
0003
,  // measure 29
2000
0000
3000
0020
,  // measure 30
0000
0030
2000
3000
,  // measure 31
0002
0000
0003
0020
,  // measure 32
0000
0030
0002
0003
,  // measure 33
0200
0000
0000
0000
,  // measure 34
0000
0000
0300
0000
,  // measure 35
1001
0000
0000
0000
,  // measure 36
1001
0000
0000
0000
,  // measure 37
1001
0000
1001
0000
,  // measure 38
1001
1001
1001
0000
,  // measure 39
0001
0000
0010
0000
,  // measure 40
0100
0000
1000
0000
,  // measure 41
0001
0000
0100
0000
,  // measure 42
0010
0000
1000
0000
,  // measure 43
0001
0001
1000
1000
,  // measure 44
0001
1000
0001
1000
,  // measure 45
1001
0000
0200
0000
,  // measure 46
0000
0300
0000
1001
,  // measure 47
0002
0003
0010
0000
,  // measure 48
1000
0000
0010
0000
,  // measure 49
0001
0001
0100
0000
,  // measure 50
1000
0000
0100
0000
,  // measure 51
0002
0003
1000
0000
,  // measure 52
0100
0000
0010
0000
,  // measure 53
0001
0001
1000
1000
,  // measure 54
0001
1000
0000
1001
,  // measure 55
2000
3000
0010
0000
,  // measure 56
1000
0000
0100
0010
,  // measure 57
0100
0000
0010
0000
,  // measure 58
0001
0000
0100
0010
,  // measure 59
0100
0000
0010
0000
,  // measure 60
1000
0000
0100
0010
,  // measure 61
0200
0000
0300
0000
,  // measure 62
0100
0010
0100
1001
,  // measure 63
0002
0000
0100
0000
,  // measure 64
0103
0000
0010
0010
,  // measure 65
2000
0000
0010
0000
,  // measure 66
3010
0000
1000
0001
,  // measure 67
2000
0000
0100
0000
,  // measure 68
3100
0000
0010
0010
,  // measure 69
0002
0000
0013
0000
,  // measure 70
0001
1000
0001
0000
,  // measure 71
0200
0000
0001
0000
,  // measure 72
0301
0000
1000
1000
,  // measure 73
0200
0000
1000
0000
,  // measure 74
1300
0000
0001
0001
,  // measure 75
0200
0000
0310
0000
,  // measure 76
0020
0000
0130
0000
,  // measure 77
1001
0000
0200
0000
,  // measure 78
0000
0000
0000
0000
,  // measure 79
0000
0000
0000
0300
0000
0000
0000
0000
,  // measure 80
2000
0000
0000
3000
0000
0000
0002
0000
,  // measure 81
0000
0003
0000
0000
1001
0000
0000
0000
,  // measure 82
0002
0000
0000
0003
0000
0000
2000
0000
,  // measure 83
0000
3000
0000
0000
0001
0000
0001
0000
,  // measure 84
2000
0000
0000
3000
0000
0000
0002
0000
,  // measure 85
0000
0003
0000
0000
1000
0000
0001
0000
,  // measure 86
2000
0000
0000
0000
,  // measure 87
3000
0000
0000
0000
,  // measure 88
0010
0100
0010
0100
,  // measure 89
0010
0000
0000
0000
;
