#VERSION:0.83;
#TITLE:8bit Princess;
#SUBTITLE:;
#ARTIST:seiya-murai feat. ALT;
#TITLETRANSLIT:;
#SUBTITLETRANSLIT:;
#ARTISTTRANSLIT:;
#GENRE:Chip Pop;
#ORIGIN:;
#CREDIT:;
#BANNER:8bit Princess.png;
#BACKGROUND:8bit Princess-bg.png;
#PREVIEWVID:;
#JACKET:8bit Princess-jacket.png;
#CDIMAGE:;
#DISCIMAGE:;
#LYRICSPATH:;
#CDTITLE:cdtitle.png;
#MUSIC:8bit Princess.ogg;
#OFFSET:-0.153415;
#SAMPLESTART:76.957413;
#SAMPLELENGTH:12.800003;
#SELECTABLE:YES;
#BPMS:0.000=150.000,
92.000=75.000,
94.000=150.000,
158.000=75.000,
174.000=150.000;
#STOPS:;
#DELAYS:;
#WARPS:;
#TIMESIGNATURES:0.000=4=4;
#TICKCOUNTS:0.000=4;
#COMBOS:0.000=1;
#SPEEDS:0.000=1.000=0.000=0;
#SCROLLS:0.000=1.000;
#FAKES:;
#LABELS:0.000=Song Start;
#BGCHANGES:;
#KEYSOUNDS:;
#ATTACKS:
;

//---------------dance-single - ----------------
#NOTEDATA:;
#CHARTNAME:;
#STEPSTYPE:dance-single;
#DESCRIPTION:;
#CHARTSTYLE:;
#DIFFICULTY:Challenge;
#METER:11;
#RADARVALUES:0.574170,0.719742,0.190208,0.305987,0.119914,486.000000,463.000000,23.000000,37.000000,6.000000,0.000000,0.000000,0.000000,0.000000,0.574170,0.719742,0.190208,0.305987,0.119914,486.000000,463.000000,23.000000,37.000000,6.000000,0.000000,0.000000,0.000000,0.000000;
#CREDIT:;
#OFFSET:-0.153415;
#BPMS:0.000000=150.000000
,92.000000=75.000000
,94.000000=150.000000
,158.000000=75.000000
,174.000000=150.000000
;
#STOPS:;
#DELAYS:;
#WARPS:;
#TIMESIGNATURES:0.000000=4=4
;
#TICKCOUNTS:0.000000=4
;
#COMBOS:0.000000=1
;
#SPEEDS:0.000000=1.000000=0.000000=0
;
#SCROLLS:0.000000=1.000000
,93.500000=2.000000
,94.000000=1.000000
;
#FAKES:;
#LABELS:0.000000=Song Start
;
#NOTES:
0000
0000
0000
0000
,
0000
0000
0000
0000
,
0000
0000
0000
0000
,
0000
0000
0000
0000
,
0001
0010
0001
0000
1100
0000
0101
0000
,
1000
0010
1000
0000
0101
0000
1100
0000
,
0001
0100
0001
0000
1010
0000
0011
0000
,
1000
0100
1000
0000
0010
0010
0010
0000
,
1000
0001
0010
0000
1100
0000
0011
0000
,
0001
1000
0010
0000
0101
0000
1010
0000
,
1000
0100
0010
0000
0110
0000
1001
0000
,
0001
0100
0010
0000
1000
1000
1000
0000
,
0001
0010
0001
1000
0001
0100
0001
1000
,
0100
0010
0100
1000
0002
0000
0203
0000
,
0310
1000
0001
1000
0100
1000
0001
1000
,
0010
0010
0100
0001
2000
0000
3200
0000
,
1300
0001
1000
0010
1000
0001
1000
0100
,
0010
0001
0100
0010
1000
0001
1000
0100
,
0000
0010
0001
1000
0001
0100
0001
1000
,
0100
0010
0100
0010
0100
0000
0000
0000
1000
0000
1000
0000
0001
0000
1000
0000
,
0001
0010
0001
0000
1100
0000
1010
0000
,
0001
0100
0001
0000
1010
0000
0011
0000
,
1000
0010
1000
0000
0101
0000
0011
0000
,
2000
0000
3001
0002
0000
1003
M00M
0000
1000
0000
0100
0000
0010
0000
0100
0000
,
0001
0100
0010
0100
1000
0010
0100
0001
,
2000
0000
3200
0000
0310
0001
1000
0001
,
0100
1000
0100
0001
0010
0100
0010
0100
,
0010
0100
0010
0100
1000
0010
0100
0010
,
0001
0010
0100
0010
1000
0001
0010
0100
,
1000
0001
0100
0010
0000
1000
0001
1000
,
0100
0001
0100
1000
0001
0100
0010
0100
,
0002
1003
1200
0320
,
0032
0000
0013
0100
1000
0001
1000
0020
,
0000
0100
0130
0000
0001
0100
0001
0100
,
0020
0000
1030
0100
0020
0000
0031
0200
,
0000
1300
0200
0000
0301
0000
0021
0000
,
0230
0000
2300
0000
3001
0100
0010
2000
,
0000
0001
3001
0000
1000
0100
1000
0100
,
0020
0000
0031
0100
0010
0010
1000
0200
,
0000
0000
0301
0000
0200
0000
0000
0000
1300
0010
1000
0010
1000
0000
0000
1000
,
0001
0010
0001
0010
0001
0000
0000
0001
1000
0100
1000
0100
1000
0001
1000
0001
,
0100
0000
0000
0100
0010
0000
0000
0010
1000
0001
0010
0100
0010
0000
0000
0010
,
0001
1000
0010
0100
0010
0000
0000
0010
1000
0100
0010
0001
1000
0100
0010
0001
,
0200
0000
0020
0330
1000
1000
0010
0010
,
1000
1000
0001
0002
0000
1003
0100
0010
,
0001
0100
0010
1000
0001
0001
0010
0010
,
0001
0001
1000
2000
0000
3001
0100
0010
,
0100
1000
0100
0010
0100
0100
0001
0001
,
1000
1000
0100
0200
0000
0310
0001
0100
,
0010
0100
0001
0010
0100
0100
1000
1000
,
0001
0001
0100
0200
0000
0310
0100
0001
,
1000
0000
1001
0000
0001
0001
0010
0010
,
0001
0001
0100
0200
0000
0301
0100
0010
,
1000
0100
0010
0001
1000
1000
0010
0010
,
1000
1000
0100
0200
0000
1300
0100
0010
,
0100
0001
0100
0010
0100
0100
1000
1000
,
0010
0010
0100
0200
0000
0301
1000
0100
,
0010
0100
1000
0010
0100
0100
0001
0001
,
0010
0010
0100
0200
0000
0310
0001
0100
,
0020
0000
2030
0000
3001
0010
0100
1000
,
0001
0010
0100
1000
0001
0100
0010
1000
,
0001
0100
0010
1000
0100
0010
0001
1000
,
0100
0010
0001
0100
0010
0000
0100
0010
,
0100
0010
0100
0010
1000
0100
0010
0001
,
0100
0001
0010
0100
1000
0100
0010
0001
,
0100
0001
0010
0100
1000
0010
0100
0001
,
0010
0001
0100
0010
1000
0010
0100
0001
,
0010
0100
2000
0000
3001
0010
0001
0000
,
1001
0000
1001
0000
1000
0010
1000
0000
,
0001
0000
0000
0000
0000
0000
0001
0000
0000
0000
0000
0000
0001
0000
0000
0000
0000
0000
0001
0000
0000
1000
0000
0000
00M0
0000
0M00
0000
000M
0000
M000
0000
0000
0000
0000
0000
0000
0000
0000
0000
0000
0000
0000
0000
0000
0000
0000
0000
;

//---------------dance-single - ----------------
#NOTEDATA:;
#CHARTNAME:;
#STEPSTYPE:dance-single;
#DESCRIPTION:;
#CHARTSTYLE:;
#DIFFICULTY:Hard;
#METER:10;
#RADARVALUES:0.499740,0.460635,0.248098,0.248098,0.008270,423.000000,393.000000,30.000000,30.000000,6.000000,0.000000,0.000000,0.000000,0.000000,0.499740,0.460635,0.248098,0.248098,0.008270,423.000000,393.000000,30.000000,30.000000,6.000000,0.000000,0.000000,0.000000,0.000000;
#CREDIT:;
#OFFSET:-0.153415;
#BPMS:0.000000=150.000000
,92.000000=75.000000
,94.000000=150.000000
,158.000000=75.000000
,174.000000=150.000000
;
#STOPS:;
#DELAYS:;
#WARPS:;
#TIMESIGNATURES:0.000000=4=4
;
#TICKCOUNTS:0.000000=4
;
#COMBOS:0.000000=1
;
#SPEEDS:0.000000=1.000000=0.000000=0
;
#SCROLLS:0.000000=1.000000
,93.500000=2.000000
,94.000000=1.000000
;
#FAKES:;
#LABELS:0.000000=Song Start
;
#NOTES:
0000
0000
0000
0000
,
0000
0000
0000
0000
,
0000
0000
0000
0000
,
0000
0000
0000
0000
,
0001
0010
0001
0000
1100
0000
1100
0000
,
1000
0010
1000
0000
0101
0000
0101
0000
,
0001
0010
0001
0000
1100
0000
1100
0000
,
1000
0010
1000
0000
0001
0010
0001
0000
,
1000
0100
1000
0000
0011
0000
1100
0000
,
0001
0100
0001
0000
1010
0000
0101
0000
,
1000
0100
1000
0000
0011
0000
1100
0000
,
0001
0100
0001
0000
1000
0100
1000
0000
,
0000
0001
0100
0001
0100
0001
0100
0001
,
1000
0010
1000
0001
2000
0000
0200
3000
,
0300
1000
0100
1000
0100
1000
0100
1000
,
0001
0010
0001
1000
0002
0000
0200
0003
,
0300
0010
1000
0010
1000
0010
1000
0010
,
0100
0001
1000
0100
1000
0001
0010
0001
,
0000
0010
0100
0010
0100
0010
0001
1000
,
0010
0100
0010
0100
0020
0000
2030
0000
,
3001
0010
0001
0000
0110
0000
0110
0000
,
1000
0010
1000
0000
0110
0000
0110
0000
,
0001
0010
0001
0000
0110
0000
0110
0000
,
2002
0000
0000
0000
0000
3003
M00M
0000
0000
0000
1000
0000
0010
0000
1000
0000
,
0010
1000
0010
1000
0001
0010
0100
1000
,
0020
0000
2000
0030
3000
0001
0010
0001
,
0010
0001
0010
0001
0100
0000
0110
0000
,
1001
0000
0110
0000
0000
0001
0100
0001
,
0100
0001
0100
0001
1000
0100
1000
0001
,
0100
0001
0010
0100
0000
1000
0100
1000
,
0100
1000
0100
1000
0001
0100
0010
1000
,
0002
2003
3200
0001
,
0010
0000
1300
0000
0100
0000
0010
0001
,
0000
1000
0001
0000
0100
0000
0010
1000
,
0010
0000
1000
0001
0010
0000
0100
1000
,
0000
1000
0001
0000
0200
0000
1000
0000
,
0010
0000
0301
0000
0100
0010
1000
0001
,
0000
0001
1000
0000
0100
0000
0010
0001
,
0010
0000
0001
1000
0010
0000
0100
0001
,
0000
0001
0010
0000
0001
0100
1000
0000
,
1000
0100
0001
0000
0001
0010
1000
0100
,
0001
0000
0010
0000
0100
1000
0010
0000
,
0100
0001
0010
0000
0100
1000
0001
0100
,
0020
0000
0200
0330
1000
0010
1000
0010
,
1000
0010
1000
0002
0000
1003
0100
1000
,
0100
0010
0001
1000
0001
0100
0001
0100
,
0001
0100
0001
2000
0000
3001
0010
0001
,
1000
0010
1000
0001
1000
0100
1000
0100
,
1000
0100
1000
0002
0000
1003
0010
1000
,
0010
0100
0001
1000
0001
0010
0001
0010
,
0001
0010
0001
2000
0000
3001
0100
0010
,
1000
0000
1001
0000
0001
0010
0001
0010
,
0001
0010
0100
0020
0000
0130
1000
0001
,
1000
0100
0010
0001
1000
0010
1000
0010
,
1000
0010
0100
0020
0000
1030
0010
0100
,
0001
0010
0100
1000
0001
0100
0001
0100
,
0001
0100
0010
0200
0000
0301
1000
0010
,
0100
0010
1000
0001
1000
0100
1000
0100
,
1000
0100
0010
0200
0000
1300
0010
0100
,
0002
2003
3200
0001
,
0010
1000
2300
0100
,
0001
3010
1000
0101
,
0010
0000
1100
0000
0001
0000
1000
0010
,
0100
0001
0010
0001
0200
0000
1000
0000
,
0010
0301
0002
0100
,
1000
0013
0001
1100
,
0010
0101
0010
1001
,
1000
0100
0010
0000
0001
0010
0001
0000
,
0101
0000
1100
0000
1000
0010
1000
0000
,
1000
0000
0000
0100
0000
0000
0001
0000
0000
0100
0000
0000
000M
00M0
M000
0M00
0000
0000
0000
0000
0000
0000
0000
0000
;

//---------------dance-single - ----------------
#NOTEDATA:;
#CHARTNAME:;
#STEPSTYPE:dance-single;
#DESCRIPTION:;
#CHARTSTYLE:;
#DIFFICULTY:Medium;
#METER:8;
#RADARVALUES:0.391050,0.373258,0.099239,0.148859,0.000000,331.000000,319.000000,12.000000,18.000000,0.000000,0.000000,0.000000,0.000000,0.000000,0.391050,0.373258,0.099239,0.148859,0.000000,331.000000,319.000000,12.000000,18.000000,0.000000,0.000000,0.000000,0.000000,0.000000;
#CREDIT:;
#OFFSET:-0.153415;
#BPMS:0.000000=150.000000
,92.000000=75.000000
,94.000000=150.000000
,158.000000=75.000000
,174.000000=150.000000
;
#STOPS:;
#DELAYS:;
#WARPS:;
#TIMESIGNATURES:0.000000=4=4
;
#TICKCOUNTS:0.000000=4
;
#COMBOS:0.000000=1
;
#SPEEDS:0.000000=1.000000=0.000000=0
;
#SCROLLS:0.000000=1.000000
,93.500000=2.000000
,94.000000=1.000000
;
#FAKES:;
#LABELS:0.000000=Song Start
;
#NOTES:
0000
0000
0000
0000
,
0000
0000
0000
0000
,
0000
0000
0000
0000
,
0000
0000
0000
0000
,
0001
0010
0001
0000
1000
0000
1000
0000
,
0001
0100
0001
0000
1000
0000
1000
0000
,
0001
0010
0001
0000
1000
0000
1000
0000
,
0001
0100
0001
0000
0001
1000
0100
0000
,
1000
0010
1000
0000
0001
0000
0001
0000
,
1000
0100
1000
0000
0001
0000
0001
0000
,
1000
0010
1000
0000
0001
0000
0001
0000
,
1000
0100
1000
0000
1000
0001
0100
0000
,
0000
0001
0100
0000
0010
0000
1000
0000
,
0001
0010
0001
0010
0002
0000
0100
0000
,
0003
1000
0100
0000
0010
0000
0001
0000
,
1000
0010
1000
0010
2000
0000
0100
0000
,
3000
0001
0010
0000
0100
0000
1000
0000
,
0010
0000
0100
0000
0001
1000
0001
1000
,
0000
0100
0010
0000
0001
0000
1000
0000
,
0010
0100
0010
0000
1001
0000
0110
0000
,
1000
0010
1000
0000
0001
0000
0001
0000
,
1000
0100
1000
0000
0001
0000
1000
0000
,
0001
0010
0001
0000
1000
0000
1000
0000
,
0002
0000
0000
0003
0000
1000
0010
0000
,
0001
0000
0100
0000
1000
0010
1000
0010
,
0200
0000
0001
0000
0300
0010
1000
0000
,
0100
0010
0011
1100
,
0011
0000
1100
0000
0000
0001
0010
0000
,
1000
0100
0001
0010
,
0100
0010
0001
1000
0000
1000
0001
0000
,
0100
0000
0010
0000
1000
0010
1000
0010
,
1000
0001
2000
3100
,
0200
0000
0310
0000
0010
0000
0001
1000
,
0000
0001
1000
0000
0002
0000
0103
0000
,
2000
0000
3100
0000
0001
0000
0010
0100
,
0000
0100
1000
0000
0002
0000
0103
0000
,
0200
0000
0310
0000
0010
0000
1000
0001
,
0000
1000
0001
0000
2000
0000
3100
0000
,
0002
0000
0103
0000
1000
0000
0001
0100
,
0000
0100
0010
0000
1000
1000
1000
0000
,
0001
0001
0001
0000
0010
0010
0100
0100
,
1000
0000
0001
0000
1000
1000
0010
0000
,
0001
0001
0010
0000
1000
1000
0001
0001
,
0010
0100
1000
1000
,
1000
0000
0010
0001
0000
0001
0010
0000
,
1000
0010
1000
0000
0001
0000
0001
0000
,
0001
0000
0010
1000
0000
1000
0010
0000
,
0001
1000
0001
0000
0100
0000
0100
0000
,
0100
0000
1000
0100
0000
0100
0001
0000
,
1000
0100
1000
0000
0100
0000
0100
0000
,
0100
0000
0001
0100
0000
0100
1000
0000
,
0101
0101
1000
0010
,
1000
0000
0100
0001
0000
0001
0100
0000
,
1000
0010
1000
0000
0001
0000
0010
0000
,
0001
0000
0100
1000
0000
1000
0100
0000
,
0001
1000
0001
0000
0010
0000
0100
0000
,
0010
0000
1000
0010
0000
0010
0001
0000
,
1000
0100
1000
0000
0010
0000
0100
0000
,
0010
0000
0001
0010
0000
0010
1000
0000
,
1100
0110
0012
0100
,
1000
0010
2003
0100
,
0001
3010
1000
0100
,
1000
0100
0010
0001
,
0100
0001
0100
0000
2010
0000
0010
0000
,
0001
0100
3002
0010
,
1000
0103
0001
0001
,
1000
0000
1000
0000
0001
0000
0010
0100
,
0010
0100
0010
0000
0001
0100
0001
0000
,
1000
0000
1000
0000
0001
0010
0001
0000
,
1000
0000
0020
0000
2000
0000
0030
3000
0000
0000
0000
0000
0000
0000
0000
0000
;

//---------------dance-single - ----------------
#NOTEDATA:;
#CHARTNAME:;
#STEPSTYPE:dance-single;
#DESCRIPTION:;
#CHARTSTYLE:;
#DIFFICULTY:Easy;
#METER:5;
#RADARVALUES:0.270545,0.286346,0.041350,0.281178,0.000000,229.000000,224.000000,5.000000,34.000000,0.000000,0.000000,0.000000,0.000000,0.000000,0.270545,0.286346,0.041350,0.281178,0.000000,229.000000,224.000000,5.000000,34.000000,0.000000,0.000000,0.000000,0.000000,0.000000;
#CREDIT:;
#OFFSET:-0.153415;
#BPMS:0.000000=150.000000
,92.000000=75.000000
,94.000000=150.000000
,158.000000=75.000000
,174.000000=150.000000
;
#STOPS:;
#DELAYS:;
#WARPS:;
#TIMESIGNATURES:0.000000=4=4
;
#TICKCOUNTS:0.000000=4
;
#COMBOS:0.000000=1
;
#SPEEDS:0.000000=1.000000=0.000000=0
;
#SCROLLS:0.000000=1.000000
,93.500000=2.000000
,94.000000=1.000000
;
#FAKES:;
#LABELS:0.000000=Song Start
;
#NOTES:
0000
0000
0000
0000
,
0000
0000
0000
0000
,
0000
0000
0000
0000
,
0000
0000
0000
0000
,
1000
0010
1000
1000
,
0001
0010
0001
0001
,
1000
0010
1000
1000
,
0001
0010
0100
1000
,
0001
0100
0001
0001
,
1000
0100
1000
1000
,
0001
0100
0001
0001
,
2000
0000
0001
3001
,
0000
1000
1000
0100
,
0010
0001
0200
0002
,
0303
0001
0001
0100
,
0010
1000
0200
2000
,
3300
1000
1000
0010
,
1000
0001
0010
0100
,
0000
0100
0100
0010
,
0001
0100
0010
1000
,
0001
0010
0001
0001
,
1000
0100
1000
1000
,
0010
1000
0010
0010
,
0200
0000
0000
0300
0000
0000
0001
0000
,
0001
0010
1000
0010
,
0002
0200
0303
1000
,
1000
0010
1000
0100
,
1000
0100
0000
1000
,
1000
0010
0001
0010
,
1000
0100
0000
0100
,
0100
0010
0001
0100
,
0010
1000
0001
0001
,
0010
0000
0001
0010
,
0100
1000
0001
0001
,
0100
0000
0010
1000
,
1000
0001
1000
1000
,
0010
0000
1000
0010
,
0100
0001
1000
1000
,
0100
0000
0010
0001
,
0001
1000
0002
0103
,
2000
3100
0002
0023
,
0230
2300
3020
1030
,
0200
0301
0010
1000
,
2002
3003
1000
0100
,
0010
0200
0300
0100
,
0100
1000
0001
0100
,
0010
0200
0300
0100
,
0001
0001
1000
0010
,
1000
0200
0300
0100
,
0100
1000
0001
0010
,
0001
0200
0300
0010
,
1000
0001
1000
0100
,
0001
0200
0300
0100
,
1000
1000
0001
0100
,
1000
0200
0300
0100
,
0001
0001
1000
0010
,
0001
0020
0030
0010
,
1000
1000
0001
0010
,
1000
0020
0030
0010
,
0001
1000
0020
0100
,
0000
0200
0300
1000
,
0000
1030
0000
1010
,
0000
0202
0303
0001
,
1000
0100
0020
0100
,
0000
0200
0300
0001
,
0000
0031
0000
0011
,
0000
2200
3300
0001
,
1000
0001
0100
0000
,
0100
0000
0100
0000
,
0010
0010
0000
0000
;

//---------------dance-single - ----------------
#NOTEDATA:;
#CHARTNAME:;
#STEPSTYPE:dance-single;
#DESCRIPTION:;
#CHARTSTYLE:;
#DIFFICULTY:Beginner;
#METER:2;
#RADARVALUES:0.166580,0.182972,0.000000,0.082699,0.000000,141.000000,141.000000,0.000000,10.000000,0.000000,0.000000,0.000000,0.000000,0.000000,0.166580,0.182972,0.000000,0.082699,0.000000,141.000000,141.000000,0.000000,10.000000,0.000000,0.000000,0.000000,0.000000,0.000000;
#CREDIT:;
#OFFSET:-0.153415;
#BPMS:0.000000=150.000000
;
#STOPS:;
#DELAYS:;
#WARPS:;
#TIMESIGNATURES:0.000000=4=4
;
#TICKCOUNTS:0.000000=4
;
#COMBOS:0.000000=1
;
#SPEEDS:0.000000=1.000000=0.000000=0
;
#SCROLLS:0.000000=1.000000
;
#FAKES:;
#LABELS:0.000000=Song Start
;
#NOTES:
// measure 0
0000
0000
0000
0000
,  // measure 1
0000
0000
0000
0000
,  // measure 2
0000
0000
0000
0000
,  // measure 3
0000
0000
0000
0000
,  // measure 4
1000
0000
1000
0000
,  // measure 5
0001
0000
0001
0000
,  // measure 6
1000
0000
1000
0000
,  // measure 7
0001
0000
1000
0000
,  // measure 8
0001
0000
0001
0000
,  // measure 9
1000
0000
1000
0000
,  // measure 10
0001
0000
0001
0000
,  // measure 11
2000
0000
3000
0000
,  // measure 12
1000
0000
1000
0000
,  // measure 13
0100
0100
0100
0000
,  // measure 14
1000
0000
0010
0000
,  // measure 15
1000
1000
1000
0000
,  // measure 16
0001
0000
0001
0000
,  // measure 17
0100
0100
0100
0000
,  // measure 18
0001
0000
0010
0000
,  // measure 19
0001
0001
0001
0000
,  // measure 20
1000
0000
1000
0000
,  // measure 21
0001
0000
0001
0000
,  // measure 22
1000
0000
1000
0000
,  // measure 23
0001
0000
0000
0000
,  // measure 24
0001
0000
0001
0000
,  // measure 25
0010
0010
0010
0000
,  // measure 26
0001
0000
0100
0000
,  // measure 27
0010
0010
0010
0000
,  // measure 28
1000
0000
1000
0000
,  // measure 29
0100
0100
0100
0000
,  // measure 30
1000
0000
0001
0000
,  // measure 31
0200
0000
0300
0000
,  // measure 32
0010
0000
0010
0000
,  // measure 33
1000
0000
0001
0000
,  // measure 34
0010
0000
0010
0000
,  // measure 35
0001
0000
1000
0000
,  // measure 36
0100
0000
0100
0000
,  // measure 37
1000
0000
0001
0000
,  // measure 38
0100
0000
0100
0000
,  // measure 39
0010
0000
1000
0000
,  // measure 40
0002
0000
0003
0000
,  // measure 41
0020
0000
0030
0000
,  // measure 42
0100
0000
0100
0000
,  // measure 43
0200
0000
0300
0000
,  // measure 44
2000
0000
3000
0000
,  // measure 45
0002
0000
0003
0000
,  // measure 46
0100
0000
0010
0000
,  // measure 47
2000
0000
3000
0000
,  // measure 48
0001
0001
0001
0000
,  // measure 49
0010
0000
0010
0000
,  // measure 50
1000
1000
1000
0000
,  // measure 51
0100
0000
0100
0000
,  // measure 52
0001
0001
0001
0000
,  // measure 53
0010
0000
0001
0000
,  // measure 54
1000
1000
1000
0000
,  // measure 55
0010
0000
0010
0000
,  // measure 56
1000
1000
1000
0000
,  // measure 57
0100
0000
0100
0000
,  // measure 58
0001
0001
0001
0000
,  // measure 59
0010
0000
0010
0000
,  // measure 60
1000
1000
1000
0000
,  // measure 61
0100
0000
0010
0000
,  // measure 62
0001
0001
0001
0000
,  // measure 63
0100
0000
0010
0000
,  // measure 64
2000
0000
0000
0000
,  // measure 65
0000
0000
3000
0000
,  // measure 66
1000
0000
1000
0000
,  // measure 67
0010
0000
0100
0000
,  // measure 68
0002
0000
0000
0000
,  // measure 69
0000
0000
0003
0000
,  // measure 70
0001
0000
0001
0000
,  // measure 71
0010
0000
0100
0000
,  // measure 72
1000
0000
1000
0000
,  // measure 73
0001
0000
0001
0001
;
