#VERSION:0.83;
#TITLE:7 Colors;
#SUBTITLE:;
#ARTIST:kors k feat. 吉河順央;
#TITLETRANSLIT:;
#SUBTITLETRANSLIT:;
#ARTISTTRANSLIT:kors k feat. Sunao Yoshikawa;
#GENRE:Eurobeat;
#ORIGIN:;
#CREDIT:;
#BANNER:7 Colors.png;
#BACKGROUND:7 Colors-bg.png;
#PREVIEWVID:;
#JACKET:7 Colors-jacket.png;
#CDIMAGE:;
#DISCIMAGE:;
#LYRICSPATH:;
#CDTITLE:cdtitle.png;
#MUSIC:7 Colors.ogg;
#OFFSET:-0.045548;
#SAMPLESTART:51.907784;
#SAMPLELENGTH:12.307697;
#SELECTABLE:YES;
#BPMS:0.000=156.000;
#STOPS:132.000=1.154;
#DELAYS:;
#WARPS:;
#TIMESIGNATURES:0.000=4=4;
#TICKCOUNTS:0.000=4;
#COMBOS:0.000=1;
#SPEEDS:0.000=1.000=0.000=0;
#SCROLLS:0.000=1.000;
#FAKES:;
#LABELS:0.000=Song Start;
#BGCHANGES:;
#KEYSOUNDS:;
#ATTACKS:
;

//---------------dance-single - ----------------
#NOTEDATA:;
#CHARTNAME:;
#STEPSTYPE:dance-single;
#DESCRIPTION:;
#CHARTSTYLE:;
#DIFFICULTY:Challenge;
#METER:15;
#RADARVALUES:0.814050,0.829546,0.361163,0.160517,0.752423,568.000000,532.000000,36.000000,16.000000,0.000000,0.000000,0.000000,0.000000,0.000000,0.814050,0.829546,0.361163,0.160517,0.752423,568.000000,532.000000,36.000000,16.000000,0.000000,0.000000,0.000000,0.000000,0.000000;
#CREDIT:;
#OFFSET:-0.045548;
#BPMS:0.000000=156.000000
;
#STOPS:132.000000=1.153845
;
#DELAYS:;
#WARPS:;
#TIMESIGNATURES:0.000000=4=4
;
#TICKCOUNTS:0.000000=4
;
#COMBOS:0.000000=1
;
#SPEEDS:0.000000=1.000000=0.000000=0
;
#SCROLLS:0.000000=1.000000
;
#FAKES:;
#LABELS:0.000000=Song Start
;
#NOTES:
0000
0000
0000
0000
,
0000
0000
0000
0000
,
0000
0000
0000
0000
,
0000
0000
0000
0000
,
0000
0000
0000
0000
0000
0000
0000
0100
,
1001
0100
1000
0010
,
1001
0000
0000
0000
0100
0000
0000
0000
0001
0000
0000
0000
0010
0100
0010
0100
,
0020
0001
1000
0130
,
0011
0000
0000
1100
0000
0000
0022
0000
0000
0000
0000
0000
0033
0000
0000
0000
,
1000
0000
0010
0100
0000
0100
0001
0000
1000
0100
0000
0100
0010
0000
0001
0000
,
1000
0010
1000
0010
1000
0000
0001
0010
0001
0000
0100
0010
0000
0010
1000
0000
,
0001
0000
1000
0100
0000
0010
0001
0000
0100
0001
0000
1000
0100
0000
0010
0000
,
0001
0010
0100
1000
0001
0000
0100
0000
0210
0000
0000
0000
0301
0100
0010
1000
,
0001
0000
0010
0100
0000
0100
1000
0000
0001
0100
0000
0100
0010
0000
1000
0000
,
0001
0010
0001
0010
0001
0000
1000
0010
1000
0000
0100
0010
0000
0010
0001
0000
,
1000
0000
0010
0100
0000
0001
1000
0000
0100
0010
0000
0001
1000
0000
0010
0000
,
1000
0010
0100
0001
0010
0000
0001
0010
0100
1000
0010
0000
0100
0000
0001
0000
,
1000
0100
1000
0100
0010
0100
0010
0100
,
1000
0000
0100
0000
1000
0000
0001
0100
0010
0000
1000
0100
0000
0100
0010
0000
,
0001
0100
0001
0100
0010
0100
0010
0100
,
0001
0000
1000
0010
1000
0000
0001
0010
0001
0000
1000
0010
0100
0000
0001
0000
,
1000
0000
0100
0000
0010
0000
0100
0000
0010
0000
0100
0000
1000
0100
0010
0001
,
1000
0010
1000
0010
0100
0000
0010
0000
0100
0000
0010
0000
0100
0001
1000
0100
,
0010
0000
0100
0000
0010
0000
0100
1000
0001
0000
1000
0010
0100
0001
0010
0100
,
1000
0000
1000
0000
0010
0000
1001
0000
0000
0000
1001
0000
0010
0000
0001
1000
,
0001
0100
0001
0101
1000
1010
1000
0102
,
0000
0000
1003
0000
0001
0010
0100
1000
0010
0000
0100
0000
0001
0000
1000
0000
,
0100
1000
0010
1010
1000
1001
0001
0021
,
0000
0000
1030
0000
0010
0000
0001
0000
0100
0000
0010
1000
0001
0010
0001
1000
,
0010
0000
1000
0000
0010
1000
0100
0000
2100
0000
3001
0000
2100
0000
3001
0000
,
0010
0000
0001
0000
0010
0001
0100
0000
0102
0000
1003
0000
0102
0000
1003
0000
,
0001
0010
0100
1100
0000
0101
0000
2100
,
0000
0000
3001
0100
0010
0100
0010
0100
0001
1000
0001
1000
0001
0010
0100
1000
,
0001
0000
0000
0000
1001
0000
0000
0000
1000
0000
1000
0100
0001
0000
0100
0000
,
1000
0000
0010
0000
0100
0000
0001
0000
1000
0000
1000
0100
0010
0000
0001
0000
,
0101
0000
1000
0000
1100
0000
0000
0000
0100
1000
0100
1000
0010
0000
0100
0000
,
0010
1000
0100
0010
0100
0000
0010
0000
0001
0000
0100
0010
1000
0000
0001
0010
,
0100
1000
0100
0010
0001
0000
0000
0000
0001
0000
0001
0100
1000
0000
0100
0000
,
0001
0000
0010
0000
0001
0000
1000
0000
0010
1000
0001
1000
0001
1000
0100
0000
,
0011
0000
1000
0000
1010
0000
0010
0000
0100
0000
0010
0100
0000
0100
0001
0000
,
1000
0100
0010
0001
1000
0000
0000
0000
0011
0000
0000
0000
1010
0000
0001
0010
,
0001
1000
0010
1000
0001
0000
0000
0000
0001
0000
0001
0010
1000
0000
0010
0000
,
0001
0000
0100
0000
1000
0000
0100
0000
0001
0000
0001
0010
0100
0000
1000
0000
,
1100
0000
0001
0000
0101
0000
0000
0000
0100
0001
0100
0001
0010
0000
0100
0000
,
0010
0001
0100
0010
0100
0000
0010
0000
1000
0000
0100
0010
0001
0000
1000
0010
,
0100
0001
0100
0010
1000
0000
0000
0000
1000
0000
1000
0010
0001
0000
0010
0000
,
1000
0000
0100
0000
0001
0000
0100
0000
1000
0010
0100
0010
0100
0010
1000
0000
,
1010
0000
0001
0000
0011
0000
0010
0000
0100
0000
0010
0100
0000
0100
1000
0001
,
0100
0001
1000
0100
0010
0000
0011
0000
0000
0000
2020
0000
0000
0000
3030
0000
,
1000
0000
0010
0000
1001
0000
0000
1000
0001
0000
0000
0001
1000
0000
0000
1000
,
0001
0000
0000
0001
1000
0000
0001
0000
1000
0000
0001
0000
1000
0001
1000
0001
,
1000
0000
0000
0000
0001
0000
0010
0001
0000
0001
0100
0000
0010
1000
0000
1000
,
0100
0000
0010
0000
0100
1000
0100
1000
0001
0000
1000
0010
0100
0000
0010
1000
,
0000
1000
0001
0000
0010
0000
0100
0010
0000
0001
1000
0000
0010
0100
0000
0001
,
1000
0000
0100
0000
0010
0001
0100
0010
1000
0000
0001
0000
1002
0000
0000
0000
,
1003
0100
0010
0001
1000
0000
0010
1000
0000
1000
0100
0000
0010
0001
0000
0001
,
0100
0000
0010
0000
0100
0001
0100
0001
1000
0000
0001
0010
0100
0000
0010
0001
,
0000
0001
1000
0000
0010
0000
0100
0010
0000
1000
0001
0000
0010
0100
0000
1000
,
0001
0000
0100
0000
0001
0010
0100
1000
0010
0000
1000
0010
0100
0001
0010
0000
,
0100
1000
0020
0000
0100
0000
0100
0000
,
0130
0000
0010
0100
0010
0000
1000
0000
0100
0000
0001
0000
0100
0000
1000
0010
,
0200
0300
0000
0000
;

//---------------dance-single - ----------------
#NOTEDATA:;
#CHARTNAME:;
#STEPSTYPE:dance-single;
#DESCRIPTION:;
#CHARTSTYLE:;
#DIFFICULTY:Hard;
#METER:12;
#RADARVALUES:0.573274,0.553031,0.481551,0.311001,0.200646,400.000000,352.000000,48.000000,31.000000,0.000000,0.000000,0.000000,0.000000,0.000000,0.573274,0.553031,0.481551,0.311001,0.200646,400.000000,352.000000,48.000000,31.000000,0.000000,0.000000,0.000000,0.000000,0.000000;
#CREDIT:;
#OFFSET:-0.045548;
#BPMS:0.000000=156.000000
;
#STOPS:132.000000=1.153845
;
#DELAYS:;
#WARPS:;
#TIMESIGNATURES:0.000000=4=4
;
#TICKCOUNTS:0.000000=4
;
#COMBOS:0.000000=1
;
#SPEEDS:0.000000=1.000000=0.000000=0
;
#SCROLLS:0.000000=1.000000
;
#FAKES:;
#LABELS:0.000000=Song Start
;
#NOTES:
0000
0000
0000
0000
,
0000
0000
0000
0000
,
0000
0000
0000
0000
,
0000
0000
0000
0000
,
0000
0000
0000
0000
,
1001
0100
0100
0100
,
1001
0000
0010
0000
0010
0000
0100
0010
,
1001
0100
0010
0100
,
1001
0000
0000
1001
0000
0000
2002
0000
0000
0000
0000
0000
3003
0000
0000
0000
,
1000
0000
0000
1000
0000
0000
0100
0000
0000
0100
0000
0000
0010
0000
0100
0000
,
1000
0000
0001
0000
0100
0000
0000
0000
0101
0000
0000
0110
0000
0000
0101
0000
,
1000
0000
0000
0100
0000
0000
0010
0000
0000
0001
0000
0000
0100
0000
0010
0000
,
1000
0100
0001
0100
2000
0000
3100
0010
,
0001
0000
0000
0001
0000
0000
0100
0000
0000
0100
0000
0000
0010
0000
0100
0000
,
0001
0000
1000
0000
0100
0000
0000
0000
1100
0000
0000
0110
0000
0000
1100
0000
,
0001
0000
0000
0100
0000
0000
0010
0000
0000
1000
0000
0000
0100
0000
0010
0000
,
0012
0003
1000
2010
3000
0010
1000
0100
,
0010
0000
0001
0000
0010
0000
0001
0020
0000
0000
0100
0000
0130
0000
1000
0000
,
0010
0000
1000
0000
0010
0000
1000
0020
0000
0000
0100
0000
0130
0000
0001
0000
,
1000
0000
0001
0000
1000
0000
0100
0020
0000
0000
0031
0000
0100
0000
0020
0000
,
0000
1030
0010
1000
0100
0010
0100
1000
,
0001
0000
0100
0000
0001
0000
0100
0002
0000
0000
0010
0000
0013
0000
0100
0000
,
1000
0000
0100
0000
1000
0000
0100
2000
0000
0000
0010
0000
3010
0000
0100
0000
,
0001
1000
0100
1000
0001
0100
0010
1000
,
1001
0000
0100
1001
0000
1001
0000
0001
,
1001
0000
0001
0010
0000
1100
0000
0021
,
0000
0100
0130
1000
0010
0001
0010
1000
,
0100
0000
0010
0001
0000
0101
0000
1020
,
0000
0130
0001
0010
1000
0010
0001
0100
,
0010
1000
0010
1000
0100
0000
1000
0100
,
0010
0000
0001
0000
0010
0000
0001
0100
0000
0000
0001
0000
0100
0000
0010
0000
,
1000
0000
1000
0100
0000
0110
0000
1002
,
0000
1000
1000
1003
,
0110
0000
0000
0000
1001
0000
0000
0000
0001
0000
0001
0200
0000
0000
0310
0000
,
1000
0000
0001
0000
0010
0000
0100
0000
0010
0000
0100
0020
0000
0000
0130
0000
,
1000
0000
0001
0000
0101
0000
0000
0000
0100
0000
0010
2000
0000
0000
3010
0000
,
0100
0001
1000
0100
0010
0001
0100
0000
,
0010
0000
1000
0000
1001
0000
0000
0000
0001
0000
0001
0020
0000
0000
0130
0000
,
0010
0001
0100
1000
0100
0001
0010
0000
,
0011
2100
0001
3001
,
1000
0000
0010
0000
1010
0000
0000
0001
0000
0000
0102
0000
0000
0000
0103
0000
,
0010
0000
1000
0000
1001
0000
0000
0000
1000
0100
0000
0200
0000
0000
0310
0000
,
0001
0000
1000
0000
0010
0000
0100
0000
0010
0000
0100
0020
0000
0000
0130
0000
,
0001
0000
1000
0000
1100
0000
0000
0000
0100
0000
0010
0002
0000
0000
0013
0000
,
0100
0000
1000
0000
0001
0000
0100
0000
0010
0000
1000
0100
0000
0000
0100
0000
,
0010
0000
0001
0000
1001
0000
0000
0000
1000
0000
1000
0020
0000
0000
0130
0000
,
0010
1000
0100
0001
0100
1000
0010
0000
,
1010
0102
1000
1003
,
0001
0010
0100
1000
0000
2001
0000
0000
,
3001
1000
1001
0000
0100
0000
1001
0000
,
0100
0000
0000
0000
1000
0000
0001
0000
1000
0000
0001
0000
1000
0001
1000
0001
,
1000
0000
0000
0000
0001
0000
0000
0001
0000
0000
0100
0000
0000
0100
0000
0000
,
0010
0000
0100
0000
0001
0000
0010
0000
0100
0000
0000
0000
1100
0000
0000
0110
,
0000
0000
1100
0000
0001
0000
0000
0100
0000
0000
1000
0000
0000
0100
0000
0000
,
0001
0010
1000
0010
0001
0100
0020
0000
,
0130
0000
0001
0000
1000
0000
0000
1000
0000
0000
0100
0000
0000
0100
0000
0000
,
0010
0000
0100
0000
1000
0000
0010
0000
0100
0000
0000
0000
0101
0000
0000
0110
,
0000
0000
0101
0000
1000
0000
0000
0100
0000
0000
0001
0000
0000
0100
0000
0000
,
1000
0010
2010
3000
0001
0012
0003
0010
,
0001
0100
0020
0000
0100
0000
0100
0000
,
0130
0000
0010
1000
0010
1000
0100
0001
,
0020
0030
0000
0000
;

//---------------dance-single - ----------------
#NOTEDATA:;
#CHARTNAME:;
#STEPSTYPE:dance-single;
#DESCRIPTION:;
#CHARTSTYLE:;
#DIFFICULTY:Medium;
#METER:8;
#RADARVALUES:0.421357,0.430135,0.290937,0.210678,0.010032,294.000000,265.000000,29.000000,21.000000,0.000000,0.000000,0.000000,0.000000,0.000000,0.421357,0.430135,0.290937,0.210678,0.010032,294.000000,265.000000,29.000000,21.000000,0.000000,0.000000,0.000000,0.000000,0.000000;
#CREDIT:;
#OFFSET:-0.045548;
#BPMS:0.000000=156.000000
;
#STOPS:132.000000=1.153845
;
#DELAYS:;
#WARPS:;
#TIMESIGNATURES:0.000000=4=4
;
#TICKCOUNTS:0.000000=4
;
#COMBOS:0.000000=1
;
#SPEEDS:0.000000=1.000000=0.000000=0
;
#SCROLLS:0.000000=1.000000
;
#FAKES:;
#LABELS:0.000000=Song Start
;
#NOTES:
0000
0000
0000
0000
,
0000
0000
0000
0000
,
0000
0000
0000
0000
,
0000
0000
0000
0000
,
0000
0000
0000
0000
,
1001
0100
0100
0100
,
1001
0010
0010
1001
,
0110
0001
1000
0001
,
0010
0000
0000
0010
0000
0000
0020
0000
0000
0000
0000
0000
0030
0000
0000
0000
,
0001
0001
0010
0010
,
0100
1000
0001
1000
0100
0000
1100
0000
,
0001
0100
0010
1000
,
0001
0010
0100
1000
0001
0000
1000
0010
,
1000
1000
0010
0010
,
0100
0001
1000
0001
0100
0000
0101
0000
,
1000
0100
0010
0001
,
1000
0000
0001
0100
0000
1000
0100
0000
,
0001
0000
0001
0010
0002
0000
0003
0000
,
1000
0000
1000
0010
2000
0000
3000
0000
,
0001
0010
0100
0000
0011
0000
1100
0000
,
0001
0100
0010
1000
0002
0000
0003
0000
,
1000
0000
1000
0100
2000
0000
3000
0000
,
0001
0000
0001
0100
0002
0000
0003
0000
,
1000
0100
0010
0000
0001
0100
0010
0000
,
1001
0000
0000
0110
0000
1001
0000
1000
,
0001
0000
0001
0010
0000
0100
0000
0200
,
0000
0000
0310
0000
0001
1000
0001
0000
,
1000
0000
1000
0010
0000
0100
0000
0200
,
0000
0301
1000
0002
0000
0000
0013
0000
,
0100
1000
0100
0000
1000
0000
1001
0000
,
0100
0001
0100
0000
0001
0000
1001
0000
,
1000
0000
0001
1000
0000
0110
0000
2001
,
0000
0001
0001
3001
,
1001
0000
1001
0000
0001
0010
0001
0000
,
0100
0000
0010
1000
0010
1000
0010
0000
,
1000
1100
0001
0101
,
1000
0000
0001
0010
0001
0010
0001
0000
,
1000
0000
1001
0000
1000
0010
1000
0000
,
0001
0000
1000
0100
1000
0100
2000
0000
,
3002
0203
0000
0301
,
0100
0001
1000
0000
0100
0000
0010
0000
,
0001
0000
1001
0000
1000
0010
1000
0000
,
0100
0000
0010
0001
0010
0001
0010
0000
,
0001
0101
1000
1100
,
0001
0000
1000
0010
1000
0010
1000
0000
,
0001
0000
1001
0000
0001
0010
0001
0000
,
1000
0000
0001
0100
0001
0100
0002
0000
,
2003
3200
0000
0310
,
0001
0000
0000
0000
1000
0000
0000
0001
0000
0000
2000
0000
0000
0000
0000
0000
,
3001
1001
0100
1001
,
0100
0000
1000
0001
1000
0001
2000
0000
,
3001
1000
1000
0100
,
0100
0000
0010
0001
1000
0001
0010
0000
,
0011
1000
0010
0100
,
0001
0000
1000
0100
0010
0001
1000
0000
,
0001
0100
0001
0000
0001
0000
0100
0000
,
0100
0000
0010
1000
0001
1000
0010
0000
,
1010
0001
0010
0100
,
1000
0000
0001
0000
1000
0010
0000
0001
,
0010
2000
0100
0100
,
0100
0100
0001
3010
,
2020
3030
0000
0000
;

//---------------dance-single - ----------------
#NOTEDATA:;
#CHARTNAME:;
#STEPSTYPE:dance-single;
#DESCRIPTION:;
#CHARTSTYLE:;
#DIFFICULTY:Easy;
#METER:5;
#RADARVALUES:0.300969,0.430135,0.230743,0.250808,0.000000,210.000000,187.000000,23.000000,25.000000,0.000000,0.000000,0.000000,0.000000,0.000000,0.300969,0.430135,0.230743,0.250808,0.000000,210.000000,187.000000,23.000000,25.000000,0.000000,0.000000,0.000000,0.000000,0.000000;
#CREDIT:;
#OFFSET:-0.045548;
#BPMS:0.000000=156.000000
;
#STOPS:132.000000=1.153845
;
#DELAYS:;
#WARPS:;
#TIMESIGNATURES:0.000000=4=4
;
#TICKCOUNTS:0.000000=4
;
#COMBOS:0.000000=1
;
#SPEEDS:0.000000=1.000000=0.000000=0
;
#SCROLLS:0.000000=1.000000
;
#FAKES:;
#LABELS:0.000000=Song Start
;
#NOTES:
0000
0000
0000
0000
,
0000
0000
0000
0000
,
0000
0000
0000
0000
,
0000
0000
0000
0000
,
0000
0000
0000
0000
,
2000
0100
0100
0100
,
3002
0100
0100
2003
,
3002
0010
0010
0013
,
2002
0000
0000
3000
0000
0000
0003
0000
0000
0000
0000
0000
0110
0000
0000
0000
,
0001
0001
0100
0100
,
0010
1000
0001
0001
,
1000
0100
0010
0100
,
1000
0010
0100
0001
,
1000
1000
0100
0100
,
0010
0001
1000
1000
,
0001
0100
0010
1000
,
2002
0000
0000
3003
,
1000
0100
2000
3000
,
0001
0100
0002
0003
,
1000
0100
0010
0001
,
0100
0010
2000
3000
,
0001
0010
0002
0003
,
1000
0010
2000
3000
,
0010
1000
0001
0010
,
0220
0330
0100
0010
,
0001
0100
1000
0100
,
0002
0003
1000
0010
,
1000
0100
0001
0100
,
2000
3000
0020
0030
,
1000
0100
1001
0000
,
0001
0100
1001
0000
,
1000
0010
1000
0001
,
0020
0000
0000
0000
,
0130
0011
0000
1010
,
0000
0001
0100
0001
,
0000
1000
0100
0010
,
0100
1000
0010
1000
,
0000
0101
0000
0011
,
0000
0001
0010
0100
,
1000
0002
0000
0103
,
0001
1001
0010
1001
,
0000
1010
0000
0011
,
0000
1000
0100
1000
,
0000
0001
0100
0010
,
0100
0001
0010
0001
,
0000
1100
0000
1010
,
0000
1000
0010
0100
,
0001
2000
0000
3100
,
0010
0110
0000
0001
,
1000
1001
0100
1001
,
0100
1001
1001
2001
,
3001
1000
1000
0100
,
0100
0010
0001
1000
,
1000
0001
0100
0010
,
0100
0001
0010
0100
,
1000
0001
0001
0100
,
0100
0010
1000
0001
,
0001
1000
0100
0010
,
0001
2002
0000
0000
,
3003
0001
0100
0001
,
0100
0010
1000
0100
,
0002
0003
0000
0000
;

//---------------dance-single - ----------------
#NOTEDATA:;
#CHARTNAME:;
#STEPSTYPE:dance-single;
#DESCRIPTION:;
#CHARTSTYLE:;
#DIFFICULTY:Beginner;
#METER:3;
#RADARVALUES:0.209245,0.278773,0.190614,0.120388,0.000000,146.000000,127.000000,19.000000,12.000000,0.000000,0.000000,0.000000,0.000000,0.000000,0.209245,0.278773,0.190614,0.120388,0.000000,146.000000,127.000000,19.000000,12.000000,0.000000,0.000000,0.000000,0.000000,0.000000;
#CREDIT:;
#OFFSET:-0.045548;
#BPMS:0.000000=156.000000
;
#STOPS:;
#DELAYS:;
#WARPS:;
#TIMESIGNATURES:0.000000=4=4
;
#TICKCOUNTS:0.000000=4
;
#COMBOS:0.000000=1
;
#SPEEDS:0.000000=1.000000=0.000000=0
;
#SCROLLS:0.000000=1.000000
;
#FAKES:;
#LABELS:0.000000=Song Start
;
#NOTES:
0000
0000
0000
0000
,
0000
0000
0000
0000
,
0000
0000
0000
0000
,
0000
0000
0000
0000
,
0000
0000
0000
0000
,
1001
0000
0000
0000
,
0110
0000
0000
1001
,
1001
0000
0000
0000
,
2002
0000
0000
3003
0000
0000
0000
0000
,
0001
0001
0001
0000
,
0010
0000
0100
0000
,
0010
0010
0010
0000
,
0001
1000
0001
0000
,
1000
1000
1000
0000
,
0010
0000
0100
0000
,
0001
0001
0001
0000
,
2002
0000
3003
0000
,
1000
1000
1000
0000
,
1000
1000
1000
0000
,
0010
0000
0010
0000
,
1000
0001
1000
0000
,
0001
0001
0001
0000
,
0001
0001
0001
0000
,
0010
0000
0100
0000
,
0020
0000
0030
0000
,
0001
0001
0001
0000
,
0100
0000
0100
0000
,
0010
0010
0010
0000
,
1000
0000
1000
0000
,
0001
1000
0001
0000
,
1000
0001
1000
0000
,
1001
0000
0110
0000
,
2002
0000
0000
0000
,
3003
0000
0000
0000
,
1001
0000
1001
0000
,
0001
0001
0001
0000
,
0100
0000
0100
0000
,
0001
0100
0001
0000
,
1001
0000
1001
0000
,
1000
0000
0010
0100
,
0020
0000
0030
0000
,
1000
0000
0001
0000
,
1001
0000
1001
0000
,
1000
1000
1000
0000
,
0100
0000
0100
0000
,
1000
0100
1000
0000
,
1001
0000
1001
0000
,
0001
0000
0010
0100
,
0020
0000
0030
0000
,
0001
0000
1000
0000
,
0001
0000
0001
0000
,
0001
0001
0001
0000
,
1000
1000
1000
0000
,
0010
0000
0100
0000
,
0010
0010
0010
0000
,
1000
0001
1000
0000
,
0001
0001
0001
0000
,
0010
0000
0100
0000
,
1000
1000
1000
0000
,
2002
0000
3003
0000
,
0200
0000
0000
0000
,
0000
0300
0000
1001
;
