#VERSION:0.83;
#TITLE:1949;
#SUBTITLE:;
#ARTIST:Slam;
#TITLETRANSLIT:;
#SUBTITLETRANSLIT:;
#ARTISTTRANSLIT:;
#GENRE:Death Metal;
#ORIGIN:;
#CREDIT:;
#BANNER:1949.png;
#BACKGROUND:1949-bg.png;
#PREVIEWVID:;
#JACKET:1949-jacket.png;
#CDIMAGE:;
#DISCIMAGE:;
#LYRICSPATH:;
#CDTITLE:cdtitle.png;
#MUSIC:1949.ogg;
#OFFSET:0.220693;
#SAMPLESTART:10.686398;
#SAMPLELENGTH:17.454544;
#SELECTABLE:YES;
#BPMS:0.000=220.000,
136.000=110.000,
150.000=220.000;
#STOPS:150.000=0.818,
175.000=1.636,
316.750=1.636;
#DELAYS:;
#WARPS:;
#TIMESIGNATURES:0.000=4=4;
#TICKCOUNTS:0.000=4;
#COMBOS:0.000=1;
#SPEEDS:0.000=1.000=0.000=0;
#SCROLLS:0.000=1.000;
#FAKES:;
#LABELS:0.000=Song Start;
#BGCHANGES:1.750=1949.avi=1.000=1=0=0=StretchNoLoop==CrossFade==,
99999=-nosongbg-=1.000=0=0=0 // don't automatically add -songbackground-
;
#KEYSOUNDS:;
#ATTACKS:
;

//---------------dance-single - ----------------
#NOTEDATA:;
#CHARTNAME:;
#STEPSTYPE:dance-single;
#DESCRIPTION:;
#CHARTSTYLE:;
#DIFFICULTY:Challenge;
#METER:19;
#RADARVALUES:1.225767,1.621903,0.924040,0.462020,1.107905,910.000000,812.000000,98.000000,49.000000,0.000000,0.000000,0.000000,0.000000,1.000000,1.225767,1.621903,0.924040,0.462020,1.107905,910.000000,812.000000,98.000000,49.000000,0.000000,0.000000,0.000000,0.000000,1.000000;
#CREDIT:;
#OFFSET:0.220693;
#BPMS:0.000000=220.000000
,54.000000=440.000000
,56.000000=220.000000
,82.000000=440.000000
,84.500000=220.000000
,84.750000=110.000000
,85.000000=440.000000
,85.500000=220.000000
,85.750000=110.000000
,86.000000=440.000000
,86.500000=220.000000
,86.750000=110.000000
,87.000000=440.000000
,87.500000=220.000000
,87.750000=110.000000
,88.000000=220.000000
,116.000000=110.000000
,118.000000=220.000000
,122.000000=440.000000
,123.000000=110.000000
,123.500000=440.000000
,124.500000=110.000000
,125.000000=220.000000
,138.000000=440.000000
,138.500000=220.000000
,138.750000=110.000000
,139.000000=220.000000
,139.500000=440.000000
,140.000000=220.000000
,140.250000=110.000000
,140.500000=220.000000
,150.000000=110.000000
,164.000000=220.000000
,196.000000=440.000000
,200.000000=220.000000
,214.000000=440.000000
,215.000000=220.000000
,215.500000=110.000000
,216.000000=220.000000
,274.000000=440.000000
,276.750000=110.000000
,277.000000=440.000000
,277.500000=110.000000
,277.750000=440.000000
,278.250000=110.000000
,278.500000=440.000000
,280.000000=220.000000
,374.000000=55.000000
,375.000000=220.000000
;
#STOPS:54.000000=0.034091
,54.250000=0.034091
,54.500000=0.034091
,54.750000=0.034091
,55.000000=0.034091
,55.250000=0.034091
,55.500000=0.034091
,55.750000=0.034091
,82.000000=0.102273
,82.750000=0.102275
,83.500000=0.068183
,196.000000=0.090907
,196.666672=0.090911
,197.333328=0.090911
,198.000000=0.045455
,198.333328=0.045451
,198.666672=0.045451
,199.000000=0.045451
,199.333328=0.045451
,199.666672=0.045451
,274.000000=0.102275
,274.750000=0.102275
,275.500000=0.102275
,278.500000=0.034091
,278.750000=0.034098
,279.000000=0.034098
,279.250000=0.034098
,279.500000=0.034098
,279.750000=0.034098
;
#DELAYS:;
#WARPS:2.000000=16.000000
,164.000000=16.000000
,358.000000=16.000000
;
#TIMESIGNATURES:0.000000=4=4
;
#TICKCOUNTS:0.000000=4
;
#COMBOS:0.000000=1
;
#SPEEDS:0.000000=1.000000=0.000000=0
,164.000000=0.000000=0.000000=0
,180.000000=1.000000=4.000000=0
;
#SCROLLS:0.000000=1.000000
,18.000000=0.000000
,22.000000=-1.000000
,22.500000=-0.500000
,23.000000=0.000000
,23.500000=1.500000
,24.000000=1.000000
,180.000000=0.000000
,182.000000=-1.000000
,182.500000=-0.500000
,183.000000=0.000000
,183.500000=1.500000
,184.000000=1.000000
,208.000000=0.000000
,209.750000=1.000000
,210.000000=0.000000
,211.750000=1.000000
,212.000000=0.000000
,213.750000=1.000000
,308.500000=0.900000
,309.000000=0.800000
,309.500000=0.700000
,310.000000=0.600000
,310.500000=0.500000
,311.000000=0.400000
,311.500000=0.300000
,312.000000=0.250000
,324.000000=0.300000
,324.500000=0.400000
,325.000000=0.500000
,325.500000=0.600000
,326.000000=0.700000
,326.500000=0.800000
,327.000000=0.900000
,327.500000=1.000000
,355.750000=0.000000
,358.000000=1.000000
,413.000000=0.000000
,416.937500=10.000000
,417.000000=1.000000
;
#FAKES:;
#LABELS:0.000000=Song Start
;
#ATTACKS:TIME=92.437401:LEN=5.000000:MODS=*100 dark, *100 stealth:TIME=93.051041:LEN=5.000000:MODS=no dark, no stealth;
#NOTES:
0000
0000
0000
0000
,
0000
0000
0000
0000
,
0000
0000
0000
0000
,
0000
0000
0000
0000
,
0000
0000
0000
0000
,
0000
0000
0000
0000
,
1100
1100
0000
0110
0110
0000
1100
1100
,
0000
0010
2002
3003
,
0101
0101
0000
0110
0110
0000
0101
0101
,
0000
0010
2002
3003
,
1000
1000
0100
1000
0001
0001
0100
0001
,
0010
0000
0010
0000
0001
0000
1000
0000
0010
0000
0010
0000
1000
0001
1000
0001
,
0010
0010
0100
0100
0011
0100
0010
1100
,
0000
0000
0110
0000
1001
0000
0000
0000
0001
0100
0001
0100
0010
1000
0010
1000
,
0001
0010
0110
0010
0001
0010
0110
0010
,
0001
0010
0110
0010
0001
0001
1000
1000
,
0001
0100
0110
0100
0001
0100
0110
0100
,
0001
0000
0100
0000
0110
0000
0100
0000
0001
1000
0100
1000
0001
1000
0010
1000
,
0001
0010
0110
0010
0001
0100
0110
0100
,
0001
0010
0110
0010
0001
0001
1000
1000
,
0001
0100
0001
0100
0010
1000
0100
0010
0100
0000
0000
0110
0000
0000
0011
0000
,
2002
0000
0000
0000
0000
0000
0000
3003
2020
0000
0000
0000
0000
0000
0000
3030
2002
0000
0000
0000
0000
0000
0000
3003
0022
0000
0000
0000
0000
0000
0000
0033
,
1000
0010
0100
0010
2010
3001
1000
2100
,
3001
0000
1000
0000
2010
0000
3001
0000
1000
0100
1000
0100
0010
0000
0001
0100
,
0010
1000
0100
0010
0012
1003
0001
0102
,
1003
0000
0001
0000
0012
0000
1003
0000
0001
0100
0001
0100
0010
1000
0001
1000
,
0100
0010
0011
0100
1000
0010
1010
0100
,
0001
0000
0010
0000
0011
0000
0100
0000
1000
0001
0100
0001
1000
0000
0001
0010
,
0001
0000
1000
0000
0010
0000
0010
0000
1000
0010
1000
0010
0100
0001
0010
0100
,
2000
0000
0000
0000
3002
0100
0100
0103
,
1010
0000
1001
0000
0011
0000
0001
1000
0020
0000
0000
0000
0030
0000
1002
0000
,
0000
0000
0003
0000
1000
0100
0010
0001
2000
0000
0100
0000
0100
0000
3100
0000
,
0011
0000
1001
0000
1010
0000
1001
0000
0001
0010
0001
0010
0100
0000
0010
0001
,
0100
0010
1000
0010
1000
0010
1000
0010
0200
0000
0010
0000
0310
0000
1010
0000
,
0101
0000
0011
0000
1100
0000
1000
0001
0200
0000
0000
0300
0001
1000
0200
0000
,
0000
0300
1000
0001
0200
0000
0301
0000
1000
0010
1000
0001
0010
0001
1000
0010
,
1000
0000
0000
0000
0100
0000
0000
0000
0010
0000
0000
0000
0001
0000
0000
0000
0100
0000
0000
0000
0010
0000
0000
0000
1000
0000
0000
0100
0000
0000
0010
0000
0000
0001
0000
0000
1000
0000
0000
0100
0000
0000
0010
0000
0000
0001
0000
0000
,
0200
0000
0000
0000
0320
0000
0000
0000
1030
0000
1000
0100
0001
0100
1000
0000
,
1000
0001
1000
0000
0001
0010
0100
1000
0001
0000
0001
0100
1000
0100
0001
0000
,
1000
0010
0100
0000
0001
0010
0100
0000
1000
0000
1000
0010
0001
0010
1000
0000
,
1000
0001
1000
0000
0001
0010
0100
1000
0001
0000
0001
0010
1000
0010
0001
0000
,
0100
0000
0000
0000
,
0000
0000
0000
0000
,
0000
0000
0000
0000
,
0000
0000
0000
0000
,
0100
0000
0000
0000
,
0101
0100
0110
0000
1010
0000
0101
0000
,
0001
0000
0000
0000
0100
0000
0000
0000
0001
0000
0000
0000
1000
0000
0000
0000
0000
0000
0100
0000
0000
0000
0000
0000
0011
0000
0000
0000
0000
0000
0011
0000
0000
0000
0000
0000
1100
0000
0000
0000
0000
0000
1000
0000
0000
0001
0000
0000
,
0100
0000
0000
0000
0000
0000
0100
0000
0000
0000
0000
0000
0001
0000
0000
0000
0100
0000
0000
0000
1000
0000
0000
0000
0100
0000
0000
0010
0000
0000
0100
0000
0000
0010
0000
0000
0100
0000
0000
0000
1000
0000
0000
0000
0100
0000
0000
0000
,
0101
0000
1001
0000
0011
0000
1000
0100
0001
0100
1000
0100
,
0110
0000
0011
0001
0101
0000
1010
1000
,
1001
0000
1000
0000
1100
0000
1000
0000
1001
0000
0001
0100
0010
1000
0100
0010
,
0002
0000
0000
0000
,
0000
0000
0003
0000
,
1002
0010
1000
1003
2001
0010
0001
3001
,
1000
0000
0000
0000
0100
0000
0000
0000
0001
0000
0000
0000
0100
0000
0000
0000
1000
0000
0000
0000
0001
0000
0000
0000
0100
0000
0000
0000
1000
0000
0000
0000
0100
0000
0000
0000
0001
0000
0000
1000
0000
0000
0100
0000
0000
0010
0000
0000
,
0001
0000
0010
0001
0100
0000
0010
1000
0100
0000
0010
0001
0100
0000
0010
1000
,
0100
0010
0100
0010
0001
0100
0010
1000
0100
0000
0010
0000
0010
0000
0100
1000
,
0010
1000
0010
1000
0010
1000
0010
1000
0010
1000
0010
1000
0001
1000
0010
0100
,
0001
0010
0100
1000
0001
1000
0100
0010
0001
0010
0100
1000
0001
1000
0100
0010
,
0001
0100
0010
1000
0010
1000
0100
0010
0001
0010
0001
0100
0010
1000
0100
0010
,
0002
0000
0000
0000
0000
0000
0000
0000
1003
0010
1000
0010
0100
0001
0010
0100
,
1000
0010
0110
0010
1000
0010
0110
0010
,
1000
0010
0110
0010
1000
1000
0001
0001
,
1000
0100
0110
0100
1000
0100
0110
0100
,
1000
0000
0100
0000
0110
0000
0100
0000
1000
0001
0100
0001
1000
0001
0010
0001
,
1000
0010
0110
0010
1000
0100
0110
0100
,
1000
0010
0110
0010
1000
1000
0001
0001
,
1000
0100
1000
0100
0010
0001
0100
0010
0100
0000
0000
0110
0000
0000
1010
0000
,
0000
0000
2002
0000
0000
0000
0000
3003
0022
0000
0000
0000
0000
0033
2002
0000
0000
0000
0000
3003
0001
0000
0100
0000
0010
0000
1000
0000
0100
0000
0010
0000
,
0001
0010
0100
0010
0012
1003
0001
0102
,
1003
0000
0001
0000
0012
0000
1003
0000
0001
0100
0001
0100
0010
0000
1000
0100
,
0010
0001
0100
0010
2010
3001
1000
2100
,
3001
0000
1000
0000
2010
0000
3001
0000
1000
0100
1000
0100
0010
0001
1000
0001
,
0100
0010
1010
0100
0001
0010
0011
0100
,
1000
0000
0010
0000
1010
0000
0100
0000
0001
1000
0100
1000
0001
0000
1000
0010
,
0100
0000
0001
0010
0100
0010
0100
0000
1000
0100
0010
0001
0100
0001
0010
0100
,
2000
0000
0000
0000
,
0002
0000
0000
0000
,
0000
0000
0000
0000
,
0000
0000
0000
0000
,
0000
0000
3003
0000
,
1000
0100
1000
0001
0100
0001
1000
0010
,
1000
0001
0010
0001
1000
0010
0100
0001
,
0010
0100
0010
0001
1000
0001
0100
0010
,
0100
0001
1000
0100
0001
0100
1000
0010
,
0100
0010
1000
0100
0001
0100
1000
0010
,
0100
0010
1000
0100
0001
0100
1000
0010
,
0100
0001
0100
0001
0100
0001
0100
0001
0010
0100
1000
0001
1000
0100
0010
0001
,
0000
0000
0000
0000
,
0000
0000
0000
0000
,
0000
0000
0000
0000
,
0000
0000
0000
0000
,
0000
0000
0000
0000
0000
0000
0000
0000
0000
0000
0000
0000
1000
0100
1000
0100
,
1000
0001
1000
0001
1000
0010
1000
0010
1000
0001
1000
0001
1000
0100
0010
0001
,
1000
0100
0010
0001
0100
0010
1000
0001
0010
0100
1000
0001
0100
0001
0100
0001
,
1000
0001
1000
0001
0010
0001
0010
0001
1000
0001
1000
0001
0100
0010
1000
0001
,
0100
0010
0100
0010
1000
0100
0010
0001
1000
0001
0010
0100
1000
0010
0100
0001
,
0100
0001
1000
0010
0100
0001
0100
0001
1000
0100
0010
0001
1000
0010
0100
0001
,
0010
0001
0010
0100
1000
0010
1000
0010
0100
0001
0010
0100
1000
0010
1000
0010
,
1000
0100
0010
0001
0010
0001
0010
0100
1000
0010
1000
0100
0010
0001
1000
0010
,
0100
0001
1000
0100
0010
0001
0100
0001
0010
0001
0100
0010
1000
0000
0000
0000
,
0000
0110
0000
0000
2002
0000
0000
0000
,
0000
3000
0000
0000
,
0000
0003
0000
0000
;

//---------------dance-single - ----------------
#NOTEDATA:;
#CHARTNAME:;
#STEPSTYPE:dance-single;
#DESCRIPTION:;
#CHARTSTYLE:;
#DIFFICULTY:Hard;
#METER:17;
#RADARVALUES:0.981961,1.277863,0.528023,0.414875,0.645885,729.000000,673.000000,56.000000,44.000000,0.000000,0.000000,0.000000,0.000000,1.000000,0.981961,1.277863,0.528023,0.414875,0.645885,729.000000,673.000000,56.000000,44.000000,0.000000,0.000000,0.000000,0.000000,1.000000;
#CREDIT:;
#OFFSET:0.220693;
#BPMS:0.000000=220.000000
,54.000000=440.000000
,56.000000=220.000000
,82.000000=440.000000
,84.500000=220.000000
,84.750000=110.000000
,85.000000=440.000000
,85.500000=220.000000
,85.750000=110.000000
,86.000000=440.000000
,86.500000=220.000000
,86.750000=110.000000
,87.000000=440.000000
,87.500000=220.000000
,87.750000=110.000000
,88.000000=220.000000
,116.000000=110.000000
,118.000000=220.000000
,122.000000=440.000000
,123.000000=110.000000
,123.500000=440.000000
,124.500000=110.000000
,125.000000=220.000000
,138.000000=440.000000
,138.500000=220.000000
,138.750000=110.000000
,139.000000=220.000000
,139.500000=440.000000
,140.000000=220.000000
,140.250000=110.000000
,140.500000=220.000000
,150.000000=110.000000
,164.000000=220.000000
,196.000000=440.000000
,200.000000=220.000000
,214.000000=440.000000
,215.000000=220.000000
,215.500000=110.000000
,216.000000=220.000000
,274.000000=440.000000
,276.750000=110.000000
,277.000000=440.000000
,277.500000=110.000000
,277.750000=440.000000
,278.250000=110.000000
,278.500000=440.000000
,280.000000=220.000000
,374.000000=55.000000
,375.000000=220.000000
;
#STOPS:54.000000=0.034091
,54.250000=0.034091
,54.500000=0.034091
,54.750000=0.034091
,55.000000=0.034091
,55.250000=0.034091
,55.500000=0.034091
,55.750000=0.034091
,82.000000=0.102273
,82.750000=0.102275
,83.500000=0.068183
,196.000000=0.090907
,196.666672=0.090911
,197.333328=0.090911
,198.000000=0.045455
,198.333328=0.045451
,198.666672=0.045451
,199.000000=0.045451
,199.333328=0.045451
,199.666672=0.045451
,274.000000=0.102275
,274.750000=0.102275
,275.500000=0.102275
,278.500000=0.034091
,278.750000=0.034098
,279.000000=0.034098
,279.250000=0.034098
,279.500000=0.034098
,279.750000=0.034098
;
#DELAYS:;
#WARPS:2.000000=16.000000
,164.000000=16.000000
,358.000000=16.000000
;
#TIMESIGNATURES:0.000000=4=4
;
#TICKCOUNTS:0.000000=4
;
#COMBOS:0.000000=1
;
#SPEEDS:0.000000=1.000000=0.000000=0
,164.000000=0.000000=0.000000=0
,180.000000=1.000000=4.000000=0
;
#SCROLLS:0.000000=1.000000
,18.000000=0.000000
,22.000000=-1.000000
,22.500000=-0.500000
,23.000000=0.000000
,23.500000=1.500000
,24.000000=1.000000
,180.000000=0.000000
,182.000000=-1.000000
,182.500000=-0.500000
,183.000000=0.000000
,183.500000=1.500000
,184.000000=1.000000
,208.000000=0.000000
,209.750000=1.000000
,210.000000=0.000000
,211.750000=1.000000
,212.000000=0.000000
,213.750000=1.000000
,308.500000=0.900000
,309.000000=0.800000
,309.500000=0.700000
,310.000000=0.600000
,310.500000=0.500000
,311.000000=0.400000
,311.500000=0.300000
,312.000000=0.250000
,324.000000=0.300000
,324.500000=0.400000
,325.000000=0.500000
,325.500000=0.600000
,326.000000=0.700000
,326.500000=0.800000
,327.000000=0.900000
,327.500000=1.000000
,355.750000=0.000000
,358.000000=1.000000
,413.000000=0.000000
,416.937500=10.000000
,417.000000=1.000000
;
#FAKES:;
#LABELS:0.000000=Song Start
;
#ATTACKS:TIME=92.437401:LEN=5.000000:MODS=*100 dark, *100 stealth:TIME=93.051041:LEN=5.000000:MODS=no dark, no stealth;
#NOTES:
0000
0000
0000
0000
,
0000
0000
0000
0000
,
0000
0000
0000
0000
,
0000
0000
0000
0000
,
0000
0000
0000
0000
,
0000
0000
0000
0000
,
1000
1010
0000
0010
1010
0000
1000
1010
,
0000
0010
2002
3003
,
0001
0011
0000
0010
0011
0000
0001
0011
,
0000
0010
2002
3003
,
1000
0010
0100
0010
1000
0001
1000
0100
,
0010
0000
0100
0000
1000
0000
0001
0000
0100
0000
0100
0000
0010
0100
0010
0100
,
0010
1000
0100
0010
0001
0100
0010
0010
,
0000
0000
1001
0000
1001
0000
0000
0000
0001
1000
0001
1000
0001
1000
0001
1000
,
0001
0010
0011
0000
1000
0010
1010
0000
,
0001
0010
0011
0000
0100
0010
0001
1000
,
0001
0100
0101
0000
1000
0100
1100
0000
,
0001
0000
0100
0000
0101
0000
0000
0000
1000
0010
1000
0000
0001
0010
0001
0000
,
1000
0010
0110
0000
0001
0010
0110
0000
,
1000
0010
0110
0000
0001
0010
0100
1000
,
0001
0100
0001
0000
1000
0100
1000
0000
0001
0000
0000
0001
0000
0000
0100
0000
,
0202
0000
0000
0303
2020
0000
0000
3030
2200
0000
0000
3300
0022
0000
0000
0033
,
1000
0010
0100
0010
1010
0100
0010
0201
,
0000
0000
0001
0000
0301
0000
0000
0000
1000
0010
1000
0010
1000
0000
0100
0010
,
0001
0010
0100
0010
0011
0100
0010
1200
,
0000
0000
1000
0000
1300
0000
0000
0000
0001
0100
0010
0000
1000
0100
0010
0000
,
0001
0010
0100
0001
0100
1000
0010
0100
,
1000
0000
0100
0000
0001
0000
0010
0000
0100
0010
0100
0010
0100
0000
0010
0000
,
0001
0000
0100
0000
1000
0000
0100
0000
0001
0100
0001
0100
0010
0000
0000
0000
,
2002
0000
0000
3003
2000
0100
0100
3100
,
1000
0000
0100
0000
0001
0000
0100
1000
0100
0000
0000
0000
0000
0000
0110
0000
,
0000
0000
0000
0000
0001
0010
0100
1000
0002
0000
0100
0000
0100
0000
0103
0000
,
0001
0000
0100
0000
1000
0000
0100
0000
0001
0100
0001
0100
0001
0000
0010
0100
,
2000
0000
0000
0000
3002
0100
0100
0103
,
0010
0000
1000
0000
0100
0000
0010
0001
1000
0000
0000
0000
0010
1000
0001
0000
,
0000
0000
0010
0001
1000
0000
0001
0000
1000
0010
1000
0000
0001
0010
0001
0000
,
1000
0000
0000
0000
0100
0000
0000
0000
1000
0000
0000
0000
0100
0000
0000
0000
1000
0000
0000
0000
0100
0000
0000
0000
0010
0000
0000
0001
0000
0000
0010
0000
0000
0000
0000
0000
0001
0000
0000
1000
0000
0000
0001
0000
0000
0000
0000
0000
,
0200
0000
0000
0000
0320
0000
0000
0000
1030
0000
0001
0100
0010
0100
0001
0000
,
0100
0010
0100
0000
0010
0100
0001
0010
0100
0000
1000
0100
0010
0100
1000
0000
,
0100
0010
0100
0000
0010
0100
1000
0000
0001
0000
1000
0010
0001
0010
1000
0000
,
0100
0010
0001
0000
0100
0010
1000
0001
0010
0000
0001
0010
1000
0010
0001
0000
,
0100
0000
0000
0000
,
0000
0000
0000
0000
,
0000
0000
0000
0000
,
0000
0000
0000
0000
,
0100
0000
0000
0000
,
0001
0100
1000
0000
0110
0000
1001
0000
,
1000
0000
0100
0000
1000
0000
0100
0000
0000
0001
0000
0000
0100
0000
0000
1000
0000
0000
0001
0000
0000
0000
0000
0000
,
1000
0000
0000
1000
0000
0000
0010
0000
1000
0000
0100
0000
0010
0000
0000
0100
0000
0000
0010
0000
0001
0000
0100
0000
,
0010
0000
1010
0000
1001
0000
1000
0100
1000
0001
0100
0001
,
1000
0000
1100
0010
0001
0000
0101
0010
,
1000
0000
1000
0000
0001
0000
0001
0000
1000
0000
0100
0010
0100
0010
0001
1000
,
0200
0000
0000
0000
,
0000
0000
0300
0000
,
0002
0010
0010
0010
2003
0010
0010
0010
,
3001
0000
0010
0000
0001
0000
1000
0000
0010
0000
1000
0000
0001
0000
0010
0000
0001
0000
1000
0000
0000
0010
0000
0000
,
1000
0000
0010
1000
0010
0000
1000
0001
1000
0000
0100
1000
0100
0000
0010
0001
,
0010
0000
0001
1000
0001
0000
0100
0001
0100
0000
0001
0000
1000
0000
0000
0000
,
0001
0010
0001
0010
0001
0010
0001
0010
0001
0010
0001
0010
0001
0000
1000
0000
,
0001
0100
0001
0000
0100
0000
0010
0000
1000
0100
1000
0000
0100
0000
0010
0000
,
0001
0100
0001
0000
0100
0010
0100
0000
0010
1000
0010
0000
1000
0001
1000
0001
,
0020
0000
0000
0030
0220
0330
2002
3003
,
1000
0010
1010
0000
0001
0010
0011
0000
,
1000
0010
1010
0000
0100
0010
1000
0001
,
1000
0100
1100
0000
0001
0100
0101
0000
,
1000
0000
0100
0000
1100
0000
0000
0000
0001
0010
0001
0000
1000
0010
1000
0000
,
0001
0010
0110
0000
1000
0010
0110
0000
,
0001
0010
0110
0000
1000
0010
0100
0001
,
1000
0100
1000
0000
0001
0100
0001
0000
1000
0000
0000
1000
0000
0000
0100
0000
,
0000
0022
0000
0033
2002
0000
3003
2020
0000
3030
0001
1000
0001
1000
0001
1000
,
0001
0010
0100
0010
0011
0100
0010
1200
,
0000
0000
1000
0000
1300
0000
0000
0000
0001
0010
0001
0010
0001
0000
0100
0010
,
1000
0010
0100
0010
1010
0100
0010
0201
,
0000
0000
0001
0000
0301
0000
0000
0000
1000
0100
0010
0000
0001
0100
0010
0000
,
1000
0010
0100
1000
0100
0001
0010
0100
,
0001
0000
0100
0000
1000
0000
0010
0000
0100
0010
0100
0010
0100
0000
0010
0000
,
1000
0000
0100
0000
0001
0000
0100
0000
1000
0100
1000
0100
0010
0000
0000
0000
,
0200
0000
0000
0000
,
0020
0000
0000
0000
,
0000
0000
0000
0000
,
0000
0000
0000
0000
,
0000
0000
0330
0000
,
0001
0010
0100
0010
0001
1000
0001
0010
,
0100
1000
0010
0100
0010
1000
0001
1000
,
0100
0010
0001
1000
0010
0100
0001
1000
,
0100
1000
0001
0100
1000
0100
0001
0010
,
0100
0010
0001
0100
1000
0100
0001
0010
,
0100
0010
0001
0100
1000
0100
0001
0010
,
0200
0000
0000
0000
0310
0001
0100
1001
,
0000
0000
0000
0000
,
0000
0000
0000
0000
,
0000
0000
0000
0000
,
0000
0000
0000
0000
,
0000
0000
0000
0000
0000
0000
0000
0000
0000
0000
0000
0000
1000
0001
0100
0000
,
0001
0000
0100
0000
0001
1000
0100
0000
1000
0000
0100
0000
0010
0001
0010
0000
,
0001
1000
0001
0000
0100
0001
0100
0000
0001
1000
0001
0000
1000
0100
0010
0000
,
0100
0000
0010
0000
0001
0100
0010
0000
0100
0000
0010
0000
1000
0010
1000
0000
,
0001
0010
0100
0010
0002
0000
0000
0000
0003
0000
0000
0000
1000
0100
1000
0000
,
0100
0000
1000
0001
1000
0000
0001
0000
1000
0010
0100
0000
0001
0100
0001
0000
,
0100
0000
0001
1000
0001
0000
1000
0000
0001
0010
0100
0000
0010
0001
0010
0000
,
0001
0000
1000
0010
1000
0000
0010
0000
1000
0001
0100
0000
0001
1000
0100
0000
,
0010
0000
0100
0000
0010
0100
0010
0100
1000
0001
1000
0001
0100
0000
0000
0000
,
0000
0110
0000
0000
2002
0000
0000
0000
,
0000
3000
0000
0000
,
0000
0003
0000
0000
;

//---------------dance-single - ----------------
#NOTEDATA:;
#CHARTNAME:;
#STEPSTYPE:dance-single;
#DESCRIPTION:;
#CHARTSTYLE:;
#DIFFICULTY:Medium;
#METER:14;
#RADARVALUES:0.759706,1.091522,0.320585,0.273440,0.103719,564.000000,530.000000,34.000000,29.000000,0.000000,0.000000,0.000000,0.000000,0.000000,0.759706,1.091522,0.320585,0.273440,0.103719,564.000000,530.000000,34.000000,29.000000,0.000000,0.000000,0.000000,0.000000,0.000000;
#CREDIT:;
#OFFSET:0.220693;
#BPMS:0.000000=440.000000
,5.000000=220.000000
,5.500000=110.000000
,6.000000=220.000000
,66.000000=440.000000
,68.000000=220.000000
,96.000000=110.000000
,98.000000=220.000000
,126.000000=110.000000
,140.000000=220.000000
,226.250000=440.000000
,229.000000=220.000000
,261.000000=110.000000
,269.000000=220.000000
,299.000000=110.000000
,301.000000=220.000000
;
#STOPS:4.000000=1.090909
,66.000000=0.204547
,66.500000=0.204547
,67.000000=0.204547
,67.500000=0.204547
,102.000000=0.272727
,102.500000=0.272727
,116.000000=0.272727
,116.500000=0.272727
,140.000000=0.818179
,165.000000=0.477275
,165.250000=0.477275
,165.500000=0.477275
,165.750000=0.477275
,226.250000=0.102275
,227.000000=0.102275
,227.750000=0.102275
,228.500000=0.340914
;
#DELAYS:;
#WARPS:;
#TIMESIGNATURES:0.000000=4=4
;
#TICKCOUNTS:0.000000=4
;
#COMBOS:0.000000=1
;
#SPEEDS:0.000000=1.000000=0.000000=0
;
#SCROLLS:0.000000=1.000000
,267.000000=1.125000
,267.250000=1.250000
,267.500000=1.375000
,267.750000=1.500000
,268.000000=1.625000
,268.250000=1.750000
,268.500000=1.875000
,268.750000=1.940000
,269.000000=1.000000
,296.500000=0.000000
,299.000000=1.000000
,339.000000=0.000000
,342.937500=10.000000
,343.000000=1.000000
;
#FAKES:;
#LABELS:0.000000=Song Start
;
#NOTES:
0000
0000
0000
0000
,
0000
0000
0000
0000
1000
0100
0000
0001
,
0100
0000
1000
0100
0000
0000
1000
0000
,
2020
0000
3030
0000
0001
0100
0000
1000
,
0100
0000
0001
0100
0000
0000
0001
0000
,
0022
0033
0001
0100
,
1000
0010
1000
0100
,
0001
0010
0001
0010
0100
1000
0010
0100
,
0001
0010
0100
1000
0000
0001
0001
0000
,
2002
0000
3003
0000
0001
1000
0100
0000
,
1000
0001
0100
0000
0001
1000
0100
0000
,
0010
0010
0100
1000
0010
0100
0001
0000
,
0010
0100
1000
0000
0010
0100
0001
0000
,
1000
0010
1000
0010
0100
0001
0010
0000
,
0100
1000
0010
0000
0100
0001
0010
0000
,
0100
0100
0010
0001
1000
0010
0100
0001
,
1000
0000
0000
1000
0000
0000
0001
0000
0011
0000
1001
0000
1010
0000
1001
0000
,
0001
0010
0001
1000
0100
0001
0100
2000
,
0000
0100
3100
0000
1000
0100
0010
0001
,
1000
0010
1000
0001
0100
1000
0100
0002
,
0000
0100
0103
0000
0001
0100
0010
1000
,
0100
0010
0100
0010
0001
1000
0001
1000
,
0100
0010
0100
0010
1000
0001
1000
0001
,
0100
1000
0001
0100
1000
0100
1000
0100
,
0002
0000
0000
0000
2003
0010
0010
3010
,
1000
0010
0100
0010
1010
1010
1010
0000
,
0002
0010
0010
0013
0001
0010
0100
0010
,
1000
0010
1000
0010
0001
0100
0010
1000
,
0002
0100
0100
0103
0001
0100
1000
0100
,
0110
1001
0110
0000
0001
0010
0100
1000
,
0020
0000
2030
0000
3010
1000
0100
0010
,
0002
0000
0000
0000
0203
0000
0000
0000
0310
0000
1000
0010
1000
0010
0100
0000
,
0010
1000
0010
0000
1000
0010
0100
0010
1000
0000
0001
0010
0001
0010
0100
0000
,
0010
0001
1000
0000
1000
0001
0100
0000
0010
0000
1000
0010
0100
0001
1000
0000
,
0001
0010
0100
0000
1000
0010
0100
0001
1000
0000
0100
0010
0001
1000
0100
0000
,
0110
0000
0001
0010
0011
0000
1100
0000
,
0011
0000
1000
0001
0100
0010
1000
1000
,
0010
0010
0100
0001
1001
0000
0100
1000
,
1001
0000
0000
0001
0000
0100
0000
0010
0000
2000
0000
0000
,
3000
0000
1001
0000
1000
0100
0001
0000
,
1000
0010
0001
0100
0001
0100
1000
0001
,
0010
0000
1000
0000
0002
0000
0000
0003
1000
0000
0100
0000
0001
0000
0100
0000
,
1000
0100
0001
0000
1000
0010
0001
0100
,
1000
0100
0001
0000
1000
0010
1000
0010
,
0001
0010
0001
0010
1000
0010
0001
0010
,
1000
0100
0001
0000
0220
0000
0000
0000
,
0330
0000
0001
0010
0100
1000
0010
0100
,
0001
0010
0100
1000
0001
0100
0010
0100
,
1000
0100
0010
0100
0002
0000
0003
0000
,
1001
0000
0110
0000
1000
0001
0100
0000
,
0001
1000
0100
0000
1000
0001
0100
0000
,
0010
0010
0100
0001
0010
0100
1000
0000
,
0010
0100
0001
0000
0010
0100
1000
0000
,
0001
0010
0001
0010
0100
1000
0010
0000
,
0100
0001
0010
0000
0100
1000
0010
0000
,
0100
0100
0010
1000
0001
0010
0100
1000
,
0001
0000
0000
0001
0000
0000
1000
0000
0000
1001
0000
0000
0110
0000
0000
1001
,
0000
1002
1003
0010
1000
0001
0100
1000
,
0100
0002
0000
0100
0103
0000
0001
0100
,
0010
1000
0001
0010
0001
1000
0100
0001
,
0100
2000
0000
0100
3100
0000
1000
0100
,
0010
0001
0100
0010
0100
0010
1000
0001
,
1000
0001
0100
0010
0100
0010
0001
1000
,
0001
1000
0100
0001
1000
0100
0001
0100
,
0001
0100
0020
0000
0000
0000
0000
0000
,
0000
0200
0000
0000
,
0000
0000
0000
0330
,
0000
1100
0010
0001
,
0100
0001
1000
0100
,
1000
0101
0010
1000
,
0100
0000
1000
0000
0001
0100
0010
0100
,
0001
0000
1001
0000
1000
0100
0010
0100
,
1000
0000
1001
0000
0001
0100
0010
0100
,
0001
0000
1000
0100
0010
0001
1000
0100
,
0010
0001
0000
0000
0000
0000
0000
0000
,
0000
0000
0001
0100
1000
0100
0001
0100
,
1000
0100
0001
0010
0100
0001
1000
0010
,
0100
1000
0010
0001
0010
1000
0010
0001
,
0010
1000
0001
0100
0010
1000
0200
0000
,
0000
0000
1300
0100
0010
1000
0010
0100
,
1000
0001
1000
0010
0100
1000
0100
0010
,
1000
0001
1000
0100
0001
1000
0010
0100
,
1000
0010
0001
1000
0100
0010
1000
0100
,
0010
0001
1001
0000
0000
0110
0000
0000
,
2002
0000
0000
3000
,
0000
0000
0000
0003
;

//---------------dance-single - ----------------
#NOTEDATA:;
#CHARTNAME:;
#STEPSTYPE:dance-single;
#DESCRIPTION:;
#CHARTSTYLE:;
#DIFFICULTY:Easy;
#METER:12;
#RADARVALUES:0.645212,0.904946,0.499736,0.330014,0.018858,479.000000,426.000000,53.000000,35.000000,0.000000,0.000000,0.000000,0.000000,0.000000,0.645212,0.904946,0.499736,0.330014,0.018858,479.000000,426.000000,53.000000,35.000000,0.000000,0.000000,0.000000,0.000000,0.000000;
#CREDIT:;
#OFFSET:0.220693;
#BPMS:0.000000=220.000000
,96.000000=110.000000
,98.000000=220.000000
,130.000000=110.000000
,144.000000=220.000000
,267.000000=110.000000
,275.000000=220.000000
,305.000000=110.000000
,307.000000=220.000000
;
#STOPS:2.000000=1.090909
,144.000000=0.818179
,169.000000=1.636363
;
#DELAYS:;
#WARPS:;
#TIMESIGNATURES:0.000000=4=4
;
#TICKCOUNTS:0.000000=4
;
#COMBOS:0.000000=1
;
#SPEEDS:0.000000=1.000000=0.000000=0
;
#SCROLLS:0.000000=1.000000
,302.500000=0.000000
,305.000000=1.000000
,345.000000=0.000000
,348.937500=10.000000
,349.000000=1.000000
;
#FAKES:;
#LABELS:0.000000=Song Start
;
#NOTES:
0000
0000
0000
0000
,
1000
0010
0000
1000
0010
0000
1000
0010
,
0000
0010
2002
3003
,
0001
0010
0000
0001
0010
0000
0001
0010
,
0000
0010
2002
3003
,
0001
0100
0001
1000
,
0100
1000
0001
0100
,
0001
1000
0001
1000
0100
0010
0001
1000
,
0000
0100
0010
0000
0022
0000
0033
0000
,
0001
0010
0001
0000
0001
0010
0001
0000
,
0001
0010
0001
0000
0101
0000
1010
0000
,
1000
0010
1000
0000
1000
0010
1000
0000
,
1000
0010
1000
0000
0110
0000
1001
0000
,
0001
1000
0100
0000
1000
0001
0100
0000
,
0001
1000
0100
0000
0110
0000
0110
0000
,
0010
0001
1000
0001
0100
0000
0100
0000
,
0002
0203
0320
2030
,
3001
0010
0001
0000
1000
0000
0001
0100
,
0000
0001
0100
0000
1010
0000
1010
0000
,
1000
0010
1000
0000
0001
0000
1000
0100
,
0000
1000
0100
0000
0011
0000
1100
0000
,
0001
0010
0001
0000
0001
0100
0001
0000
,
1000
0010
1000
0000
1000
0100
1000
0000
,
0001
0100
0010
0000
1000
0100
0010
0000
,
0220
0000
0000
0330
0001
0010
0001
0010
,
0001
0010
0001
0000
0011
0000
0000
0011
,
0000
0000
0011
0000
1000
0010
1000
0010
,
1000
0010
1000
0000
0100
0000
0100
0000
,
1001
0000
0110
0000
1000
0001
1000
0001
,
1000
0001
0100
0000
1010
0000
0000
1010
,
0000
0000
1010
0000
0001
0010
0001
0010
,
0200
0000
2300
0000
3010
1000
0010
1000
,
0200
0000
0320
0000
0031
0100
0110
0100
,
0001
0100
1010
0100
0001
0010
0110
0010
,
0001
0010
1100
0010
0001
0100
0110
0010
,
1000
0100
0110
0010
0001
0100
0010
1000
,
1001
0000
0001
0010
0001
0000
1100
0000
,
0011
0000
1000
0010
1000
0010
0100
0000
,
1010
0000
0001
1000
0100
0000
1000
0001
,
0100
0000
0000
0001
0000
1000
0000
0001
0000
2000
0000
0000
,
3000
0000
1001
0000
1000
0100
0010
0000
,
0001
0100
0010
1000
0010
1000
0100
0000
,
0010
0000
0001
0000
0200
0300
0000
0000
0000
0000
0000
0000
0002
0000
0000
0000
,
0100
0100
0100
2003
,
0010
0000
0010
0000
0010
0000
3001
0010
,
0100
0000
1000
0010
0100
0000
0001
1000
,
0001
1000
0100
0010
0100
0000
0022
0000
,
0000
0000
0033
0000
0010
0001
0100
0000
,
0010
1000
0100
0000
0010
0001
1000
0001
,
1000
0001
0010
0001
0100
0000
2020
0000
,
3030
0000
1001
0000
0110
0000
1000
0010
,
1000
0000
1000
0010
1000
0000
1000
0010
,
1000
0000
1100
0000
0011
0000
0001
0010
,
0001
0000
0001
0010
0001
0000
0001
0010
,
0001
0000
0110
0000
1001
0000
1000
0001
,
0100
0000
0001
1000
0100
0000
1000
0001
,
0100
0000
0110
0000
0110
0000
0010
1000
,
0001
0000
1000
0000
0100
0000
0000
0000
0000
0000
0000
0000
0000
2000
0000
0000
,
3200
0000
0000
0320
0000
0000
0032
0000
0000
0003
0000
0000
1000
0000
0010
0000
,
1000
0000
0001
0000
1000
0100
0000
1000
,
0100
0000
0011
0000
0011
0000
0001
0010
,
0001
0000
1000
0000
0001
0100
0000
0001
,
0100
0000
1010
0000
0101
0000
1000
0010
,
1000
0000
1000
0100
1000
0000
0001
0010
,
0001
0000
0001
0100
0001
0000
1000
0100
,
0010
0000
0001
0100
0010
0000
2000
0000
,
0000
0000
0000
0002
,
0000
0000
0000
0000
,
0000
3003
0000
0001
,
0001
1000
1000
0001
,
1000
0001
1000
0001
,
0010
0001
1000
0010
,
1000
0001
0010
0110
,
0000
1000
0010
0110
,
0000
0001
0010
0220
,
0330
0000
1000
0100
0010
0001
0000
0000
,
0000
0000
0000
0000
0000
0000
0001
0100
,
0010
0000
0100
0010
1000
0000
0001
0100
,
0001
0100
0010
1000
0001
0000
1000
0100
,
0010
0000
0100
0010
0001
0000
1000
0100
,
0010
0001
2000
0000
3000
0000
0010
1000
,
0001
0000
0010
0001
1000
0000
0010
1000
,
0100
0000
0010
0001
0100
0000
0010
1000
,
0010
1000
0100
0010
0001
0000
1000
0100
,
0010
0001
0100
0010
1000
0000
1001
0000
,
0000
0110
0000
0000
2002
0000
0000
0000
,
0000
3000
0000
0000
,
0000
0003
0000
0000
;

//---------------dance-single - ----------------
#NOTEDATA:;
#CHARTNAME:;
#STEPSTYPE:dance-single;
#DESCRIPTION:;
#CHARTSTYLE:;
#DIFFICULTY:Beginner;
#METER:8;
#RADARVALUES:0.369077,0.457306,0.207438,0.367730,0.000000,274.000000,252.000000,22.000000,39.000000,0.000000,0.000000,0.000000,0.000000,0.000000,0.369077,0.457306,0.207438,0.367730,0.000000,274.000000,252.000000,22.000000,39.000000,0.000000,0.000000,0.000000,0.000000,0.000000;
#CREDIT:;
#OFFSET:0.220693;
#BPMS:0.000000=220.000000
;
#STOPS:;
#DELAYS:;
#WARPS:;
#TIMESIGNATURES:0.000000=4=4
;
#TICKCOUNTS:0.000000=4
;
#COMBOS:0.000000=1
;
#SPEEDS:0.000000=1.000000=0.000000=0
;
#SCROLLS:0.000000=1.000000
;
#FAKES:;
#LABELS:0.000000=Song Start
;
#NOTES:
0000
0000
0000
0000
,
0000
0000
0000
0000
,
1010
0000
0000
1010
0000
0000
1010
0000
,
0000
0000
2002
3003
,
0011
0000
0000
0011
0000
0000
0011
0000
,
0000
0000
2002
3003
,
0001
0001
0100
0000
,
1000
1000
0100
0000
,
0001
0000
1000
0000
0001
0000
0000
1001
,
0000
1001
0020
0030
,
0001
0000
0001
0000
,
0001
0000
0010
0100
,
1000
0000
1000
0000
,
1000
0000
0010
0100
,
0001
0000
1000
0000
,
0001
0000
1000
1000
,
0100
0010
0001
0000
,
2000
3002
2003
3002
,
1003
1000
0010
0000
,
1000
0010
0202
0303
,
0001
0001
0010
0000
,
0001
0010
2200
3300
,
1000
1000
0001
0000
,
0001
0001
1000
0000
,
1000
0001
0100
0010
,
2002
0000
3003
0000
,
0001
0010
1000
0010
,
0001
0000
0000
0001
0000
0000
0001
0000
,
1000
0010
0001
0010
,
1000
0001
1000
0000
,
1000
0100
0001
0010
,
1000
0000
0000
1000
0000
0000
1000
0000
,
0001
0010
0200
0300
,
1000
0010
0200
0300
,
0001
0000
0010
0000
,
0001
0010
0001
0000
,
1000
0000
0010
0000
,
1000
0010
1000
0000
,
0001
0000
0010
0000
,
0100
1000
0010
0000
,
0100
0001
0010
0000
,
2002
0000
3003
0000
,
0001
0001
0100
0001
,
1000
1000
0100
1000
,
0002
0003
0002
0003
,
0001
0100
0020
0030
,
1000
1000
0100
0100
,
0010
0001
0100
0010
,
2000
0000
0000
0000
,
0000
0000
3000
0000
,
2000
0100
3100
0000
,
0002
0010
0013
0000
,
1000
1000
0010
0010
,
0100
0001
0100
0000
,
2002
0000
3003
0000
,
1000
0100
0010
0001
,
0010
0100
1000
0010
,
0002
0003
0001
0010
,
1000
0000
1000
0000
,
1000
0000
0010
0100
,
0001
0000
0001
0000
,
0001
0000
0010
0100
,
1000
0000
0001
0000
,
1000
0000
0001
0001
,
0100
0010
1000
0000
,
2002
0000
0000
0000
0000
3003
0000
0000
,
0001
0001
0010
0000
,
0001
0010
2200
3300
,
1000
1000
0010
0000
,
1000
0010
0202
0303
,
0001
0001
1000
0000
,
1000
1000
0001
0000
,
0001
1000
0100
0010
,
0001
0000
0000
0000
,
2002
0000
0000
0000
,
0000
0000
0000
0000
,
0000
0000
0000
0000
,
3003
0000
0000
0000
,
0001
0000
1000
0000
,
0001
0000
1000
0000
,
0100
0000
0010
0000
,
0001
0000
1000
0010
,
0100
0000
0001
0010
,
0100
0000
1000
0010
,
0200
0000
0001
0301
,
0000
0000
0000
0000
,
0000
0000
0001
0100
,
0001
0100
0010
1000
,
0001
1000
0010
0100
,
0010
0100
0001
1000
,
0100
0000
1000
0100
,
1000
0100
0001
0010
,
0001
0010
1000
0100
,
0001
0100
1000
0001
,
0100
0000
0000
0000
1001
0000
0000
1001
,
0000
2002
0000
0000
,
3000
0000
0000
0000
,
0003
0000
0000
0000
;
