#VERSION:0.83;
#TITLE:Will U Take Me;
#ARTIST:Tony Hadley;
#GENRE:Eurodance Pop;
#CREDIT:B. M'Rey;
#MUSIC:Will U take me.ogg;
#BANNER:Will U take me-bn.png;
#BACKGROUND:Will U take me-bg.png;
#CDTITLE:./CDTITLES/Mix Mania Vol 11.PNG;
#SAMPLESTART:70.131;
#SAMPLELENGTH:15;
#OFFSET:-0.438;
#BPMS:0.000=136.949;

//--------------- dance-single - B. M'Rey ----------------
#NOTEDATA:;
#STEPSTYPE:dance-single;
#DESCRIPTION:B. M'Rey;
#CREDIT:B. M'Rey;
#DIFFICULTY:Beginner;
#METER:2;
#RADARVALUES:0.066064,0.083649,0,0.020402,0,68,68,0,3,0,0,0.066064,0.083649,0,0.020402,0,68,68,0,3,0,0;
#NOTES:
0000
0000
0000
0000
,
0000
0000
0000
0000
,
0000
0000
0000
0000
,
0000
0000
0000
0000
,
0000
0000
0000
0000
,
0000
0000
0000
0000
,
0000
0000
0000
0000
,
0000
0000
0000
0010
,
0000
0000
0000
0000
,
0000
0000
0000
0001
,
0000
0000
0000
0000
,
0000
0000
0000
0100
,
0000
0000
0000
0000
,
0000
0000
0000
1000
,
0000
0000
0000
1000
,
0000
0000
0000
0100
,
0000
0001
0000
1000
,
0000
0100
0000
0001
,
0000
1000
0000
0010
,
0000
0000
0000
0001
,
0000
0100
0000
0010
,
0000
0001
0000
0100
,
0000
1000
0000
0010
,
0000
0000
0000
0001
,
0000
0010
0000
1000
,
0000
0001
0000
0100
,
0000
0010
0000
1000
,
0000
0000
0000
0001
,
0000
1000
0000
0100
,
0000
0001
0000
0010
,
0000
0000
0000
0000
,
0000
0000
0000
0010
,
0000
0000
0000
1000
,
0000
0000
0000
0100
,
0000
0000
0000
0001
,
0000
0000
0000
0010
,
0000
0000
0000
1000
,
0000
0000
0000
0100
,
1000
0000
0000
0000
,
0000
0000
0000
0001
,
0000
0000
0000
0010
,
0000
0000
0000
0001
,
0000
1000
0000
0100
,
0000
0001
0000
0010
,
0000
0000
0000
1000
,
0000
0000
0000
0001
,
0000
1000
0000
0010
,
0000
0000
0000
1001
,
0000
0000
0000
0000
,
0000
0000
0000
0000
,
0000
0000
0000
0000
,
0000
0000
0000
0110
,
0000
0000
0000
0000
,
0000
0000
0000
0000
,
0000
0000
0000
0000
,
0000
0000
0000
0101
,
0000
0000
0000
1010
,
0000
0000
0000
1000
,
0000
0000
0000
1000
,
0000
0000
0000
0001
,
0000
0000
0000
0100
,
0000
0000
0000
0010
,
0000
0000
0000
0001
,
0000
0000
0000
1000
,
0000
0000
0000
0100
,
0000
0000
0000
0001
,
0000
0000
0000
0010
,
0000
0000
0000
0001
,
0000
0000
0000
1000
,
0000
0000
0000
0100
,
0000
1000
0000
0001
,
0000
0100
0000
0010
,
0000
0000
0000
0001
,
0000
0000
0000
0001
,
0000
0000
0000
0010
,
0000
0000
0000
0001
,
0000
1000
0000
0100
,
0000
0001
0000
0010
,
0000
0000
0000
1000
,
0000
0000
0000
0001
,
0000
1000
0000
0010
,
0000
0000
0000
1001
;

//--------------- dance-single - B. M'Rey ----------------
#NOTEDATA:;
#STEPSTYPE:dance-single;
#DESCRIPTION:B. M'Rey;
#CREDIT:B. M'Rey;
#DIFFICULTY:Easy;
#METER:4;
#RADARVALUES:0.123385,0.167298,0.006801,0.163218,0,127,126,1,24,0,0,0.123385,0.167298,0.006801,0.163218,0,127,126,1,24,0,0;
#NOTES:
0000
0000
0000
0000
,
0000
0000
0000
0000
,
0000
0000
0000
0000
,
0000
0000
0000
0000
,
0000
0000
0000
0000
,
0000
0000
0000
0000
,
0000
0000
0000
0000
,
0000
0000
0000
0200
,
0000
0000
0000
0000
,
0000
0301
0000
2000
,
0000
0000
0000
0000
,
0000
3010
0000
0200
,
0000
0000
0000
0000
,
0000
1300
0000
0200
,
0000
0000
0000
0301
,
0000
0000
0000
0001
,
0100
0001
1000
0010
,
1000
0000
0010
0001
,
0000
0010
0000
0001
,
1000
0100
1000
0000
,
0010
0001
1000
0001
,
0100
0001
0000
0001
,
0010
0000
0010
0001
,
0000
0100
0000
0001
,
0100
0010
0000
0001
,
0100
0010
0000
0010
,
0000
0100
0000
0010
,
0100
0010
0000
0100
,
0000
0100
1000
0100
,
0000
0100
0000
2000
,
0000
0000
0000
3001
,
0000
0000
0000
0002
,
0000
0103
0000
0020
,
0000
1030
1000
0001
,
0000
0010
0000
0100
,
0000
0010
0100
1000
,
0000
0002
0000
0023
,
0000
0230
0000
0301
,
2000
0000
0000
3000
,
0001
0010
0000
0100
,
0100
0100
0000
0001
,
0001
0001
0000
1000
,
0000
0010
0000
0100
,
0000
0010
0000
0001
,
0001
0001
0000
0100
,
0100
0100
0000
0010
,
0000
1000
0000
0100
,
0000
0000
0000
1001
,
0000
0000
0000
0000
,
0000
0000
0000
0000
,
0000
0000
0000
0000
,
0001
0010
0100
1010
,
0000
0000
0000
0000
,
0000
0000
0000
0000
,
0000
0000
0000
0000
,
0000
1000
0100
0010
,
0000
0001
0000
1001
,
0000
0000
0000
1000
,
0000
0001
0000
0010
,
0000
0100
0100
0100
,
0000
1000
0000
0010
,
0000
0001
0001
0001
,
0000
0010
0000
0100
,
0000
0010
0010
0010
,
1000
0000
0001
0000
,
0100
0000
0010
1000
,
0000
0100
0000
1000
,
0000
0100
0000
1000
,
0000
0010
0000
0100
,
0000
0001
0000
0010
,
0010
0100
0100
1000
,
1000
0001
0001
0010
,
0010
0100
0100
1001
,
0000
0000
0000
0100
,
0100
0100
0000
0001
,
0001
0001
0000
1000
,
0000
0010
0000
0100
,
0000
0010
0000
0001
,
0001
0001
0000
0100
,
0100
0100
0000
0010
,
0000
1000
0000
0100
,
0000
0000
0000
1001
;

//--------------- dance-single - B. M'Rey ----------------
#NOTEDATA:;
#STEPSTYPE:dance-single;
#DESCRIPTION:B. M'Rey;
#CREDIT:B. M'Rey;
#DIFFICULTY:Medium;
#METER:7;
#RADARVALUES:0.22831,0.27883,0.047605,0.081609,0,235,228,7,12,0,0,0.22831,0.27883,0.047605,0.081609,0,235,228,7,12,0,0;
#NOTES:
0000
0000
0000
0000
,
0000
0000
0000
0000
,
0000
0000
0000
0000
,
0000
0000
0000
0000
,
0000
0000
0000
0000
,
0000
0000
0000
0000
,
0000
0000
0000
0000
,
0000
0000
0000
2000
,
0000
0000
0000
0000
,
0000
0000
3010
0000
0100
0000
0000
0001
0000
0000
0010
0000
2000
0000
0000
0000
,
0000
0000
0000
0000
,
0000
0000
3010
0000
0100
0000
0000
0001
0000
0000
0010
0000
2000
0000
0000
0000
,
0000
0000
0000
0000
,
0000
0000
3010
0000
0100
0000
0000
0010
0000
0000
0001
0000
2000
0000
0000
0000
,
0000
0000
0000
3100
,
0010
0001
1000
1001
,
0010
0100
0000
0010
0000
1000
0000
0010
,
0000
1000
0000
0100
1000
0000
0001
0100
,
0000
0010
0000
0100
0001
0000
0010
0000
,
0100
0000
1000
0100
0000
0010
0000
0000
,
0001
0010
0000
0001
0000
0010
0000
0001
,
0000
0100
0000
0001
0000
0000
1000
0010
,
0000
0100
0000
0001
0000
0100
0010
0000
,
1000
0100
0010
0001
,
0100
0010
0000
0100
0000
0010
0000
1000
,
0000
0100
0000
0010
0001
0000
0100
0000
,
0010
0100
0010
1000
,
0001
0000
0010
0100
0000
0010
0000
0000
,
0001
0000
0100
0010
0000
1000
0000
0100
,
0000
0010
0000
0000
0001
0000
2000
0000
,
0000
0020
0000
3030
,
0000
0000
0000
0001
,
1000
1000
0000
0010
,
0100
0100
0000
1000
,
0001
0001
0000
0010
,
0100
0100
0001
0001
,
0000
1000
1000
0100
,
0000
0010
0000
2000
,
0002
0000
0000
0000
,
3003
0100
0000
0100
0000
0000
0000
0100
,
0000
0010
0000
0001
0000
0100
0000
0010
,
0000
0100
0000
0001
0000
1000
0100
1000
,
0000
0010
0000
0001
0000
1000
0000
0010
,
0000
0100
0000
0001
0000
0000
0000
0010
,
0000
1000
0000
0001
0000
0100
0000
0010
,
0000
1000
0000
0001
0010
0000
0100
1000
,
0000
1000
0000
0010
0000
1000
0100
0000
,
1000
0100
0010
1001
,
0001
0010
0000
0100
0000
0010
0000
0000
,
1000
0100
0000
1000
0000
0010
0000
0100
,
0001
0010
0000
1000
0000
0000
0000
0000
,
0100
0100
0100
1001
,
0001
0100
0000
0010
0000
1000
0000
0100
,
0000
0010
1000
0100
,
0000
0001
0000
0010
0001
0010
0000
0000
,
0000
0100
1000
0010
,
0000
0100
0000
0000
0002
0000
0000
0000
,
0000
0000
1000
1003
,
1000
0001
0001
0010
,
0010
0000
0100
0001
0100
0001
0100
0000
,
1000
0010
0010
0100
,
0100
0000
0010
1000
0010
1000
0100
0000
,
0100
0010
0010
0001
,
0001
0000
0001
0010
0001
0010
0100
0000
,
0200
0000
0010
0001
,
0010
0001
0010
2300
,
0100
0100
0010
0010
,
0100
0100
0010
3002
,
1000
1000
0100
0100
,
1000
1003
0010
0001
,
0010
0100
0010
0001
,
1000
0000
0001
0010
0001
0010
0200
0000
,
0010
0010
0010
0310
,
0001
0000
0010
0000
0100
0000
1000
0100
,
0000
0010
0000
0001
0000
0100
0000
0010
,
0000
0100
0000
0001
0000
1000
0100
1000
,
0000
0010
0000
0001
0000
1000
0000
0010
,
0000
0100
0000
0001
0000
0000
0000
0010
,
0000
1000
0000
0001
0000
0100
0000
0010
,
0000
1000
0000
0001
0010
0000
0100
1000
,
0000
1000
0000
0010
0000
1000
0100
0000
,
0000
0000
0000
0110
;

//--------------- dance-single - B. M'Rey ----------------
#NOTEDATA:;
#STEPSTYPE:dance-single;
#DESCRIPTION:B. M'Rey;
#CREDIT:B. M'Rey;
#DIFFICULTY:Hard;
#METER:11;
#RADARVALUES:0.447877,0.55766,0.197221,0.285631,0.173419,461,432,29,42,0,1,0.447877,0.55766,0.197221,0.285631,0.173419,461,432,29,42,0,1;
#NOTES:
0000
0000
0000
0000
,
0000
0000
0000
0000
,
0000
0000
0000
0000
,
0000
0000
0000
0000
,
0000
0000
0000
0000
,
0000
0000
0000
0000
,
0000
0000
0000
0000
,
0000
0000
0000
0000
0000
0000
0002
0010
,
0000
0010
0000
0000
0010
0000
0010
0000
0000
0010
0000
0000
0010
0000
0010
0000
,
0000
0000
0103
0000
1000
0000
0000
0100
0000
0000
0010
0000
0002
0000
1000
0000
,
0000
1000
0000
0000
1000
0000
1000
0000
0000
1000
0000
0000
1000
0000
1000
0000
,
0000
0000
1003
0000
0100
0000
0000
0010
0000
0000
0001
0000
0020
0000
0100
0000
,
0000
0100
0000
0000
0100
0000
0100
0000
0000
0100
0000
0000
0100
0000
0100
0000
,
0000
0000
1030
0000
0100
0000
0000
0010
0000
0000
0001
0000
0020
0000
0000
0000
,
0000
0000
0000
2030
,
3200
0320
0032
0013
,
0001
0100
0000
0100
0000
1000
0010
1000
,
0000
0100
0000
1000
0001
0000
0001
0100
,
0000
0100
0000
0100
0001
0000
0001
0010
,
0100
0000
0100
1000
0100
0010
0001
0000
,
0001
0100
0001
1000
0000
0100
0000
1000
,
0100
0010
0000
0100
0000
1000
0001
1000
,
0000
0010
0000
0010
0100
0000
0001
0100
,
0000
0011
0000
1010
0000
1001
0000
0010
,
0001
0010
0000
0010
0000
0100
0000
0100
,
0001
0100
0000
1000
0010
0000
0002
0000
,
0013
0100
0000
1000
0010
0000
0010
0000
,
0001
0000
0001
0010
0000
0100
0010
0000
,
0010
0100
0001
0010
0000
0100
0000
0010
,
0100
1000
0000
1000
0010
0000
0200
0000
,
0000
0320
0000
0032
,
1000
0000
1000
0000
1000
0003
0001
1000
,
0010
0000
0000
1000
0000
0000
0100
0000
0000
0000
0100
0000
0001
0000
0000
0000
,
0010
0000
0000
1000
0000
0000
1000
0000
0010
0000
0000
0000
0001
0000
0010
0000
,
0001
0000
0000
0100
0000
0000
0100
0000
0010
0000
0000
0000
0100
0000
0000
0000
,
0010
0100
0000
0100
0001
0000
0001
0100
,
0010
0000
0000
1000
0000
0000
1000
0000
0010
0000
0100
0000
0001
0000
0000
0000
,
0001
1000
0001
0000
0010
0100
0001
0000
,
0200
0000
0000
0000
0000
0000
0310
1000
,
0001
0010
0000
0100
0000
0000
0001
1000
,
0100
1000
0001
0100
0001
0100
0001
0010
,
0100
0010
0100
0010
0001
1000
0001
1000
,
0001
0100
0010
0100
0010
0100
0001
0010
,
0001
0010
0001
0100
0010
1000
0010
1000
,
0010
0100
0001
0100
0010
0100
0001
1000
,
0001
1000
0100
1000
0001
0100
0001
0100
,
0001
1000
0100
0010
0100
0010
0100
1000
,
0010
0100
0001
0010
0001
0010
0010
0000
,
0100
1000
0000
0100
0000
0020
0000
0000
,
0031
1000
0000
0100
0000
0001
0000
0010
,
0001
0010
0000
0002
0000
0000
0003
0000
,
2000
3200
0320
0032
,
1003
0100
0000
0010
0000
0001
0000
1000
,
0000
0100
0010
0002
,
0000
1003
0000
0100
0010
0100
0010
0000
,
0000
0001
2000
3200
,
0000
0320
0000
0000
0032
0000
0000
0000
,
0000
0000
0000
0000
1003
0000
0001
1000
,
0000
0001
0000
0000
0001
0000
0010
0000
0000
0100
0000
0000
0001
0000
0010
0000
,
0000
0001
0000
0000
0001
0000
1000
0000
0000
0010
0000
0000
0010
0000
0100
0000
,
0000
0010
0000
0000
0100
0000
1000
0000
0000
0100
0000
0000
0001
0000
0010
0000
,
0000
0100
0000
0000
0100
0000
0010
0000
0000
0001
0000
0000
0001
0000
1000
0000
,
0000
0100
0000
0000
0100
0000
0010
0000
0000
0100
0000
0000
0001
0000
0010
0000
,
0000
0001
0000
0000
0001
0000
0100
0000
0000
0010
0000
0000
0010
0000
1000
0000
,
0010
0100
0001
1000
0001
0100
0001
0010
,
0100
0010
0100
1000
0100
1000
0001
1000
,
0100
0010
0100
1000
0100
1000
0010
1000
,
0010
0100
0010
0100
0001
0100
0001
0010
,
0001
0010
0100
0010
0001
1000
0100
1000
,
0100
1000
0001
0100
0010
1000
0010
1000
,
0010
0100
0001
0100
0001
0100
0010
1000
,
0001
1000
0001
0100
0001
1000
0010
0100
,
0010
0000
0100
0000
0010
0000
1000
0000
0100
0000
1000
0000
0100
0000
1000
0010
,
1000
0000
0100
0010
0100
0000
1000
0010
1000
0000
1000
0000
0001
0000
1000
0000
,
0001
1000
0001
0010
0100
0010
0100
0010
,
0001
1000
0010
1000
0001
1000
0001
0100
,
0001
0010
0100
1000
0100
1000
0001
1000
,
0001
0010
0001
1000
0100
0010
0100
0010
,
0100
1000
0001
1000
0001
1000
0100
0010
,
0100
0010
0100
1000
0001
1000
0001
1000
,
0010
0100
0010
0100
0010
1000
0100
0000
,
0010
0001
0010
1001
;

//--------------- dance-single - B. M'Rey ----------------
#NOTEDATA:;
#STEPSTYPE:dance-single;
#DESCRIPTION:B. M'Rey;
#CREDIT:B. M'Rey;
#DIFFICULTY:Challenge;
#METER:14;
#RADARVALUES:0.515884,0.920139,0.081609,0.061207,0.323035,531,519,12,9,36,0,0.515884,0.920139,0.081609,0.061207,0.323035,531,519,12,9,36,0;
#NOTES:
0000
0000
0000
0000
,
0000
0000
0000
0000
,
0000
0000
0000
0000
,
0000
0000
0000
0000
,
0000
0000
0000
0000
,
0000
0000
0000
0000
,
0000
0000
0000
0000
,
0000
0000
0000
0000
0000
0000
0001
1000
,
0000
0001
0000
0000
0100
0000
1000
0000
0000
0100
0000
0000
0001
0000
0010
0000
,
0000
0001
0000
0000
0100
0000
1000
0000
0000
0100
0000
0000
0001
0000
0010
0000
,
0000
0001
0000
0000
0010
0000
1000
0000
0000
0010
0000
0000
0001
0000
0100
0000
,
0000
0001
0000
0000
0010
0000
1000
0000
0000
0100
0000
0000
0001
0000
1000
0000
,
0000
0001
0000
0000
0001
0000
0010
0000
0000
0100
0000
0000
0100
0000
1000
0000
,
0000
0001
0000
0000
0001
0000
0010
0000
0000
0001
0000
0000
0100
0000
1000
0000
,
0000
0100
0000
0000
0001
0000
0100
0000
0000
0001
0000
0000
0010
0000
0001
1000
,
0001
0000
0010
0100
0010
0000
0100
1000
0010
0000
0001
0100
0001
0000
0010
0000
,
0001
0010
0001
1000
0010
0100
0010
1000
,
0010
1000
0001
1000
0001
0100
0001
0010
,
0100
0010
0100
1000
0100
1000
0010
0100
,
0010
0100
0001
0010
0001
0010
0001
1000
,
0100
1000
0001
1000
0001
0010
0001
0010
,
0100
0010
0001
0100
0001
0100
0001
1000
,
0100
1000
0100
1000
0001
0010
0100
0010
,
0001
0000
0010
0000
0100
0000
1000
0000
0001
0000
1000
0001
1000
0000
0001
0000
,
0100
0000
0001
0000
1000
0100
0000
0100
1000
0000
0100
0000
0010
0000
0100
0000
,
1000
0000
0001
0000
0010
0100
0000
0100
0010
0000
0100
0000
0010
0000
0001
0000
,
0100
0000
0001
0000
0100
0010
0000
0010
0100
0000
0001
0000
1000
0000
0001
0000
,
1000
0000
0100
0000
0010
0100
0000
0100
1000
0000
0100
1000
0001
0000
0001
0000
,
0010
0000
0100
0000
0010
0100
0000
0100
0010
0000
0001
0000
0100
0000
0001
0000
,
0010
0000
0100
0000
1000
0010
0000
0010
1000
0000
0001
0000
1000
0000
0001
0000
,
0010
0001
0010
0100
0010
0001
1000
0001
,
1000
0001
0100
0010
0100
0001
1000
0010
,
1001
0000
0000
1001
0000
0000
0010
0000
1000
0000
0100
0000
1000
0000
0100
0000
,
0011
0000
0000
0011
0000
0000
0001
0000
0010
0000
0001
0000
0100
0000
0001
0000
,
0110
0000
0000
0110
0000
0000
1000
0000
0100
0000
1000
0000
0010
0000
0001
0000
,
1100
0000
0000
1100
0000
0000
0010
0000
0100
0000
0010
0000
0001
0000
0100
0000
,
1001
0000
0000
1001
0000
0000
0010
0000
0100
0000
1000
0000
0001
0000
1000
0000
,
0011
0000
0000
0011
0000
0000
0100
0000
0010
0000
0001
0000
1000
0100
1000
0100
,
1000
0100
1000
0100
1000
0100
1000
0100
1000
0100
1000
0100
1000
0010
1000
0010
,
1000
0010
1000
0010
1000
0010
1000
0010
1000
0000
0000
0000
0100
0000
0010
1000
,
0010
0000
0100
0010
0100
0000
0001
1000
0001
0000
0001
0010
0100
0000
0100
1000
,
0100
0000
0010
1000
0010
0000
0010
0100
0001
0000
0001
1000
0010
0000
0010
1000
,
0001
0000
0001
0100
0001
0000
0100
0010
0100
0000
0100
1000
0010
0000
0100
0010
,
0100
0000
0100
1000
0001
0000
0100
1000
0100
0000
0100
0010
0001
0000
0001
1000
,
0100
0000
0100
1000
0100
0000
0010
1000
0010
0000
0010
0100
0001
0000
0001
1000
,
0001
0000
0100
0010
0100
0000
0100
1000
0010
0000
0001
0100
0010
0000
0010
1000
,
0010
0000
0100
1000
0100
0000
0100
1000
0001
0000
0001
0100
0001
0000
0100
1000
,
0100
0000
0001
0100
0001
0000
0010
0100
0010
0000
0010
0000
200M
0000
0000
0000
,
00M0
000M
0M00
00M0
,
000M
0M00
00M0
000M
,
0M00
00M0
0M00
000M
,
3200
0320
0032
0023
,
000M
M000
0M00
000M
,
M000
M000
000M
000M
,
M000
M000
000M
000M
,
000M
M000
M000
M23M
,
00M0
2300
0M00
0000
320M
0000
00M0
0000
,
M000
0000
0000
0000
000M
0000
0000
0000
0320
0000
0000
0000
0031
0000
0001
0010
,
0000
0100
0010
0000
0010
0000
0001
1000
0000
0010
0100
0000
0100
0000
0001
1000
,
0000
0100
0001
0000
0010
0000
0010
1000
0000
1000
0001
0000
0001
0000
0001
0010
,
0000
0010
0001
0000
0001
0000
0010
1000
0000
0100
0010
0000
0001
0000
0001
0010
,
0000
0010
0100
0000
0100
0000
0001
0010
0000
0010
0001
0000
0100
0000
0100
1000
,
0000
0100
0001
0000
0010
0000
0010
1000
0000
1000
0001
0000
0001
0000
0001
1000
,
0000
1000
0100
0000
0001
0000
0001
0010
0000
1000
0100
0000
0100
0000
0001
1000
,
0000
0010
0001
0000
0100
0000
0100
1000
0000
1000
0001
0000
0010
0000
0001
0100
,
0000
0100
0010
0000
1000
0000
0010
0001
0000
0100
0001
0000
0001
1000
0001
0010
,
0001
0010
0001
0010
0001
0010
0100
0010
0100
1000
0100
1000
0001
1000
0001
1000
,
0001
1000
0001
0010
0001
0010
0100
0010
0100
0010
0100
0010
0100
1000
0001
1000
,
0001
1000
0001
1000
0010
1000
0010
0100
0010
0100
0010
0100
0010
0100
0001
0010
,
0001
0010
0001
0010
0001
0010
0001
0010
0100
1000
0001
1000
0001
0000
1000
0000
,
0000
0001
0000
0000
0100
0000
1000
0000
0000
0100
0000
0000
0001
0000
0010
0000
,
0000
0001
0000
0000
0100
0000
1000
0000
0000
0100
0000
0000
0001
0000
0010
0000
,
0000
0001
0000
0000
0010
0000
1000
0000
0000
0010
0000
0000
0010
0000
0001
1000
,
0001
0000
0010
0100
0010
0000
0100
1000
0010
0000
0001
0100
0001
0000
0010
1000
,
0010
0000
0100
0010
0100
0000
0001
1000
0001
0000
0001
0010
0100
0000
0100
1000
,
0100
0000
0010
1000
0010
0000
0010
0100
0001
0000
0001
1000
0010
0000
0010
1000
,
0001
0000
0001
0100
0001
0000
0100
0010
0100
0000
0100
1000
0010
0000
0100
0010
,
0100
0000
0100
1000
0001
0000
0100
1000
0100
0000
0100
0010
0001
0000
0001
1000
,
0100
0000
0100
1000
0100
0000
0010
1000
0010
0000
0010
0100
0001
0000
0001
1000
,
0001
0000
0100
0010
0100
0000
0100
1000
0010
0000
0001
0100
0010
0000
0010
1000
,
0010
0000
0100
1000
0100
0000
0100
1000
0001
0000
0001
0100
0001
0000
0100
1000
,
0100
0000
0001
0100
0001
0000
0010
0100
0010
0000
0010
0000
2002
0000
0000
0000
,
0000
3003
0000
0000
;
