#VERSION:0.83;
#TITLE:Will my heart Survive;
#ARTIST:Nightcore;
#GENRE:Nightcore;
#CREDIT:B. M'Rey;
#MUSIC:Will My Heart Survive.ogg;
#BANNER:Will my heart Survive-bn.png;
#BACKGROUND:Will my heart Survive-bg.png;
#CDTITLE:./CDTITLES/BMR Superstars.PNG;
#SAMPLESTART:73.748;
#SAMPLELENGTH:15;
#OFFSET:-0.046;
#BPMS:0=174.216;

//--------------- dance-single - B. M'Rey ----------------
#NOTEDATA:;
#STEPSTYPE:dance-single;
#DESCRIPTION:B. M'Rey;
#CREDIT:B. M'Rey;
#DIFFICULTY:Beginner;
#METER:3;
#RADARVALUES:0.128239,0.178268,0,0.021718,0,124,124,0,3,0,0,0.128239,0.178268,0,0.021718,0,124,124,0,3,0,0;
#NOTES:
0000
0000
0000
0000
,
0000
0000
0000
0000
,
0000
0000
0000
0000
,
0000
0000
0000
0000
,
0000
0000
0000
0000
,
0000
0000
0000
0000
,
0000
0000
0000
0000
,
0000
0000
0000
0000
,
0000
0000
2000
0000
,
0000
0000
0000
0000
,
0000
0000
0000
0000
,
0000
0000
0000
0000
,
0000
0000
0000
0000
,
0000
0000
0000
0000
,
0000
0000
0000
0000
,
0000
0000
0000
0000
,
0000
0000
3001
0000
,
0001
0000
1000
0000
,
0001
0000
0010
0000
,
0100
0000
0001
0000
,
0010
0000
1000
0000
,
0100
0000
0001
0000
,
0010
0000
0001
0000
,
0100
0000
0010
0000
,
1000
0000
0001
0000
,
0010
0000
1000
0000
,
0000
0000
0000
0000
,
0000
0000
0001
0000
,
0000
0000
0000
0000
,
0000
0000
0010
0000
,
0000
0000
0000
0000
,
0000
0000
0100
0000
,
0000
0000
0000
0000
,
0000
0000
1000
0000
,
0000
0000
0000
0000
,
0000
0000
0010
0000
,
0000
0000
0000
0000
,
0000
0000
0001
0000
,
0000
0000
1000
0000
,
0000
0000
0100
0000
,
0000
0000
0010
0000
,
0000
0000
0001
0000
,
0000
0000
1000
0000
,
0000
0000
0010
0000
,
0000
0000
0100
0000
,
0000
0000
0010
0000
,
0001
0000
1000
0000
,
0010
0000
0100
0000
,
0001
0000
0010
0000
,
0001
0000
1000
0000
,
0010
0000
0100
0000
,
0001
0000
1000
0000
,
0010
0000
2000
0000
,
0000
0000
3001
0000
,
0001
0000
0100
0000
,
0010
0000
1000
0000
,
0100
0000
0001
0000
,
0010
0000
0001
0000
,
0100
0000
0010
0000
,
1000
0000
0010
0000
,
0001
0000
0010
0000
,
0100
0000
0010
0000
,
1000
0000
0100
0000
,
0001
0000
0010
0000
,
0100
0000
0010
0000
,
1000
0000
0100
0000
,
0001
0000
0010
0000
,
0100
0000
0010
0000
,
1000
0000
0100
0000
,
1000
0000
0001
0000
,
0100
0000
0100
0000
,
0001
0000
0010
0000
,
0001
0000
1000
0000
,
0100
0000
1000
0000
,
0010
0000
0100
0000
,
0001
0000
0010
0000
,
0001
0000
0010
0000
,
1000
0000
1000
0000
,
0000
0000
0000
0000
,
0000
0000
0001
0000
,
0000
0000
0000
0000
,
0000
0000
0100
0000
,
0000
0000
0000
0000
,
0000
0000
0010
0000
,
0100
0000
0010
0000
,
0100
0000
0001
0000
,
0001
0000
0100
0000
,
0010
0000
1000
0000
,
0100
0000
0001
0000
,
0010
0000
0001
0000
,
0100
0000
0010
0000
,
1000
0000
0010
0000
,
0001
0000
0010
0000
,
0100
0000
0010
0000
,
1000
0000
0100
0000
,
0001
0000
0020
0000
,
0000
0000
0000
0000
,
0000
0000
0000
0000
,
0000
0000
0030
0000
;

//--------------- dance-single - B. M'Rey ----------------
#NOTEDATA:;
#STEPSTYPE:dance-single;
#DESCRIPTION:B. M'Rey;
#CREDIT:B. M'Rey;
#DIFFICULTY:Easy;
#METER:7;
#RADARVALUES:0.273025,0.463496,0,0.065154,0,264,264,0,9,0,0,0.273025,0.463496,0,0.065154,0,264,264,0,9,0,0;
#NOTES:
0000
0000
0000
0000
,
0000
0000
0000
0000
,
0000
0000
0000
0000
,
0000
0000
0000
0000
,
0000
0000
0000
0000
,
0000
0000
0000
0000
,
0000
0000
0000
0000
,
0000
0000
0000
0000
,
0000
0000
1000
0000
,
0000
0000
0001
0000
,
0000
0000
0010
0000
,
0000
0000
0100
0000
,
0000
0000
0001
0000
,
0000
0000
1000
0000
,
0000
0000
0010
0000
,
0000
0000
0200
0000
,
0000
0000
0010
0010
,
0310
0000
0001
1000
,
0001
1000
0001
1000
,
0001
1000
0100
0010
,
0100
0010
0100
0010
,
0100
0010
0001
0010
,
0001
0010
0001
0010
,
0001
0010
0100
0010
,
0100
0010
0100
0010
,
0100
1000
0200
0000
,
0000
0000
0000
0000
,
0000
0000
0302
0000
,
0000
0000
0000
0000
,
0000
0000
1003
0000
,
0010
0000
0001
0000
,
0000
0000
0001
0000
,
0100
0000
1000
0000
,
0000
0000
0100
0000
,
0010
0000
0100
0000
,
0000
0000
0001
0000
,
1000
0000
0001
0000
,
0000
0000
1000
0001
,
0010
0000
0100
0000
,
0010
1000
0100
0000
,
0010
0000
0001
0000
,
0010
0100
1000
0000
,
0100
0000
0001
0000
,
1000
0001
0100
0000
,
0010
0000
1000
0000
,
0001
1000
0010
0100
,
0100
0100
0010
0010
,
0010
0001
0001
0001
,
1000
1000
1000
0100
,
0001
0100
1000
0100
,
0001
0100
1000
0100
,
0001
0100
1000
0100
,
0001
0100
2000
0000
,
0000
0000
3001
0010
,
1000
0100
0010
1000
,
0001
0010
0100
0001
,
1000
0010
0100
0001
,
0010
1000
0010
0100
,
0001
0010
1000
0010
,
0100
0001
0010
1000
,
0010
1000
0010
0100
,
0010
0001
1000
0100
,
0010
1000
0010
0001
,
0100
0001
0010
0001
,
0100
1000
0010
0100
,
0010
1000
0010
0100
,
0001
0010
0001
0010
,
0100
1000
0010
0100
,
0010
1000
0001
0100
,
0010
0001
0001
1000
,
0001
1000
0001
1000
,
0001
1000
0100
0010
,
0100
0010
0100
0010
,
0100
0010
0001
0010
,
0001
0010
0001
0010
,
0001
0010
0100
0010
,
0100
0010
0100
0010
,
0100
1000
0200
0000
,
0000
0000
0000
0000
,
0000
0000
0302
0000
,
0000
0000
0000
0000
,
0000
0000
2003
0000
,
0000
0000
3020
0000
,
0000
0000
0031
0000
,
0100
0000
1000
0000
,
0010
0000
0001
0010
,
1000
0100
0010
1000
,
0001
0010
0100
0001
,
1000
0010
0100
0001
,
0010
1000
0010
0100
,
0001
0010
1000
0010
,
0100
0001
0010
1000
,
0010
1000
0010
0100
,
0010
0001
1000
0100
,
0010
1000
0010
0001
,
0100
0000
0001
0000
0010
1000
0001
0000
,
0100
0010
1000
0000
0010
0001
0100
0000
,
0010
0100
1000
0000
0020
0000
0000
0000
,
0000
0000
0030
0000
;

//--------------- dance-single - B. M'Rey ----------------
#NOTEDATA:;
#STEPSTYPE:dance-single;
#DESCRIPTION:B. M'Rey;
#CREDIT:B. M'Rey;
#DIFFICULTY:Medium;
#METER:8;
#RADARVALUES:0.35576,0.534803,0.028957,0.014479,0,344,340,4,2,0,0,0.35576,0.534803,0.028957,0.014479,0,344,340,4,2,0,0;
#NOTES:
0000
0000
0000
0000
,
0000
0000
0000
0000
,
0000
0000
0000
0000
,
0000
0000
0000
0000
,
0000
0000
0000
0000
,
0000
0000
0000
0000
,
0000
0000
0000
0000
,
0000
0000
0000
0000
,
0000
0000
1000
0000
,
0001
0000
0010
0000
,
0100
0000
0001
0000
,
1000
0000
0001
0010
,
1000
0100
0001
0000
,
0010
0000
1000
0000
,
0100
0000
0001
0000
,
0100
0000
0010
0000
,
1000
0000
0001
1000
,
0001
0000
1000
0000
0001
0100
1000
0000
,
0001
0000
1000
0000
0010
0100
0001
0000
,
0010
0000
1000
0000
0010
0100
0010
0000
,
0001
0000
1000
0000
0010
0100
0010
0000
,
1000
0000
0010
0000
0100
0001
0010
0000
,
1000
0000
0100
0000
0100
1000
0100
0000
,
0010
0000
0100
0000
0001
0010
0001
0000
,
0010
0000
0001
0000
0010
0100
0010
0000
,
0010
0100
0010
0000
1000
0000
0000
0000
,
0001
0000
0010
0000
,
0100
0000
0001
0000
,
1000
0000
0001
0000
,
0010
0000
1000
0000
,
0001
0000
0010
0000
,
0001
0000
0100
0000
,
0010
0000
1000
0000
,
0001
0000
0010
0000
,
1000
0000
0010
0000
,
0100
0000
0001
0000
,
0010
0000
0001
0000
,
1000
0000
0001
1000
,
0001
0000
0010
0000
,
0100
0000
1000
0010
,
0100
0000
0001
0000
,
0100
0000
0010
1000
,
0100
0000
0010
0000
,
0001
0000
0010
0100
,
0010
0000
1000
0000
,
0010
0000
0100
0001
,
0010
1000
0010
0100
,
0001
0010
1000
0010
,
0100
0010
1000
0001
,
0010
0100
0001
0100
,
0010
0001
0100
0010
,
1000
0100
1000
0010
,
0100
0001
2000
0000
,
0000
0000
0000
0000
3001
0010
0100
0000
,
1000
0000
0001
0000
0010
0100
0010
0000
,
1000
0000
0100
0000
1000
0100
1000
0000
,
0001
0000
0010
0000
0001
0010
0001
0000
,
0100
0001
0010
0000
0001
1000
0001
0000
,
0010
0000
0100
0000
1000
0100
1000
0000
,
0010
0000
0100
0000
0001
0010
0100
0000
,
1000
0000
0010
0000
0010
1000
0010
0000
,
0001
0010
0100
0000
0010
0100
0001
0000
,
0010
0000
1000
0000
0010
1000
0010
0000
,
0100
0000
0001
0000
0010
0100
0001
0000
,
0010
0000
1000
0000
0010
1000
0100
0000
,
0001
1000
0010
0000
0100
1000
0010
0000
,
0001
0000
0100
0000
0010
1000
0100
0000
,
0001
0000
0010
0000
0100
0001
1000
0000
,
0010
0100
0001
0000
0010
1000
0100
0000
,
0010
1000
0001
1000
,
0010
0100
0010
1000
,
0001
0010
0001
0100
,
0010
1000
0010
0100
,
0001
0010
0100
1000
,
0010
0100
0001
1000
,
0100
0010
0001
0010
,
0100
0010
1000
0010
,
0001
0100
0001
0000
,
0010
0000
1000
0000
,
0001
0000
0010
0000
,
0100
0000
0001
0000
,
1000
0000
0010
0000
,
0100
0000
0001
0000
,
1000
0000
0010
0000
,
0100
0000
0110
1001
,
0110
0000
1001
0000
0001
1000
0010
0000
,
0100
0000
0001
0000
0010
0100
1000
0000
,
0010
0000
0100
0000
0001
0010
0100
0000
,
1000
0000
0001
0000
0010
1000
0100
0000
,
0001
0010
0100
0000
1000
0010
0100
0000
,
0001
0000
0010
0000
1000
0010
0100
0000
,
0001
0000
0010
0000
0100
0010
1000
0000
,
0001
0010
0100
0000
0010
1000
0100
0000
,
0001
0000
0100
0000
0010
1000
0100
0000
,
0001
0010
0100
0000
1000
0010
1000
0000
,
0001
0010
0100
0000
1000
0010
0100
0000
,
0001
0010
0001
0000
0100
0010
1000
0001
,
0010
0100
0001
1000
0020
0000
0000
0000
,
0000
0000
1030
0000
;

//--------------- dance-single - B. M'Rey ----------------
#NOTEDATA:;
#STEPSTYPE:dance-single;
#DESCRIPTION:B. M'Rey;
#CREDIT:B. M'Rey;
#DIFFICULTY:Hard;
#METER:12;
#RADARVALUES:0.53881,0.60611,0.057914,0.195461,0,521,513,8,27,0,0,0.53881,0.60611,0.057914,0.195461,0,521,513,8,27,0,0;
#NOTES:
0000
0000
0000
0000
,
0000
0000
0000
0000
,
0000
0000
0000
0000
,
0000
0000
0000
0000
,
0000
0000
0000
0000
,
0000
0000
0000
0000
,
0000
0000
0000
0000
,
0000
0000
0000
0000
,
0000
0000
2000
0000
,
3020
0000
0032
0000
,
0000
0000
1003
0200
0000
0000
0000
0000
,
0000
0000
0001
0300
0010
0000
1000
0000
,
0100
0000
0001
0000
0100
0000
1000
0020
,
0000
0000
0032
0000
,
0000
0000
1003
0010
,
0100
0001
0020
0000
,
0000
0000
1000
0001
,
1000
0000
0001
0000
1030
0100
0001
0010
,
1000
0100
0001
0010
0001
1000
0010
0100
,
0001
0010
1000
0010
0100
0001
0010
1000
,
0010
0100
0001
0010
1000
0001
0100
0010
,
1000
0001
0100
0010
1000
0010
0001
0100
,
0010
1000
0100
0010
1000
0100
0001
0100
,
0010
0001
0100
1000
0010
0100
0010
1000
,
0001
1000
0001
0100
0010
1000
0010
0001
,
0100
0010
0001
0100
2000
0000
3200
0000
,
0302
0023
0032
0203
,
0320
2030
3002
2003
,
3020
0230
0302
2003
,
3001
0000
1000
0000
0001
0010
0000
0000
,
0100
0000
0000
0000
1000
0000
0000
1000
,
0001
0000
0010
1000
0010
0000
1000
0000
,
0001
0010
0100
0001
,
1000
0000
0100
0000
0010
0001
0000
0100
,
0000
0000
0001
1000
0000
0100
0000
0000
,
1000
0001
0020
0000
,
2030
0000
0000
0000
3001
0000
0000
0010
,
1000
0100
0001
0010
,
0010
0000
0001
0000
1000
0000
0100
0010
,
0001
0000
0100
0001
1000
0000
0010
0000
,
1000
0100
0001
0100
,
0001
1000
0000
0000
1000
0000
0100
0000
,
1000
0000
0001
0100
0000
0000
0000
0000
,
0100
0010
1000
0010
,
0100
0001
1000
0010
,
0100
0000
0010
0000
0001
1000
0001
0010
,
1000
0100
0001
0010
0001
0100
0010
1000
,
0010
0100
0001
0010
1000
0010
0100
0010
,
0001
0010
1000
0100
0010
1000
0001
0010
,
0100
0001
1000
0010
0001
0100
0010
1000
,
0100
0001
0010
0001
0100
0010
1000
0010
,
0001
0100
0010
1000
0001
1000
0001
1000
,
0001
1000
0002
0000
2003
0000
0000
0000
,
3002
0000
0000
0000
1003
0001
0010
0100
,
1000
0100
0001
0010
1000
0100
0010
1000
,
0001
0100
1000
0010
0100
0001
1000
0001
,
0010
0100
0001
0010
0001
1000
0100
0010
,
1000
0010
0001
0100
1000
0010
0001
0100
,
0010
0100
1000
0100
1000
0010
0100
0001
,
0010
0001
0010
1000
0010
0100
0001
0100
,
0010
1000
0010
0100
0001
0010
0001
0100
,
1000
0010
0100
0001
0100
0010
0001
1000
,
0001
0100
0010
1000
0100
0010
1000
0001
,
0100
0010
0001
0100
0010
1000
0100
1000
,
0010
0100
0001
0010
0001
0100
0010
1000
,
0001
0100
0010
0001
0100
0010
1000
0100
,
0010
1000
0001
0100
0010
0001
0100
0010
,
1000
0100
1000
0010
0100
0001
0010
0001
,
0100
0010
1000
0001
0010
0100
0010
1000
,
0001
0100
0010
0001
1000
0000
0001
0000
,
0010
0100
0001
1000
,
0010
0100
0001
0010
,
1000
0001
0100
0010
,
1000
0000
0001
0000
1000
0010
1000
0010
,
1000
0000
0010
0000
0001
0010
0001
0010
,
0001
0000
0100
0000
0010
0100
0010
0100
,
0010
0000
0001
0000
1000
0001
1000
0001
,
1000
0001
1000
0001
1000
0000
0000
0000
,
0010
0000
0001
0000
,
0100
0000
0010
0000
,
1000
0000
0100
0000
,
0001
0000
0010
0000
,
0001
0000
0100
0000
,
0010
0000
1001
0101
,
0110
1100
0011
0110
,
1001
0000
0101
0000
0010
1000
0001
0100
,
0010
0001
1000
0010
0100
0010
0100
0001
,
0010
1000
0100
0010
0100
0001
0010
0001
,
0010
1000
0010
0100
0010
1000
0010
0001
,
0010
0001
0100
0010
1000
0100
1000
0010
,
0100
0001
0010
0100
0010
1000
0010
0100
,
0001
0010
0100
0001
1000
0010
1000
0001
,
0010
0001
0100
0010
1000
0100
0001
0010
,
0100
0010
1000
0100
0001
0010
0001
0100
,
0010
0001
1000
0010
0100
0001
0010
0001
,
1000
0010
0100
0010
0001
0010
1000
0100
,
0001
1000
0001
1000
0001
1000
0001
1000
,
0001
0010
1000
0100
0010
0001
0020
0000
,
0000
0000
1030
0000
;

//--------------- dance-single - B. M'Rey ----------------
#NOTEDATA:;
#STEPSTYPE:dance-single;
#DESCRIPTION:B. M'Rey;
#CREDIT:B. M'Rey;
#DIFFICULTY:Challenge;
#METER:15;
#RADARVALUES:0.727032,1.176566,0.043436,0.398161,0.644297,703,697,6,55,5,3,0.727032,1.176566,0.043436,0.398161,0.644297,703,697,6,55,5,3;
#NOTES:
0000
0000
0000
0000
,
0000
0000
0000
0000
,
0000
0000
0000
0000
,
0000
0000
0000
0000
,
0000
0000
0000
0000
,
0000
0000
0000
0000
,
0000
0000
0000
0000
,
0000
0000
0000
0000
,
0000
0000
0000
0000
0000
0000
0000
0000
1000
0000
0000
0001
0010
0000
1000
0000
,
0100
0000
0000
0010
1000
0000
0001
0000
0010
0000
0000
1000
0100
0000
0001
0000
,
0010
0000
0000
1000
0100
0000
0001
0000
0010
0000
0000
0100
1000
0000
0001
0000
,
0010
0000
0000
0100
0010
0000
0001
0000
1000
0000
0000
0010
0001
0000
1000
0000
,
0010
0000
0000
0100
1000
0000
0010
0000
0001
0000
0000
0100
0010
0000
1000
0000
,
0001
0000
0000
0100
0010
0000
1000
0000
0001
0000
0000
0010
0100
0000
1000
0000
,
0001
0000
0010
0000
0100
0000
0000
0000
0100
0000
0000
0001
0010
0000
1000
0000
,
0100
0000
0000
0001
0010
0000
1000
0000
0010
0000
0000
0100
0001
0000
0010
0000
,
0100
0001
0010
0001
,
1000
0001
1000
0001
1000
0001
1000
0001
1000
0001
1000
0000
0001
1000
0001
0000
,
0010
0100
0010
0000
0001
0010
0001
0000
0010
0100
0010
0000
1000
0100
1000
0000
,
0001
0010
0001
0000
0100
0010
0100
0000
1000
0100
1000
0000
0001
0010
0001
0000
,
0010
0100
0010
0000
0001
0010
0001
0000
1000
0000
0100
0000
0001
0000
0010
0000
,
0100
1000
0100
1000
0100
0000
0001
0000
1000
0001
1000
0001
1000
0001
1000
0001
,
1000
0010
1000
0010
1000
0010
1000
0010
1000
0010
1000
0010
1000
0010
1000
0010
,
1000
0100
1000
0100
1000
0100
1000
0100
1000
0100
1000
0100
1000
0100
1000
0100
,
0010
0100
0010
0100
0010
0100
0010
0100
0010
0100
0010
0100
0010
0100
0010
0100
,
0001
0100
0001
0100
0001
0100
0001
0100
0002
0000
0000
0000
0023
0000
0000
0000
,
2030
3200
0302
0023
,
0032
2003
3020
0230
,
0302
2003
3002
0023
,
2030
3200
0302
0000
,
2003
3002
0023
0000
,
2030
0000
3002
2003
,
3002
2003
3200
0302
,
0023
2030
3002
0000
,
0203
0000
2300
0000
,
3020
0000
0032
2003
,
3020
0230
0302
0000
,
2003
0000
0000
0000
3001
0010
1000
0000
,
0001
1000
0010
0000
0001
1000
0010
0000
,
0100
0010
1000
0000
0001
0010
0001
0000
,
0100
0010
0100
0000
1000
0010
1000
0000
,
0001
0010
0100
0000
1000
0100
0010
0000
,
0001
0010
1000
0000
1000
0010
0001
0000
,
0001
0100
1000
0000
1000
0100
0001
0000
,
0010
1000
0100
0000
0100
0001
0010
0000
,
1000
0001
1000
0001
1000
0000
0001
0000
0010
0000
0100
0000
1000
0000
0001
0000
,
0010
0001
0100
0010
1000
0100
1000
0001
,
0010
0100
0001
0100
0010
1000
0010
0100
,
0001
0010
1000
0010
0100
0001
0010
0001
,
0100
1000
0010
0100
0001
0010
1000
0001
,
0010
0001
0100
0010
0001
1000
0010
0100
,
0001
0010
1000
0010
0100
0001
0010
0001
,
0100
0010
1000
0001
400M
0000
00M0
0000
,
0M00
0000
0000
0000
000M
0000
0000
0000
31M0
0000
0000
0001
0010
0000
1000
0000
,
0100
0000
0000
0010
1000
0000
0001
0000
0010
0000
0000
1000
0100
0000
0001
0000
,
0010
0000
0000
1000
0100
0000
0001
0000
0010
0000
0000
0100
1000
0000
0001
0000
,
0010
0000
0000
0100
0010
0000
0001
0000
1000
0000
0000
0010
0001
0000
1000
0000
,
0010
0000
0000
0100
1000
0000
0010
0000
0001
0000
0000
0100
0010
0000
1000
0000
,
0001
0000
0000
0100
0010
0000
1000
0000
0001
0000
0000
0010
0100
0000
1000
0000
,
0001
0000
0010
0000
0100
0000
0000
0000
0100
0000
0000
0001
0010
0000
1000
0000
,
0100
0000
0000
0001
0010
0000
1000
0000
0010
0000
0000
0100
0001
0000
0010
0000
,
0100
0000
0000
0000
0001
0000
0000
0000
0100
0000
0000
0010
1000
0000
0100
0000
,
0001
0000
0000
1000
0100
0000
0010
0000
1000
0000
0000
0100
0001
0000
0010
0000
,
1000
0000
0000
0100
0001
0000
0010
0000
1000
0000
0000
0001
0100
0000
0010
0000
,
1000
0000
0000
0001
1000
0000
0010
0000
0100
0000
0000
1000
0010
0000
0100
0000
,
1000
0000
0000
0001
0100
0000
1000
0000
0010
0000
0000
0001
1000
0000
0100
0000
,
0010
0000
0000
0001
1000
0000
0100
0000
0010
0000
0000
1000
0001
0000
0100
0000
,
0010
0000
1000
0000
0001
0000
0000
0000
0001
0000
0000
0010
1000
0000
0100
0000
,
0001
0000
0000
0010
1000
0000
0100
0000
1000
0000
0000
0001
0010
0000
1000
0000
,
0100
0010
0100
0010
0100
0010
0100
0010
0100
0010
0100
0000
0010
0100
0010
0000
,
1000
0001
1000
0000
0010
1000
0010
0000
1000
0001
1000
0000
0100
0001
0100
0000
,
0010
1000
0010
0000
0001
1000
0001
0000
0100
0001
0100
0000
0010
1000
0010
0000
,
1000
0001
1000
0000
0010
1000
0010
0000
0100
0000
0001
0000
0010
0000
1000
0000
,
0001
0100
0001
0100
0001
0000
0010
0000
0100
0010
0100
0010
0100
0010
0100
0010
,
0100
1000
0100
1000
0100
1000
0100
1000
0100
1000
0100
1000
0100
1000
0100
1000
,
0100
0001
0100
0001
0100
0001
0100
0001
0100
0001
0100
0001
0100
0001
0100
0001
,
1000
0001
1000
0001
1000
0001
1000
0001
1000
0001
1000
0001
1000
0001
1000
0001
,
0010
0001
0010
0001
0010
0001
0010
0001
0020
0000
0000
0000
0000
0000
0000
0000
,
2030
0000
3020
0000
,
0230
0000
0302
0000
,
0023
0000
0032
0000
,
2003
0000
3020
0000
,
0230
0000
0302
0000
,
2003
0000
3101
0000
,
0110
0000
0011
1010
,
0101
0000
0000
0000
1001
0000
0000
0000
1000
0000
0000
0001
0010
0000
1000
0000
,
0100
0000
0000
0010
1000
0000
0001
0000
0010
0000
0000
1000
0100
0000
0001
0000
,
0010
0000
0000
1000
0100
0000
0001
0000
0010
0000
0000
0100
1000
0000
0001
0000
,
0010
0000
0000
0100
0010
0000
0001
0000
1000
0000
0000
0010
0001
0000
1000
0000
,
0010
0000
0000
0100
1000
0000
0010
0000
0001
0000
0000
0100
0010
0000
1000
0000
,
0001
0000
0000
0100
0010
0000
1000
0000
0001
0000
0000
0010
0100
0000
1000
0000
,
0001
0000
0010
0000
0100
0000
0000
0000
0100
0000
0000
0001
0010
0000
1000
0000
,
0100
0000
0000
0001
0010
0000
1000
0000
0010
0000
0000
0100
0001
0000
0010
0000
,
0100
0000
0000
0000
0001
0000
0000
0000
1000
0000
0000
0001
0010
0000
1000
0000
,
0100
0000
0000
0010
1000
0000
0001
0000
0010
0000
0000
1000
0100
0000
0001
0000
,
0010
0000
0000
1000
0100
0000
0001
0000
1000
0001
1000
0001
1000
0001
1000
0010
,
1000
0010
1000
0010
1000
0010
1000
0010
1000
0010
1000
0010
1000
0010
1000
0100
,
1000
0100
1000
0100
1000
0100
1000
0100
2000
0000
0000
0000
0200
0000
0000
0000
,
0020
0002
3333
0000
;
