#VERSION:0.83;
#TITLE:Take Me (Nightcore Remix);
#ARTIST:LaLuna;
#GENRE:Nightcore;
#CREDIT:B. M'Rey;
#MUSIC:Take Me (Nightcore Mix).ogg;
#BANNER:Take Me (Nightcore Mix)-bn.png;
#BACKGROUND:Take Me (Nightcore Mix)-bg.png;
#CDTITLE:./CDTITLES/BMR Superstars.PNG;
#SAMPLESTART:57.331;
#SAMPLELENGTH:15;
#OFFSET:-0.342;
#BPMS:0=168.203;

//--------------- dance-single - B. M'Rey ----------------
#NOTEDATA:;
#STEPSTYPE:dance-single;
#DESCRIPTION:B. M'Rey;
#CREDIT:B. M'Rey;
#DIFFICULTY:Beginner;
#METER:4;
#RADARVALUES:0.136256,0.202102,0.092601,0,0,103,93,10,0,0,0,0.136256,0.202102,0.092601,0,0,103,93,10,0,0,0;
#NOTES:
0000
0000
1000
0000
,
0000
0000
0000
0000
,
0000
0000
0000
0000
,
0000
0000
0000
0000
,
0000
0000
1000
0000
,
0000
0000
0000
0000
,
0000
0000
0000
0000
,
0000
0000
0000
0000
,
0000
0000
1000
0000
,
0000
0000
0010
0000
,
0000
0000
0001
0000
,
1000
0000
0001
0000
,
0000
0000
0100
0000
,
0000
0000
0001
0000
,
0000
0000
0100
0000
,
0010
0000
0100
0000
,
0000
0000
1000
0000
,
0000
0000
0001
0000
,
0000
0000
0100
0000
,
0000
0000
0010
0000
,
0000
0000
1000
0000
,
0000
0000
0001
0000
,
0000
0000
0100
0000
,
0000
0000
0010
0000
,
0000
0000
1001
0000
,
1000
0000
0100
0000
,
0100
0000
0001
0000
,
0000
0000
0000
0000
,
0000
0000
0000
0000
,
1000
0000
0010
0000
,
0001
0000
0100
0000
,
0000
0000
0000
0000
,
0000
0000
1000
0000
,
1000
0000
1000
0000
,
1000
0000
0001
0000
,
0001
0000
0001
0000
,
0001
0000
0100
0000
,
0100
0000
0100
0000
,
0100
0000
0010
0000
,
0010
0000
0010
0000
,
0000
0000
1001
0000
,
0000
0000
0110
0000
,
0000
0000
1000
0000
,
0001
0000
1000
0000
,
0000
0000
0011
0000
,
0000
0000
1100
0000
,
0000
0000
0100
0000
,
0010
0000
0100
0000
,
0000
0000
1000
0000
,
0001
0000
0100
0000
,
0010
0000
1000
0000
,
0001
0000
0010
0000
,
0000
0000
1000
0000
,
0001
0000
0100
0000
,
0010
0000
1000
0000
,
0001
0000
0010
0000
,
0000
0000
1001
0000
,
0000
0000
0110
0000
,
0000
0000
1000
0000
,
0001
0000
1000
0000
,
0000
0000
0011
0000
,
0000
0000
1100
0000
,
0000
0000
0100
0000
,
0010
0000
0100
0000
,
0000
0000
1000
0000
,
0001
0000
0100
0000
,
0010
0000
1000
0000
,
0001
0000
0010
0000
,
0000
0000
1000
0000
,
0001
0000
0100
0000
,
0010
0000
1000
0000
,
0001
0000
0010
0000
,
0000
0000
1001
0000
;

//--------------- dance-single - B. M'Rey ----------------
#NOTEDATA:;
#STEPSTYPE:dance-single;
#DESCRIPTION:B. M'Rey;
#CREDIT:B. M'Rey;
#DIFFICULTY:Easy;
#METER:5;
#RADARVALUES:0.187848,0.235786,0.101861,0,0,142,131,11,0,0,0,0.187848,0.235786,0.101861,0,0,142,131,11,0,0,0;
#NOTES:
0000
0000
1000
0000
,
0000
0000
0000
0000
,
0000
0000
0000
0000
,
0000
0000
0000
0000
,
0000
0000
0010
0000
,
0000
0000
0000
0000
,
0000
0000
0000
0000
,
0000
0000
0000
0000
,
0000
0000
1000
0000
,
1000
0000
0001
0000
,
0001
0000
0100
0000
,
0100
0000
0110
0000
,
0000
0000
0010
0000
,
0010
0000
0100
0000
,
0100
0000
0001
0000
,
0001
0000
1001
0000
,
0000
0000
1000
0000
,
0010
0010
0001
0000
,
1000
1000
0100
0000
,
0001
0001
1000
0000
,
0100
0100
0010
0000
,
0010
0010
0100
0000
,
0001
0001
1000
0000
,
0001
0001
1000
0000
,
0100
0100
0010
0000
,
0000
0000
1000
0000
,
0000
0000
0001
0000
,
1000
0000
0001
0000
,
1000
0000
0001
0000
,
0000
0000
0100
0000
,
0000
0000
0010
0000
,
0100
0000
0010
0000
,
0100
0000
0010
0000
,
1000
0000
0001
0001
,
0001
0000
0010
0000
,
0001
0000
0100
0100
,
0100
0000
1000
0000
,
0010
0000
0100
0010
,
0001
0000
1000
0000
,
0001
0000
1000
0000
,
0000
0000
0110
0000
,
0000
0000
1001
0000
,
0000
0000
1000
0000
,
1000
0000
0001
0000
,
0001
0000
1001
0000
,
0000
0000
0110
0000
,
0000
0000
0100
0000
,
0100
0000
0010
0000
,
0010
0000
1000
1000
,
1000
0000
0001
0001
,
0001
0000
0100
0000
,
0010
0000
0100
0000
,
0000
0000
0010
0010
,
0010
0000
0100
0100
,
0100
0000
0001
0000
,
1000
0000
0001
0000
,
0000
0000
0110
0000
,
0000
0000
1001
0000
,
0000
0000
1000
0000
,
1000
0000
0001
0000
,
0001
0000
1001
0000
,
0000
0000
0110
0000
,
0000
0000
0100
0000
,
0100
0000
0010
0000
,
0010
0000
1000
1000
,
1000
0000
0001
0001
,
0001
0000
0100
0000
,
0010
0000
0100
0000
,
0000
0000
0010
0010
,
0010
0000
0100
0100
,
0100
0000
0001
0000
,
1000
0000
0001
0000
,
0000
0000
0110
0000
;

//--------------- dance-single - B. M'Rey ----------------
#NOTEDATA:;
#STEPSTYPE:dance-single;
#DESCRIPTION:B. M'Rey;
#CREDIT:B. M'Rey;
#DIFFICULTY:Medium;
#METER:8;
#RADARVALUES:0.355853,0.479674,0.518567,0.00926,0,269,213,56,1,0,0,0.355853,0.479674,0.518567,0.00926,0,269,213,56,1,0,0;
#NOTES:
0000
0000
1000
0000
,
0000
0000
0010
0000
,
0000
0000
0001
0000
,
0100
0000
0010
0000
,
0000
0000
0100
0000
,
0000
0000
1000
0000
,
0000
0000
0010
0000
,
0001
0000
1000
0000
,
0000
0000
1001
0000
,
1001
0000
1000
0000
,
0001
0000
1000
0100
,
0010
0001
0010
0000
,
0100
0000
0110
0000
,
0110
0000
0100
0000
,
0010
0000
0001
0010
,
0100
1000
0100
0000
,
0000
0000
1000
0001
,
1001
1001
0010
0100
,
0110
0110
0001
0010
,
0011
0011
0100
1000
,
1100
1100
0010
0100
,
0110
0110
0001
1000
,
1001
1001
0010
0001
,
0011
0011
0100
1000
,
1100
1100
0010
0000
,
0001
0000
1000
0000
,
0010
0000
0100
0010
,
0001
0010
0100
1000
,
0100
0010
0001
0000
,
1000
0000
0010
0000
,
0100
0000
0001
1000
,
0100
0001
0100
1000
,
0100
0001
0100
0000
,
1000
0000
0001
0001
,
0001
0000
0100
0000
,
0010
0000
1000
1000
,
1000
0000
0010
0000
,
0001
0000
0010
0010
,
0010
0000
0100
0000
,
0100
0000
0100
0000
,
0100
0000
1000
0001
,
1001
0001
1000
1001
,
1000
0001
1001
0000
,
1001
0000
1001
0000
,
0010
0110
0010
0100
,
0110
0100
0010
0110
,
0010
0100
0110
0000
,
0110
0000
0110
0000
,
0110
0000
0001
0001
,
0001
0011
0010
0010
,
0010
0110
0100
0100
,
0100
1100
1000
0000
,
1000
0000
1000
1000
,
1000
1100
0100
0100
,
0100
0110
0010
0010
,
0010
0011
0001
0001
,
0100
0000
1000
0001
,
1001
0001
1000
1001
,
1000
0001
1001
0000
,
1001
0000
1001
0000
,
0010
0110
0010
0100
,
0110
0100
0010
0110
,
0010
0100
0110
0000
,
0110
0000
0110
0000
,
0110
0000
0001
0001
,
0001
0011
0010
0010
,
0010
0110
0100
0100
,
0100
1100
1000
0000
,
1000
0000
1000
1000
,
1000
1100
0100
0100
,
0100
0110
0010
0010
,
0010
0011
0001
0001
,
0100
0000
2000
0000
,
0000
0000
0000
3000
;

//--------------- dance-single - B, M'Rey ----------------
#NOTEDATA:;
#STEPSTYPE:dance-single;
#DESCRIPTION:B, M'Rey;
#CREDIT:B. M'Rey;
#DIFFICULTY:Hard;
#METER:11;
#RADARVALUES:0.519889,0.616724,0.463006,0.175942,0,393,343,50,19,0,1,0.519889,0.616724,0.463006,0.175942,0,393,343,50,19,0,1;
#NOTES:
0000
0000
1000
0001
,
0000
0000
1000
0001
,
0000
0000
0001
0010
,
0100
1000
0010
0000
,
0001
1000
0100
0001
,
0010
0100
0010
0000
1000
0000
0001
0000
,
0100
0010
0100
0000
1000
0000
0001
0000
,
0010
0100
0010
1000
,
0001
0000
0010
1000
0100
0000
0001
0010
,
0000
0100
0000
1000
0010
0000
0001
0100
,
0000
1000
0000
0100
0001
0000
0010
0100
,
0010
1000
0100
1000
0001
0000
0100
0000
,
0010
0000
1000
0010
0001
0000
0100
1000
,
0000
0100
0000
0001
0010
0000
0100
1000
,
0000
0001
0000
0000
0010
0100
0010
0100
,
0010
0100
0000
0100
0000
0000
0000
0000
,
0000
0000
0001
1000
,
0100
0010
0001
0010
0100
0000
1000
0000
,
0001
0010
0100
0010
0001
0000
1000
0000
,
0100
1000
0100
0010
0001
0000
0100
0000
,
0010
0100
1000
0100
0010
0000
0001
0000
,
0010
0100
1000
0100
0010
0000
1000
0000
,
0001
0010
0001
0010
0001
0000
1000
0000
,
0100
1000
0100
1000
0100
0000
0010
0000
,
1000
0001
1000
0001
1000
0000
0000
0010
,
0001
0010
0000
0100
0000
1000
0000
0000
,
0000
0100
0001
0010
0100
0000
1000
0000
,
0001
0010
0100
1000
,
0100
0000
0010
0000
0001
0000
0000
0100
,
0010
1000
0000
0100
0000
0000
0000
0001
,
0010
0100
0000
1000
1000
0000
0100
0000
,
0001
0010
0100
1000
,
0100
0000
0000
0000
0001
2000
0000
3200
,
0000
0320
0000
0032
0000
0203
0000
2300
,
0000
3000
0000
0000
0100
0010
0000
2000
,
0000
0000
3001
0020
0000
0230
0000
2300
,
0000
3000
0000
0001
1000
0001
1000
0001
,
0000
0000
0100
0010
0100
0010
0000
0100
,
0000
0000
0000
0001
1000
0000
0100
0010
,
0000
0001
0010
0000
1000
0000
0000
0000
,
0100
0010
0100
0010
0100
0000
0110
0000
,
0110
0110
1001
1001
,
1001
1001
1100
0110
,
0011
0110
1100
0000
,
0001
0010
0001
0010
0001
0000
0011
0000
,
0011
0011
0110
0110
,
0110
1100
1100
0011
,
1100
0011
1100
0000
,
0010
0000
0000
0001
1000
0000
0100
0010
,
0000
1000
0000
0001
0010
0000
1000
0100
,
0000
0001
0000
0010
0100
0000
1000
0100
,
1000
0100
1000
0100
2000
0000
3200
0000
,
0320
0000
0030
0100
0010
0000
1000
0100
,
0000
0001
0000
0010
0100
0000
1000
0100
,
0000
0001
0000
0000
0100
0010
0100
0010
,
0100
0010
0000
0100
2002
0000
0000
0000
,
3103
0010
0100
0010
0100
0000
0110
0000
,
0110
0110
1001
1001
,
1001
1001
1100
0110
,
0011
0110
1100
0000
,
0001
0010
0001
0010
0001
0000
0011
0000
,
0011
0011
0110
0110
,
0110
1100
1100
0011
,
1100
0011
1100
0000
,
0010
0000
0000
0001
1000
0000
0100
0010
,
0000
1000
0000
0001
0010
0000
1000
0100
,
0000
0001
0000
0010
0100
0000
1000
0100
,
1000
0100
1000
0100
2000
0000
3200
0000
,
0320
0000
0030
0100
0010
0000
1000
0100
,
0000
0001
0000
0010
0100
0000
1000
0100
,
0000
0001
0000
0000
0100
0010
0100
0010
,
0100
0010
0000
0100
1001
0000
0000
0000
,
0010
0100
0010
0100
0020
0000
0000
0000
,
0000
0000
0000
0030
;

//--------------- dance-single - B. M'Rey ----------------
#NOTEDATA:;
#STEPSTYPE:dance-single;
#DESCRIPTION:B. M'Rey;
#CREDIT:B. M'Rey;
#DIFFICULTY:Challenge;
#METER:15;
#RADARVALUES:0.829442,0.788036,0.342624,0.01852,0.453746,627,590,37,2,0,0,0.829442,0.788036,0.342624,0.01852,0.453746,627,590,37,2,0,0;
#NOTES:
0000
0000
1010
0000
,
0000
1010
0101
0000
,
0000
0000
1001
0000
,
1001
0000
1001
0000
,
0100
0010
0100
0010
0100
0000
0110
0000
,
0110
0110
0110
1001
,
1001
1001
1001
0000
,
0011
0000
1100
0000
,
0110
0000
0000
0100
1000
0100
0001
0010
,
0000
1000
0000
0100
0001
0010
1000
0100
,
0000
0010
0000
0100
0001
0000
0010
1000
,
0100
1000
0100
1000
0100
0000
0001
0000
,
0010
0000
0100
0000
1000
0100
0001
0010
,
0000
0100
0000
0100
1000
0001
0010
0100
,
0000
1000
0000
0000
0001
0010
0100
0001
,
1000
0000
0000
0000
0000
0000
0100
0000
0000
0000
0000
0000
0000
0000
0000
0000
0000
0000
0001
0000
0000
0000
0000
0000
1000
0000
0001
0000
1000
0000
0000
0000
0000
0001
0000
0000
1000
0000
0000
0000
0000
0000
1000
0000
0000
0001
0000
0000
,
0000
1000
0001
0000
0001
0000
0000
0000
1000
0000
0100
0000
1000
0000
0010
0001
,
0010
0000
1000
0100
1000
0000
0010
0100
0010
0000
0001
0000
0010
0000
1000
0100
,
1000
0000
0010
0100
0010
0000
0001
0010
0001
0000
0100
0000
1000
0000
0010
0100
,
0010
0000
0001
0010
0001
0000
1000
0100
1000
0000
0010
0000
0001
0000
0010
0100
,
0010
0000
1000
0100
1000
0000
0001
0010
0001
0000
0100
0000
1000
0000
0010
0100
,
0010
0000
0001
0010
0001
0000
1000
0100
1000
0000
0010
0000
0001
0000
0100
0010
,
0100
0000
1000
0100
1000
0000
0001
0010
0001
0000
0100
0000
1000
0000
0100
0010
,
0100
0000
0001
0010
0001
0000
1000
0100
1000
0000
0010
0000
0001
0000
0100
0010
,
0100
0000
1000
0100
1000
0000
0001
0010
0001
0000
0100
0000
1000
0000
0100
0000
,
1000
0010
0100
0010
0100
0001
1000
0000
,
0001
0010
0100
1000
0100
0000
1001
0000
,
0110
1001
1100
0110
,
0011
0000
1100
0000
0011
0000
0010
0001
,
0100
0010
0000
1000
0000
0010
0100
0001
,
0010
1000
0000
0100
0010
0000
1100
0000
,
0011
0110
1001
1100
,
0011
0000
0000
0000
0100
0010
0100
0010
,
0100
0010
0100
0010
0100
0010
0100
0010
,
0100
0010
0100
0001
1000
0001
1000
0001
,
1000
0001
1000
0001
1000
0001
1000
0001
,
1000
0001
1000
0001
0010
0001
0010
0001
,
0010
0001
0010
0001
0010
0001
0010
0001
,
0010
0100
1000
0100
1000
0100
1000
0100
,
1000
0000
0000
0000
0000
0000
0100
0000
0000
0000
0000
0000
1000
0000
0000
0000
0000
0000
0100
0000
0000
0000
0000
0000
1000
0000
0001
0000
1000
0000
0000
0000
0000
0001
0000
0000
1000
0000
0000
0000
0000
0000
1000
0000
0000
0001
0000
0000
,
0000
1000
0001
0000
0001
0000
0000
0000
1000
0000
0100
0000
1000
0000
0010
0001
,
0010
0000
1000
0100
1000
0000
0010
0100
0010
0000
0001
0000
0010
0000
1000
0100
,
1000
0000
0010
0100
0010
0000
0001
0010
0001
0000
0100
0000
1000
0000
0010
0100
,
0010
0000
0001
0010
0001
0000
1000
0100
1000
0000
0010
0000
0001
0000
0010
0100
,
0010
0000
1000
0100
1000
0000
0001
0010
0001
0000
0100
0000
1000
0000
0010
0100
,
0010
0000
0001
0010
0001
0000
1000
0100
1000
0000
0010
0000
0001
0000
0100
0010
,
0100
0000
1000
0100
1000
0000
0001
0010
0001
0000
0100
0000
1000
0000
0100
0010
,
0100
0000
0001
0010
0001
0000
1000
0100
1000
0000
0010
0000
0001
0000
0100
0010
,
0100
0000
1000
0100
1000
0000
0001
0010
0001
0000
0100
0000
1000
0000
0001
0000
,
0010
0001
0100
0010
1000
0100
1000
0010
,
0001
0010
0100
1000
0100
0010
0001
0010
,
0100
0000
1000
0000
0100
0000
0010
0000
0001
0000
0010
0000
0100
0000
1000
0100
,
1000
0000
0001
0010
0001
0000
0100
0010
0100
0000
1000
0000
0001
0000
0010
0000
,
0100
1000
0001
0010
0100
1000
0001
0010
,
0100
1000
0001
0010
0100
1000
0001
1000
,
0010
0000
0000
0000
0000
0000
0100
0000
0000
0000
0000
0000
0001
0000
0000
0000
0000
0000
1000
0000
0000
0000
0000
0000
1000
0000
0001
0000
1000
0000
0000
0000
0000
0001
0000
0000
1000
0000
0000
0000
0000
0000
1000
0000
0000
0001
0000
0000
,
0000
1000
0001
0000
0001
0000
0000
0000
1000
0000
0100
0000
1000
0000
0010
0001
,
0010
0000
1000
0100
1000
0000
0010
0100
0010
0000
0001
0000
0010
0000
1000
0100
,
1000
0000
0010
0100
0010
0000
0001
0010
0001
0000
0100
0000
1000
0000
0010
0100
,
0010
0000
0001
0010
0001
0000
1000
0100
1000
0000
0010
0000
0001
0000
0010
0100
,
0010
0000
1000
0100
1000
0000
0001
0010
0001
0000
0100
0000
1000
0000
0010
0100
,
0010
0000
0001
0010
0001
0000
1000
0100
1000
0000
0010
0000
0001
0000
0100
0010
,
0100
0000
1000
0100
1000
0000
0001
0010
0001
0000
0100
0000
1000
0000
0100
0010
,
0100
0000
0001
0010
0001
0000
1000
0100
1000
0000
0010
0000
0001
0000
0100
0010
,
0100
0000
1000
0100
1000
0000
0001
0010
0001
0000
0100
0000
1000
0000
0001
0000
,
0010
0001
0100
0010
1000
0100
1000
0010
,
0001
0010
0100
1000
0100
0010
0001
0010
,
0100
0000
1000
0000
0100
0000
0010
0000
0001
0000
0010
0000
0100
0000
1000
0100
,
1000
0000
0001
0010
0001
0000
0100
0010
0100
0000
1000
0000
0001
0000
0010
0000
,
0100
1000
0001
0010
0100
1000
0001
0010
,
0100
1000
0001
0010
0100
1000
0001
1000
,
0010
0000
0000
0000
0000
0000
0100
0000
0000
0000
0000
0000
0001
0000
0000
0000
0000
0000
1000
0000
0000
0000
0000
0000
1000
0000
0001
0000
1000
0000
0000
0000
0000
0001
0000
0000
1000
0000
0000
0000
0000
0000
1000
0000
0000
0001
0000
0000
,
0000
1000
0001
0000
0001
0000
0000
0000
2002
0000
0000
0000
0000
0000
0000
0000
,
0000
0000
0000
3003
;
