#VERSION:0.83;
#TITLE:Taboo;
#ARTIST:September;
#GENRE:Dance Pop;
#CREDIT:B. M'Rey;
#MUSIC:Taboo.ogg;
#BANNER:Taboo-bn.png;
#BACKGROUND:Taboo-bg.png;
#CDTITLE:./CDTITLES/BMR Superstars.PNG;
#SAMPLESTART:64.08;
#SAMPLELENGTH:15;
#OFFSET:-0.398;
#BPMS:0=128.018;

//--------------- dance-single - B. M'Rey ----------------
#NOTEDATA:;
#STEPSTYPE:dance-single;
#DESCRIPTION:B. M'Rey;
#CREDIT:B. M'Rey;
#DIFFICULTY:Beginner;
#METER:3;
#RADARVALUES:0.068391,0.106387,0.008866,0.017731,0,54,53,1,2,0,0,0.068391,0.106387,0.008866,0.017731,0,54,53,1,2,0,0;
#NOTES:
0000
0000
0000
0000
,
0000
0000
0000
0000
,
0000
0000
0000
0000
,
0000
0000
0000
0000
,
0000
0000
0000
0000
,
0000
0000
0000
0000
,
1000
0000
0000
0000
,
0010
0000
0000
0000
,
0100
0000
0000
0000
,
0001
0000
0000
0000
,
0010
0000
0000
0000
,
0001
0000
0000
0000
,
0100
0000
0000
0000
,
0010
0000
0000
0000
,
1000
0000
0000
0000
,
0001
0000
0000
0000
,
0010
0000
0000
0000
,
0100
0000
0000
0000
,
1000
0000
0001
0000
,
0010
0000
1000
0000
,
0100
0000
0010
0000
,
0001
0000
0000
0000
,
0010
0000
1000
0000
,
0001
0000
0010
0000
,
0100
0000
1000
0000
,
0010
0000
0000
0000
,
1000
0000
0001
0000
,
0100
0000
0010
0000
,
1000
0000
0000
0000
,
0001
0000
0000
0000
,
0010
0000
1000
0000
,
0100
0000
0010
0000
,
0001
0000
0000
0000
,
0110
0000
0000
0000
,
0001
0000
1000
0000
,
0100
0000
0001
0000
,
0010
0000
0001
0000
,
1000
0000
0100
0000
,
0001
0000
1000
0000
,
0010
0000
0100
0000
,
0001
0000
1000
0000
,
0100
0000
0001
0000
,
0010
0010
0010
0000
,
1000
0000
0100
0000
,
0010
0000
1000
0000
,
0001
0001
1000
1000
,
0100
0000
0001
0000
,
0010
0000
0100
0000
,
1000
0000
0001
0000
,
0010
0000
0000
0000
,
1001
0000
0000
0000
,
0010
0000
0000
0000
,
0100
0000
0000
0000
,
0001
0000
0000
0000
,
0010
0000
0000
0000
,
1000
0000
0000
0000
,
0010
0000
0000
0000
,
0100
0000
0000
0000
,
2002
0000
0000
0000
,
3003
0000
0000
0000
;

//--------------- dance-single - B. M'Rey ----------------
#NOTEDATA:;
#STEPSTYPE:dance-single;
#DESCRIPTION:B. M'Rey;
#CREDIT:B. M'Rey;
#DIFFICULTY:Easy;
#METER:4;
#RADARVALUES:0.132983,0.154261,0.008866,0,0,105,104,1,0,0,0,0.132983,0.154261,0.008866,0,0,105,104,1,0,0,0;
#NOTES:
0000
0000
0000
0000
,
0000
0000
0000
0000
,
0000
0000
0000
0000
,
0000
0000
0000
0000
,
0000
0000
0000
0000
,
0000
0000
0000
0000
,
0001
0000
0100
0000
,
0010
0000
1000
0000
,
0100
0000
1000
0000
,
0110
0000
0000
0000
,
0001
1000
0010
0000
,
0001
0000
0100
0000
,
0010
0000
1000
0000
,
0100
0001
1000
0001
,
0010
0000
0100
0000
,
0001
0000
0010
0000
,
0001
0000
0100
0000
,
0010
0001
1000
0000
,
0001
0010
0001
0010
,
0001
0100
0010
0100
,
0010
0000
0100
0000
,
1000
0000
0000
0000
,
0010
0100
0001
0100
,
0010
1000
0010
1000
,
0001
0000
0010
0000
,
0100
0000
0000
0000
,
0100
1000
0100
0000
,
0001
0010
0001
0000
,
0010
0000
0100
0000
,
0001
0000
0010
0000
,
0001
0100
0010
0000
,
0100
0010
0001
0000
,
0001
1000
0000
0000
,
1010
0000
0000
0000
,
0001
0010
0100
0000
,
0100
0000
0001
0100
,
0000
0010
0100
0000
,
0001
0100
0010
0000
,
0010
1000
0010
0000
,
0000
0000
0001
0100
,
0010
0000
0001
0000
,
0010
0100
0010
0100
,
0010
0000
0100
0000
,
0001
0000
0001
0010
,
0100
0000
0100
0000
,
0001
0100
0001
1000
,
0001
0100
0010
0000
,
0100
0000
0001
0000
,
0001
0010
0100
0000
,
0001
0010
0100
0010
,
0100
0000
0001
0000
,
0100
0000
0010
0000
,
0100
1000
0000
0100
,
0001
0000
0000
0000
,
0001
0000
0010
0000
,
1000
0000
0010
0000
,
0001
0000
0000
0000
,
0001
0000
0010
0000
,
2020
0000
0000
0000
,
3030
0000
0000
0000
;

//--------------- dance-single - B. M'Rey ----------------
#NOTEDATA:;
#STEPSTYPE:dance-single;
#DESCRIPTION:B. M'Rey;
#CREDIT:B. M'Rey;
#DIFFICULTY:Medium;
#METER:8;
#RADARVALUES:0.254568,0.282811,0.053193,0,0,201,195,6,0,0,0,0.254568,0.282811,0.053193,0,0,201,195,6,0,0,0;
#NOTES:
0000
0000
0000
0000
,
0000
0000
0000
0000
,
0000
0000
0000
0000
,
0000
0000
0000
0000
,
0000
0000
0000
0000
,
0000
0000
0000
0000
,
1000
0000
0001
0000
0010
0000
0100
0010
,
0000
0000
0001
1000
,
0010
0100
0001
0000
,
0010
1000
0001
0001
,
1010
0000
0010
0100
0010
0000
0000
0000
,
0000
0001
0000
1000
0001
0000
0000
0010
,
0100
0000
0000
0001
0100
0000
0000
0010
,
0000
1000
0000
0010
0000
0100
0000
0001
,
1000
0000
0000
0010
0100
0000
0000
0000
,
0000
0010
0000
0001
0100
0000
0000
0010
,
1000
0000
0000
0100
0010
0000
0000
1000
,
0000
0001
1000
0000
0010
0000
0010
0100
,
1000
0000
0100
0000
0010
0000
0001
0100
,
0001
0000
0010
0000
1000
0000
0100
1000
,
0100
0000
0010
0000
1000
0000
0100
0010
,
0000
0010
0100
0000
0010
0000
0001
0010
,
0001
0000
0001
0000
1000
0000
0001
0100
,
0001
0000
0010
0000
0100
0000
0001
0100
,
0001
0000
0010
0000
1000
0000
0100
0010
,
0000
0010
0001
0000
1000
0000
0100
0000
,
0020
0000
0032
0000
0203
0000
0301
0010
,
0002
0000
0203
0000
2300
0000
3010
1000
,
0010
0000
0001
0000
1000
0100
1000
0000
,
0010
0001
0010
0000
0100
0000
0001
0100
,
0002
0000
0203
0000
0320
0000
0130
1000
,
0200
0000
0302
0000
1003
0010
0100
0000
,
0100
0001
1000
0001
,
0011
0000
0000
0000
,
0110
0000
1010
0000
0001
0010
0001
0010
,
0100
0000
1000
0000
0100
0010
0100
0000
,
0001
0100
0001
0000
0001
0010
0001
0000
,
0100
0010
0001
1000
,
0110
0000
0101
0000
0010
1000
0010
1000
,
0100
0000
1000
0000
0010
0100
0010
0000
,
0001
0100
0001
0000
0010
0100
0010
0000
,
0001
1000
0001
0010
,
0200
0000
2300
0000
3100
0010
0100
0010
,
0000
0001
0000
0010
0100
1000
0000
0100
,
0000
0001
0010
0000
0100
0000
1000
0000
,
0100
1000
0100
0000
1000
0100
1000
0000
,
0200
0320
0230
0310
,
0001
0010
0000
0001
0000
0010
1000
0100
,
0000
1000
0000
0010
0000
0100
0000
1000
,
0100
0010
0001
0000
0100
0010
0001
0000
,
1001
0000
1000
0000
0010
0000
0100
0010
,
0001
0000
1000
0000
0010
0000
0100
0001
,
0010
0000
1000
0000
0010
0000
1000
0100
,
0001
0000
0010
0000
0001
0000
0100
1000
,
0010
0000
0100
0000
0010
0000
0100
0010
,
0001
0000
1000
0000
0100
0000
0010
1000
,
0001
0010
0001
0100
,
0001
1000
0010
0000
0100
0001
0010
0000
,
0220
0000
0000
0000
,
0000
0000
0000
0000
,
0330
0000
0000
0000
;

//--------------- dance-single - B. M'Rey ----------------
#NOTEDATA:;
#STEPSTYPE:dance-single;
#DESCRIPTION:B. M'Rey;
#CREDIT:B. M'Rey;
#DIFFICULTY:Hard;
#METER:9;
#RADARVALUES:0.429347,0.504284,0.088656,0.212774,0,339,329,10,24,0,0,0.429347,0.504284,0.088656,0.212774,0,339,329,10,24,0,0;
#NOTES:
0000
0000
0000
0000
,
0000
0000
0000
0000
,
0000
0000
0000
0000
,
0000
0000
0000
0000
,
0000
0000
0000
0000
,
0000
0000
0000
0000
,
0002
0000
0203
0000
1300
0100
0010
0100
,
0000
1001
0000
0010
1000
0010
0100
0010
,
0100
0001
0100
0002
0000
0003
0010
1000
,
0001
0100
0001
1000
0010
1000
0020
0000
,
0230
0000
0302
0100
0023
0000
0031
0000
,
0100
1000
0000
1000
0001
0000
0000
1000
,
0010
0000
0001
0100
0001
0000
0010
1000
,
1010
0110
1001
1010
,
1001
0000
0001
0010
0100
0000
0010
0000
,
0010
0100
0000
0010
0100
0000
0000
1000
,
0010
0000
0010
1000
0001
0000
0100
0010
,
0000
1000
0110
0000
0101
0000
0001
0010
,
0100
0000
0010
1000
0010
0000
0010
0100
,
0001
0020
0000
1030
0000
0100
0010
0001
,
0010
0001
0100
0000
1000
0000
0100
0020
,
0000
0031
0100
0000
1000
0000
0010
0001
,
0010
0000
1000
0000
0100
0000
0100
0010
,
1000
0001
0000
0010
0000
0100
1000
0001
,
1000
0001
0100
0000
0010
0000
1000
0001
,
0000
0010
1000
0000
0001
0000
0020
0000
,
0031
0010
0001
1000
0001
0000
0100
1000
,
0100
0000
0000
0001
0000
0000
1000
0000
0000
0000
0010
0000
0001
0000
0100
0000
,
0001
0100
0000
1000
0100
0010
0001
1000
,
0000
0010
0001
0000
0010
0000
0001
0100
,
0010
0000
0001
0000
1000
0000
0010
1000
,
0010
0100
0000
0100
0000
1000
0100
0010
,
0001
0001
0100
0100
,
0001
0010
0100
0010
0101
0000
0110
0000
,
0020
0000
0230
0000
0301
1000
0001
0010
,
0000
0010
0000
0100
0010
0100
0001
0100
,
0000
0010
0100
0011
0000
0110
0000
1000
,
0000
0100
0001
0010
0100
1000
0100
0010
,
0200
0000
0302
0000
0103
1000
0001
1000
,
0000
0100
0000
0100
0010
0100
0001
0010
,
0000
1010
0000
1010
0000
1000
0001
0000
,
0100
0010
0001
0100
0010
0100
0010
0000
,
0101
0000
1010
0000
0001
0100
0001
1000
,
0000
0010
0000
0010
0001
0010
0001
1000
,
0000
0010
0100
0010
0000
1000
0000
0100
,
0000
1000
0001
0100
0010
0100
0001
0100
,
1010
0000
0110
0000
1001
0000
0100
1000
,
0000
0100
0000
0100
0010
0100
0001
0010
,
0000
1000
0000
0100
0000
1000
0000
1000
,
0100
1000
0100
0010
0001
1000
0100
0000
,
0010
0000
0100
0000
0100
0000
0001
0010
,
0100
0000
0000
0001
0000
0000
0100
0000
0000
0000
0010
0000
0100
0000
1000
0000
,
0001
1000
0000
0000
0001
0000
0100
2000
,
0000
0000
3001
0000
0000
1000
0100
1000
,
0001
0000
0100
0000
1000
0000
0010
1000
,
0001
0100
0000
0010
0000
1000
0010
0100
,
0001
0000
0010
0000
0000
0000
0000
0100
,
0001
0100
0010
0100
0010
0000
0100
0000
,
2002
0000
0000
0000
,
0000
0000
0000
0000
,
3003
0000
0000
0000
;
