#VERSION:0.83;
#TITLE:Superheroes;
#ARTIST:Daft Punk;
#GENRE:Filter House;
#CREDIT:B. M'Rey;
#MUSIC:Superheroes.ogg;
#BANNER:SuperHeroes-bn.png;
#BACKGROUND:SuperHeroes-bg.png;
#CDTITLE:./CDTITLES/Daft Punk -interstella 5555-.PNG;
#SAMPLESTART:102.072;
#SAMPLELENGTH:15;
#OFFSET:-0.054;
#BPMS:0=140.857;

//--------------- dance-single - B. M'Rey ----------------
#NOTEDATA:;
#STEPSTYPE:dance-single;
#DESCRIPTION:B. M'Rey;
#CREDIT:B. M'Rey;
#DIFFICULTY:Beginner;
#METER:6;
#RADARVALUES:0.149217,0.289559,0.067388,0.2864,0,248,232,16,68,0,0,0.149217,0.289559,0.067388,0.2864,0,248,232,16,68,0,0;
#NOTES:
0000
0000
0000
0000
,
0000
0000
0000
0000
,
0000
0000
0000
0000
,
0000
0000
0000
0000
,
1000
0000
0000
0000
,
0001
0000
0000
0000
,
0010
0000
0000
0000
,
1000
0000
0000
0000
,
0001
0000
0000
0000
,
0010
0000
0000
0000
,
0001
0000
0000
0000
,
0100
0000
0000
0000
,
0010
0000
0000
0000
,
0001
0000
0000
0000
,
1000
0000
0000
0000
,
0100
0000
0000
0000
,
0001
0000
0000
0000
,
0010
0000
0000
0000
,
0001
0000
0000
0000
,
1000
0000
0000
0000
,
0001
0000
0100
0000
,
0010
0000
1000
0000
,
0001
0000
0010
0000
,
0001
0000
0100
0000
,
0010
0000
1000
0000
,
0001
0000
0010
0000
,
0001
0000
0100
0000
,
0010
0000
0001
0000
,
0100
0000
2000
0000
0000
3100
0000
0000
,
0010
0000
2000
0000
0000
3100
0000
0000
,
0010
0000
2000
0000
0000
3001
0000
0000
,
0010
0000
2000
0000
0000
3100
0000
0000
,
0010
0000
0200
0000
0000
0301
0000
0000
,
0010
0000
2000
0000
0000
3100
0000
0000
,
0010
0000
2000
0000
0000
3010
0000
0000
,
0001
0000
0020
0000
0000
0130
0000
0000
,
0001
0000
0200
0000
0000
0310
0000
0000
,
0010
0000
2000
0000
0000
3100
0000
0000
,
0010
0000
2000
0000
0000
3001
0000
0000
,
0010
0000
0200
0000
0000
0301
0000
0000
,
0001
0000
2000
0000
0000
3010
0000
0000
,
0001
0000
0020
0000
0000
0130
0000
0000
,
0001
0000
2000
0000
0000
3010
0000
0000
,
0100
0000
0020
0000
0000
1030
0000
0000
,
0100
0000
0020
0000
0000
1030
0000
0000
,
0001
0000
2000
0000
0000
3010
0000
0000
,
0001
0000
0200
0000
0000
0310
0000
0000
,
0010
0000
0200
0000
0000
0301
0000
0000
,
0100
0000
0020
0000
0000
0130
0000
0000
,
0010
0000
0200
0000
0000
0310
0000
0000
,
0001
0000
2000
0000
0000
3001
0000
0000
,
0010
0000
0200
0000
0000
0310
0000
0000
,
0100
0020
0032
0003
,
0001
0020
0032
0003
,
0100
2000
3200
0300
,
0001
0020
0032
0003
,
0001
0200
0320
0030
,
0010
2000
3200
0300
,
0100
2000
3020
0030
,
0001
0200
0302
0003
,
0100
0000
0002
0000
0000
0103
0000
0000
,
0010
0000
0002
0000
0000
0103
0000
0000
,
0010
0000
0002
0000
0000
1003
0000
0000
,
0010
0000
0002
0000
0000
0103
0000
0000
,
0010
0000
0200
0000
0000
1300
0000
0000
,
0010
0000
0002
0000
0000
0103
0000
0000
,
0010
0000
0002
0000
0000
0013
0000
0000
,
1000
0000
0020
0000
0000
0130
0000
0000
,
0100
0010
0001
1000
,
0100
1000
0100
1000
,
0010
0100
0001
1000
,
0100
1000
0010
1000
,
0010
0100
0001
1000
,
0001
1000
0100
0010
,
0100
1000
0010
0100
,
0001
0010
0100
1000
,
0001
0000
0020
0000
0000
0031
0000
0000
,
1000
0000
0002
0000
0000
0013
0000
0000
,
1000
0000
0200
0000
0000
0310
0000
0000
,
0010
0000
0200
0000
0000
1300
0000
0000
,
0100
0000
0020
0000
0000
0130
0000
0000
,
0010
0000
0200
0000
0000
0310
0000
0000
,
1000
0000
0002
0000
0000
1003
0000
0000
,
0010
0000
0200
0000
0000
0310
0000
0000
,
1000
0000
0000
0000
,
0100
0000
0000
0000
,
0001
0000
0000
0000
,
0010
0000
0000
0000
,
0100
0000
0000
0000
,
0001
0000
0000
0000
,
1000
0000
0000
0000
,
0010
0000
0000
0000
,
1000
0010
0100
0000
,
0001
0010
0100
0000
,
0010
1000
0100
0000
,
0001
0010
0100
0000
,
0010
1000
0100
0000
,
0001
0010
0100
0000
,
1000
0100
0010
0000
,
0001
0010
0100
0000
,
2000
0000
3100
0000
,
0020
0000
0031
0000
,
2000
0000
3010
0000
,
0002
0000
0103
0000
,
0020
0000
1030
0000
,
0200
0000
0310
0000
,
0002
0000
1003
0000
,
2000
0000
3001
0000
,
0001
0010
0100
0000
,
1000
0010
0100
0000
,
0010
0001
0100
0000
,
1000
0010
0100
0000
,
0010
0001
0100
0000
,
1000
0010
0100
0000
,
0001
0100
0010
0000
,
1000
0010
0100
0000
,
0002
0000
0000
0000
,
0023
0000
0000
0000
,
0032
0000
0000
0000
,
2003
0000
0000
0000
,
3200
0000
0000
0000
,
0320
0000
0000
0000
,
2030
0000
0000
0000
,
3002
0000
0000
0000
,
0013
0000
0001
0000
,
1000
0000
0010
0000
,
0100
0000
0001
0000
,
0010
0000
0001
0000
,
1000
0000
0010
0000
,
0100
0000
0001
0000
,
0020
0000
0000
0000
,
0032
0000
0000
0000
,
0203
0000
0000
0000
,
2302
0000
0000
0000
,
0000
0000
0000
0000
,
0000
0000
0000
0000
,
0000
0000
0000
0000
,
0000
0000
3003
0000
;

//--------------- dance-single - B. M'Rey ----------------
#NOTEDATA:;
#STEPSTYPE:dance-single;
#DESCRIPTION:B. M'Rey;
#CREDIT:B. M'Rey;
#DIFFICULTY:Easy;
#METER:8;
#RADARVALUES:0.295425,0.464979,0.244283,0.383271,0,491,433,58,91,0,0,0.295425,0.464979,0.244283,0.383271,0,491,433,58,91,0,0;
#NOTES:
0000
0000
0000
0000
,
0000
0000
0000
0000
,
0000
0000
0000
0000
,
1001
1001
0101
0000
,
0100
1000
0100
1000
,
0001
0010
0100
1000
,
0001
0100
0010
1000
,
0001
1000
0010
1000
,
0100
0010
0100
0010
,
0100
1000
0001
1000
,
0100
0010
0100
1000
,
0010
1000
0010
1000
,
0001
0010
0001
0010
,
0001
1000
0010
1000
,
0010
0000
0002
0000
0000
0003
0000
0000
,
0010
0000
0002
0000
0000
0003
0000
0000
,
0010
0000
2000
0000
0000
3000
0000
0000
,
1000
0000
2000
0000
0000
3000
0000
0000
,
0100
0000
0200
0000
0000
0300
0000
0000
,
1000
0000
2000
0000
0000
3000
0000
0000
,
0010
0200
0302
2003
,
3100
0020
0230
0320
,
0130
2000
3002
0203
,
0310
2000
3200
2300
,
3100
0020
0230
0320
,
0031
0020
0230
2300
,
3100
0020
0032
2003
,
3010
0200
0320
0230
,
0310
1000
0010
0100
,
0001
0100
0010
1000
,
0001
1000
0001
0010
,
0001
0010
0100
0010
,
0001
0100
0001
1000
,
0100
0010
0100
1000
,
0010
0100
0010
0100
,
0001
0010
0001
0100
,
0001
0010
0100
1000
,
0010
0100
0001
0010
,
0001
0100
0010
0100
,
0010
1000
0001
0010
,
0001
0100
0001
0100
,
0010
1000
0001
1000
,
0010
0100
0010
0100
,
0001
1000
0001
0100
,
0001
1000
0100
1000
,
0100
1000
0010
0100
,
0001
0010
0100
0010
,
0100
0010
0001
0100
,
0010
1000
0010
1000
,
0010
0100
0001
0100
,
0001
0100
0010
1000
,
0001
0100
0010
1000
,
0001
0000
0020
0000
0000
0031
0000
0000
,
0001
0000
2000
0000
0000
3100
0000
0000
,
0100
0000
0020
0000
0000
1030
0000
0000
,
0001
0000
2000
0000
0000
3100
0000
0000
,
0010
0000
0200
0000
0000
0301
0000
0000
,
0001
0000
0020
0000
0000
1030
0000
0000
,
0100
0000
0020
0000
0000
0031
0000
0000
,
0100
0000
0002
0000
0000
1003
0000
0000
,
0001
0110
0110
0110
,
0010
1001
1001
1001
,
0100
1001
1001
0110
,
0001
1100
1100
1100
,
0100
0011
0101
0110
,
0010
1100
1100
1010
,
0010
0110
0110
0110
,
0010
1001
0101
0100
,
0001
0010
0001
0000
0010
0000
0001
0100
,
0001
0000
0001
0100
0010
0000
0001
0000
,
0010
0100
0001
0000
0100
0000
0100
1000
,
0001
0000
0001
0010
0001
0000
0010
0000
,
0010
0100
0001
0000
0001
0000
0010
1000
,
0100
0000
0001
0100
0010
0000
0100
0000
,
0010
0100
0010
0000
0001
0000
0001
0100
,
0010
0000
0100
1000
0010
0000
0100
0000
,
0100
1000
0100
1000
,
0010
1000
0100
0010
,
0001
0010
0100
0010
,
0100
1000
0100
0010
,
0001
0010
0100
1000
,
0001
1000
0010
0100
,
0001
0100
0001
0100
,
0010
1000
0010
0100
,
2000
0000
0000
0000
,
3020
0000
0000
0000
,
0032
0000
0000
0000
,
0203
0000
0000
0000
,
2300
0000
0000
0000
,
3020
0000
0000
0000
,
0032
0000
0000
0000
,
0203
0000
0000
0000
0000
0000
0000
0300
,
0010
0100
0010
1000
,
0010
1000
0100
1000
,
0001
0010
0001
0100
,
0001
1000
0010
0100
,
0010
1000
0001
0100
,
0010
1000
0001
0100
,
0001
0010
0100
0010
,
0001
1000
0010
1000
,
1001
1000
1000
1000
,
0110
0100
0100
0100
,
0110
0010
0010
0010
,
0011
0001
0001
0001
,
0110
0100
0100
0100
,
1001
0001
0001
0001
,
1100
0100
0100
0100
,
1010
1000
1000
1000
,
0100
0000
1000
0010
1000
0000
1000
0000
,
0100
0000
1000
0001
1000
0000
0100
0000
,
0010
0000
0100
0010
0100
0000
0100
0000
,
0001
0000
1000
0100
1000
0000
0010
0000
,
0100
0000
0010
0001
0010
0000
0010
0000
,
0100
0000
1000
0100
1000
0000
0010
0000
,
0100
0000
0010
0001
0010
0000
0100
0000
,
0010
0000
1000
0100
1000
0000
1000
0000
,
2000
0000
0000
0000
,
3020
0000
0000
0000
,
0032
0000
0000
0000
,
2003
0000
0000
0000
,
3200
0000
0000
0000
,
0320
0000
0000
0000
,
2030
0000
0000
0000
,
3002
0000
0000
0000
,
0013
0101
0101
0101
,
1000
1010
1010
1010
,
0010
0011
0011
0011
,
0100
1001
1001
1001
,
0010
0110
0110
0110
,
1000
0101
0101
0101
,
0020
0000
0000
0000
,
0032
0000
0000
0000
,
0203
0000
0000
0000
,
0302
0000
0000
0000
,
0000
0000
0000
0000
,
0000
0000
0000
0000
,
0000
0000
0000
0000
,
0000
0000
2000
0000
,
3003
0000
0000
0000
;

//--------------- dance-single - B. M'Rey ----------------
#NOTEDATA:;
#STEPSTYPE:dance-single;
#DESCRIPTION:B. M'Rey;
#CREDIT:B. M'Rey;
#DIFFICULTY:Medium;
#METER:11;
#RADARVALUES:0.459083,0.49225,0.416965,0.18953,0,763,664,99,45,0,0,0.459083,0.49225,0.416965,0.18953,0,763,664,99,45,0,0;
#NOTES:
0000
0000
0000
0000
,
0000
0000
0000
0000
,
0000
0000
0000
0000
,
1001
1001
1001
0000
,
0100
0010
0001
0100
,
0010
1000
0100
0010
,
0100
1000
0010
0100
,
0010
1000
0100
1000
,
0010
0100
0001
1000
,
0001
0100
0010
1000
,
0010
0100
0001
0100
,
0010
1000
0100
1000
,
0001
1000
0100
1000
,
0010
1000
0100
0010
,
0001
1000
0100
0010
,
0001
0010
0001
0100
,
0010
0001
1000
0000
0100
0000
0010
0000
,
0001
1000
0100
0000
0010
0000
1000
0000
,
0001
0010
1000
0000
0100
0000
0010
0000
,
0001
0010
1000
0000
0100
0000
1000
0000
,
0001
1000
0200
0000
0310
0000
1000
0000
,
0001
0010
0200
0000
0310
0000
1000
0000
,
0001
1000
0020
0000
0130
0000
0001
0000
,
0010
1000
0020
0000
0130
0000
0001
0000
,
1000
0010
2000
0000
3100
0000
0001
0000
,
0010
1000
0020
0000
0130
0000
1000
0000
,
0001
1000
0002
0000
0013
0000
0001
0000
,
0100
0001
0200
0000
0301
0000
1000
0000
,
0010
1000
0011
0000
0011
0000
1010
0000
,
0001
0100
0011
0000
1100
0000
0110
0000
,
0010
1000
0011
0000
1100
0000
0110
0000
,
0010
1000
1100
0000
0110
0000
0110
0000
,
0001
0100
0011
0000
1100
0000
0110
0000
,
0001
0100
0101
0000
1010
0000
0110
0000
,
0001
0100
0011
0000
0110
0000
0101
0000
,
0010
1000
0110
0000
1100
0000
1010
0000
,
0001
0010
1100
0000
0110
0000
1100
0000
,
0100
1000
0110
0000
0101
0000
0011
0000
,
0100
0010
0011
0000
1100
0000
0011
0000
,
0100
1000
0110
0000
0101
0000
1010
0000
,
0100
0010
1001
0000
1100
0000
0110
0000
,
0001
0010
1100
0000
0110
0000
1100
0000
,
0001
0100
0011
0000
1100
0000
0110
0000
,
0010
1000
0110
0000
1100
0000
1001
0000
,
0001
0100
0001
0000
0100
0000
1000
0010
,
0001
0010
0100
0000
0001
0000
0010
1000
,
0010
0100
0001
0000
0100
0000
0010
0100
,
0010
1000
0100
0000
0001
0000
0010
0100
,
0001
0010
0001
0000
0010
0000
0010
1000
,
0100
0010
0100
0000
0010
0000
0001
0010
,
0100
0010
0100
0000
0001
0000
0001
1000
,
0010
0100
0001
0000
0100
1000
0100
0001
,
0010
0000
0100
0000
0000
0010
0000
1000
,
0001
0000
0100
0000
0000
0001
0000
0010
,
0001
0000
0100
0000
0000
0010
0000
1000
,
0100
0000
0010
0000
0000
0100
0000
1000
,
0010
0000
1000
0000
0000
0100
0000
0010
,
0100
0000
1000
0000
0000
0001
0000
0010
,
0100
0000
1000
0000
0000
0010
0000
0100
,
0010
0000
0100
0000
0000
0001
0000
1000
,
0001
1000
0001
0000
0011
0000
0100
0010
,
0100
1000
0100
0000
1001
0000
0001
0100
,
0001
0100
0010
0000
1001
0000
0001
1000
,
0001
0010
0100
0000
0110
0000
0001
1000
,
0100
1000
0010
0000
0011
0000
0001
0010
,
0001
0100
0010
0000
0110
0000
0001
0010
,
0001
0010
0001
0000
1100
0000
0100
1000
,
0010
0100
0010
0000
1010
0000
0001
1000
,
0001
1000
0001
0100
0001
0100
0010
0100
,
0001
1000
0100
1000
0100
1000
0010
0100
,
0010
0100
0001
0100
0001
1000
0001
0010
,
0100
0010
0100
0010
0100
1000
0001
0010
,
0001
0100
0001
0100
0010
0100
0001
1000
,
0010
1000
0100
1000
0001
0010
0001
0010
,
0001
0010
0100
1000
0100
1000
0100
1000
,
0001
0010
0001
0010
0001
0010
0100
1000
,
0010
0100
0001
0010
0100
1000
0100
0010
,
0001
0100
0001
0010
0100
0010
0001
1000
,
0100
0010
0001
1000
0100
0010
0001
0100
,
0001
1000
0100
1000
0010
0100
0001
0010
,
0001
0100
0001
0010
0100
1000
0010
0100
,
0010
1000
0100
1000
0010
0100
0001
0010
,
0100
0010
0100
0010
0001
0100
0010
1000
,
0001
0010
0001
1000
0001
0100
0010
0001
,
0200
0001
0010
0001
,
0320
1000
0100
1000
,
0230
1000
0001
1000
,
0302
0010
0100
1000
,
2003
0100
0010
0001
,
3020
1000
0001
1000
,
0230
0010
0001
0010
,
0302
1000
0010
0100
,
0013
0100
0010
0000
0001
0100
0001
0000
,
0100
0010
0100
0000
0100
1000
0010
0000
,
0001
0100
0010
0000
0100
0010
0100
0000
,
0001
0010
0001
0000
0010
1000
0100
0000
,
0001
0100
0010
0000
0100
1000
0010
0000
,
0100
0010
0100
0000
0100
0010
0001
0000
,
0001
0010
0001
0000
0100
1000
0100
0000
,
0010
0100
0010
0000
0100
0010
0001
0000
,
0001
0010
0001
0010
0001
0010
0001
0010
,
0001
0100
0001
0100
0001
0100
0001
0100
,
0001
1000
0001
1000
0001
1000
0001
1000
,
0001
0100
0001
0100
0001
0100
0001
0100
,
0001
0010
0001
0010
0001
0010
0001
0010
,
0001
0100
0001
0100
0001
0100
0001
0100
,
0001
1000
0001
1000
0001
1000
0001
1000
,
0001
0100
0001
0100
0001
0100
0001
0100
,
0001
0100
0010
1000
0010
1000
0001
0100
,
0010
0100
0001
0010
0100
0010
0100
1000
,
0100
0010
0001
0100
0010
0100
0001
0100
,
0001
0100
0010
0100
0001
0010
0100
1000
,
0100
0010
0001
0100
0001
0010
0100
0010
,
0001
1000
0001
0100
0001
0010
0100
1000
,
0100
0010
0001
0100
0001
0010
0100
0010
,
0001
1000
0001
0100
0010
0100
0001
1000
,
0020
1000
0001
1000
,
0032
0010
0203
2300
,
3020
1000
0100
1000
,
0230
0001
1000
0001
,
1320
1000
0100
1000
,
0230
0010
0001
0010
,
0302
0100
1000
0010
,
2003
0010
0100
0001
,
3001
0010
0001
0000
0001
0010
0100
0000
,
0100
0010
0001
0000
0100
1000
0001
0000
,
0010
1000
0010
0000
0001
0010
0001
0000
,
0010
0100
0010
0000
0001
0100
0001
0000
,
0100
1000
0100
0000
0001
0010
0100
0000
,
0001
0100
0010
0000
0001
0100
0010
1000
,
0020
0000
0000
0000
,
0032
0000
0000
0000
,
2003
0000
0000
0000
,
3100
0010
0100
0000
0001
1000
0000
0010
,
0100
0000
0001
0010
0000
0010
0001
0000
,
0010
1000
0000
1000
0010
0000
0100
0010
,
0000
0100
0001
0000
0010
0100
0000
0010
,
0001
0000
0100
0010
0100
0000
0000
0000
;

//--------------- dance-single - B. M'Rey ----------------
#NOTEDATA:;
#STEPSTYPE:dance-single;
#DESCRIPTION:B. M'Rey;
#CREDIT:B. M'Rey;
#DIFFICULTY:Hard;
#METER:16;
#RADARVALUES:0.808058,0.95902,0.315883,0.240071,0.749695,1343,1268,75,57,0,0,0.808058,0.95902,0.315883,0.240071,0.749695,1343,1268,75,57,0,0;
#NOTES:
0000
0000
0000
0000
,
0000
0000
0000
0000
,
0000
0000
0000
0000
,
1001
1001
1001
0000
,
0010
0100
0010
1000
,
0001
0100
0001
0010
,
0100
0010
0001
0100
,
0010
1000
0100
1000
,
0010
0100
0001
0010
,
0100
0010
0001
0100
,
0010
1000
0100
1000
,
0010
1000
0100
0010
,
0100
0000
0001
2000
0000
3010
0000
0100
,
0010
0100
0002
0000
0000
0013
0000
1000
,
0010
0100
2000
0000
0000
3010
0000
0001
,
0100
0010
2000
0000
0000
3100
0000
0010
,
0100
0001
0020
0000
0000
1030
0000
0001
,
0100
0010
2000
0000
0000
3010
0000
0100
,
0001
0010
2000
0000
0000
3010
0000
0100
,
0010
1000
0002
0000
0000
0103
0000
0010
,
1000
0010
0200
0000
0302
0000
1003
0010
,
0100
0001
2000
0000
3020
0000
0130
0001
,
0100
0010
2000
0000
3020
0000
0130
0001
,
0010
1000
0020
0000
0230
0000
0310
1000
,
0100
1000
0020
0000
0230
0000
0301
0010
,
0001
1000
0020
0000
0230
0000
0310
1000
,
0010
0100
0002
0000
0023
0000
1030
0010
,
0100
0010
2000
0000
3002
0000
0103
1000
,
0010
0100
0020
1030
0200
0310
0002
0013
,
0100
0010
0002
0103
0020
1030
0200
0310
,
0100
1000
0002
1003
0002
0103
0002
0103
,
0010
0100
0002
0013
0002
0103
0002
0013
,
0100
1000
0200
0310
0002
1003
0200
1300
,
0100
0010
0002
0103
0002
0103
0020
1030
,
0001
0100
0002
1003
0002
1003
0020
0130
,
0001
0010
0200
0310
0200
0310
0002
0103
,
0010
0100
0020
0130
0002
1003
0002
0103
,
0010
0100
0020
1030
0200
0310
0002
0013
,
0001
0100
0002
0013
0200
0310
0200
0310
,
0001
1000
0002
0103
0002
0103
0020
1030
,
0001
0010
0002
1003
0002
0103
0020
1030
,
0100
1000
0200
1300
0002
0103
0002
0013
,
0100
1000
0200
1300
0020
1030
0002
0103
,
0010
1000
0200
0310
0200
1300
0002
0103
,
0002
0000
2003
0000
3020
0000
0130
0001
,
0200
0000
0320
0000
2030
0000
3010
0100
,
0020
0000
0032
0000
2003
0000
3010
0100
,
0020
0000
0032
0000
2003
0000
3010
0100
,
0020
0000
2030
0000
3002
0000
0103
0010
,
0200
0000
2300
0000
3002
0000
0103
0010
,
0200
0000
2300
0000
3002
0000
0103
0010
,
0200
0000
2300
0000
3002
0000
0103
0010
,
2000
3002
0203
0320
,
1030
0100
2000
0000
3002
0000
0203
0000
,
0301
0100
0002
0000
0023
0000
0031
0100
,
0020
0000
2030
0000
3020
0000
0130
0001
,
0100
0010
2000
0000
3020
0000
0130
0010
,
0001
0100
2000
0000
3020
0000
0130
0001
,
0100
1000
0020
0000
0230
0000
0301
0100
,
1000
0010
0200
0000
0302
0000
2003
0000
,
3001
0100
0001
0000
0020
0000
0130
0000
0020
0000
0130
0000
0002
0000
1003
0000
,
0001
1000
0001
0000
0002
0000
0103
0000
0020
0000
1030
0000
0020
0000
1030
0000
,
0001
0010
0001
0000
0200
0000
0310
0000
0200
0000
1300
0000
0020
0000
0130
0000
,
0010
1000
0010
0000
0002
0000
0013
0000
0200
0000
1300
0000
0020
0000
1030
0000
,
0001
0010
0001
0000
0002
0000
1003
0000
0002
0000
0103
0000
0020
0000
0130
0000
,
0001
1000
0001
0000
2000
0000
3100
0000
0020
0000
0130
0000
0020
0000
1030
0000
,
0100
1000
0100
0000
0002
0000
0103
0000
0020
0000
0130
0000
0002
0000
1003
0000
,
0001
0100
0001
0000
0002
0000
0103
0000
0020
0000
1030
0000
0020
0000
0130
0000
,
0010
1000
0100
0010
0100
1000
0010
0100
0001
0000
0100
1000
0010
1000
0100
1000
,
0100
0000
0001
0010
0100
1000
0001
0010
0100
0000
0100
1000
0010
1000
0100
0010
,
0001
0000
0001
1000
0010
1000
0100
0010
0001
0000
0010
1000
0100
0010
0100
1000
,
0010
0000
0001
0010
0100
1000
0010
1000
0001
0000
0001
0100
0010
1000
0100
0010
,
0001
0000
0010
1000
0001
0010
0100
1000
0010
0000
0010
1000
0010
0100
0001
0010
,
0100
0000
0100
0010
0100
0010
0001
1000
0001
0000
0010
0100
0001
1000
0010
0100
,
0010
0000
0001
0100
0001
0010
0100
0010
0100
0000
0001
0100
0001
1000
0001
0010
,
0100
0000
0001
1000
0010
1000
0010
0100
0010
0000
0100
0010
0001
1000
0100
0010
,
0001
0000
0001
0100
0001
0000
0010
0100
0010
0000
0010
0100
0001
0000
0001
1000
,
0010
0000
0010
0100
0010
0000
0001
1000
0001
0000
0001
1000
0100
0000
0100
0010
,
0100
0000
0001
0100
0001
0000
0001
1000
0100
0000
0010
1000
0010
0000
0001
0010
,
0001
0000
0100
1000
0001
0000
0010
0100
0010
0000
0010
1000
0100
0000
0010
0100
,
0010
0000
0001
0100
0001
0000
0010
1000
0010
0000
0001
0010
0001
0000
0001
0010
,
0100
0000
0001
0100
0010
0000
0001
0010
0001
0000
0001
0010
0100
0000
0010
0100
,
0001
0000
0100
1000
0100
0000
0010
1000
0010
0000
0001
0100
0010
0000
0100
1000
,
0001
0000
0001
1000
0010
0000
0001
0010
0001
0000
0100
1000
0001
0000
0001
0100
,
0010
0000
0001
0010
0001
0000
1000
0000
0100
0000
0100
1000
0001
0010
0001
1000
,
0000
0000
0100
0010
0100
0000
1000
0000
0010
0000
0010
0100
0010
0100
0001
1000
,
0000
0000
0100
0010
0100
0000
0010
0000
0100
0000
0001
1000
0001
1000
0001
1000
,
0000
0000
0010
0100
0010
0000
0100
0000
1000
0000
0010
0100
0001
0100
0001
0100
,
0000
0000
0010
1000
0010
0000
0001
0000
0100
0000
0010
1000
0010
1000
0010
0100
,
0000
0000
0001
1000
0001
0000
0010
0000
0100
0000
0001
1000
0010
1000
0010
1000
,
0000
0000
0100
0010
0100
0000
0001
0000
1000
0000
0010
0100
0010
0100
0010
1000
,
0000
0000
0100
1000
0010
0000
0001
0000
0010
0000
0001
1000
0010
1000
0100
1000
,
0001
0000
0100
1000
0010
0000
0001
1000
0100
0000
0001
0010
0100
0000
0100
1000
,
0010
0000
0001
1000
0010
0000
0001
0010
0100
0000
0100
0010
0001
0000
0010
1000
,
0010
0000
0010
1000
0001
0000
0010
1000
0010
0000
0001
1000
0100
0000
0001
0100
,
0010
0000
0001
0100
0010
0000
0010
0100
0010
0000
0001
0100
0001
0000
0001
1000
,
0010
0000
0100
0010
0100
0000
0001
0100
0001
0000
0001
0010
0100
0000
0001
0010
,
0001
0000
0010
0100
0010
0000
0100
0010
0001
0000
0010
0100
0001
0000
0100
0010
,
0001
0000
0010
1000
0001
0000
0100
1000
0010
0000
0010
1000
0100
0000
0001
0100
,
0010
0000
0100
0010
0100
0000
0100
0010
0001
0000
0010
0100
0010
0000
1000
0000
,
0001
1000
0001
1000
0001
0100
0001
0100
0001
1000
0001
1000
0001
0100
0001
1000
,
0001
1000
0001
0100
0010
0100
0010
0100
0001
0100
0001
0100
0010
0100
0010
0100
,
0001
0100
0001
0010
0001
0010
0001
0100
0001
0100
0001
0010
0001
0010
0001
1000
,
0001
1000
0010
1000
0010
1000
0001
0010
0001
1000
0100
1000
0100
1000
0010
1000
,
0010
1000
0100
1000
0100
1000
0001
1000
0001
1000
0100
1000
0100
0010
0001
0010
,
0001
0010
0100
0010
0100
0010
0001
0010
0100
0010
0001
0010
0001
1000
0001
0100
,
0001
1000
0001
0100
0001
0100
0001
1000
0001
1000
0100
1000
0100
1000
0010
1000
,
0010
1000
0001
1000
0001
1000
0010
1000
0010
1000
0100
0010
0001
0010
0100
0010
,
0001
0000
0100
0010
0001
0000
0010
0100
0001
0000
0010
1000
0100
0000
0100
1000
,
0001
0000
0001
0010
0100
0000
0001
0100
0001
0000
0100
1000
0100
0000
0010
1000
,
0010
0000
0001
0010
0100
0000
0010
0100
0010
0000
0010
1000
0100
0000
0001
0100
,
0010
0000
0100
1000
0010
0000
0001
0010
0001
0000
0001
0010
0100
0000
0100
0010
,
0001
0000
0001
0100
0001
0000
0010
0100
0010
0000
0001
1000
0100
0000
0001
1000
,
0100
0000
0100
1000
0010
0000
0010
0100
0001
0000
0100
0010
0100
0000
0100
1000
,
0010
0000
0010
1000
0010
0000
0100
1000
0010
0000
0001
1000
0010
0000
0100
0010
,
0001
0000
0001
1000
0010
0000
0001
0100
0010
0000
0100
0010
0001
0000
0001
0010
,
2000
0000
3002
0000
0203
0000
0310
1000
,
0200
0302
0203
0302
,
0203
0000
0310
1000
0200
0000
0320
0000
,
0032
0000
0103
0010
2000
0000
3200
0000
,
0320
0000
0031
0100
0020
0000
2030
0000
,
3020
0000
0130
0010
0200
0000
0302
0000
,
0203
0000
0310
1000
0020
0000
2030
0000
,
3200
0000
0301
0100
0020
0000
0230
0000
,
0301
0000
0001
0100
0001
0000
0001
1000
0010
0000
0100
1000
0010
0000
0010
0100
,
0001
0000
0001
0010
0100
0000
0100
1000
0100
0000
0001
0010
0001
0000
0001
1000
,
0010
0000
0010
0100
0010
0000
0100
1000
0100
0000
0010
0100
0010
0000
0010
1000
,
0001
0000
0001
1000
0100
0000
0100
0010
0100
0000
0010
1000
0001
0000
0001
0100
,
0001
0000
0010
0100
0001
0000
0010
1000
0100
0000
0001
0010
0001
0000
0001
1000
,
0010
0000
0001
1000
0010
0000
0010
0100
0010
0000
0001
1000
0001
0000
0100
0010
,
0001
1000
0010
1000
0100
1000
0100
1000
0100
1000
0100
1000
0100
1000
0001
1000
,
0001
0100
0001
0100
0001
0010
0001
0100
0010
0100
0010
0100
0010
0100
0010
0100
,
0010
0100
0001
1000
0100
1000
0100
1000
0100
1000
0100
1000
0100
1000
0010
1000
,
0001
0000
0100
0010
0001
0100
0010
0000
0001
0010
0100
0010
0001
0000
0010
0100
,
0001
0010
0100
0000
0001
0010
0100
0010
0001
0000
0100
0010
0001
1000
0010
0000
,
0001
1000
0100
0010
0001
0000
0010
1000
0100
0010
0100
0000
0010
1000
0001
1000
,
0100
0000
0100
0010
0001
0010
0100
0000
0001
1000
0010
0100
0001
0000
0100
1000
,
0010
0100
0010
0000
0001
0100
0010
0100
1000
0000
0000
0000
0000
0000
0000
0000
;

//--------------- dance-single - B. M'Rey ----------------
#NOTEDATA:;
#STEPSTYPE:dance-single;
#DESCRIPTION:B. M'Rey;
#CREDIT:B. M'Rey;
#DIFFICULTY:Challenge;
#METER:18;
#RADARVALUES:0,0,0,0,0;
#NOTES:
0000
0000
0000
0000
,
0000
0000
0000
0000
,
0000
0000
0000
0000
,
1001
1010
0110
0000
,
0100
0010
0001
0010
0001
1000
0010
1000
,
0010
0100
0001
0100
0010
1000
0001
1000
,
0100
0010
0001
1000
0001
0100
0010
1000
,
0001
1000
0010
0100
0001
0010
0100
1000
,
0100
1000
0010
0100
0001
1000
0001
1000
,
0100
0010
0001
0010
0100
1000
0010
1000
,
0010
0100
0001
0100
0001
0010
0100
1000
,
0100
0010
0001
0100
0010
1000
0100
0010
,
0001
1000
0001
0100
0010
0100
0001
0010
,
0001
0010
0100
1000
0001
0010
0001
0100
,
0010
0100
0001
1000
0001
0010
0100
0010
,
0100
1000
0001
0100
0010
1000
0100
1000
,
0010
0100
0020
0130
0002
0013
0200
0310
,
0001
1000
0002
0103
0020
0130
0020
1030
,
0100
1000
0002
0103
0020
1030
0002
1003
,
0010
0100
0002
0103
0002
0013
0200
0310
,
1100
0000
1010
0000
0100
0010
0100
1000
,
1010
0000
0110
0000
0001
0100
0010
1000
,
1001
0000
0101
0000
0010
1000
0001
1000
,
0011
0000
1100
0000
0001
0010
0001
0100
,
1010
0000
1010
0000
0100
0010
0001
1000
,
0110
0000
0011
0000
0010
1000
0100
0010
,
1001
0000
0110
0000
0100
0010
0001
0100
,
1010
0000
1100
0000
0010
0100
0001
1000
,
0001
1000
0001
1000
0001
1000
0001
1000
0001
1000
0100
1000
0100
1000
0100
1000
,
0100
0010
0100
0010
0100
0010
0100
0010
0100
0010
0001
0010
0001
0010
0001
0010
,
0001
0100
0001
0100
0001
0100
0001
0100
0001
0100
0010
0100
0010
0100
0010
1000
,
0010
0100
0010
1000
0010
0100
0010
0100
0001
0100
0001
0100
0010
0100
0001
0100
,
0010
0100
0010
0100
0010
1000
0010
1000
0001
1000
0010
1000
0010
1000
0010
1000
,
0010
1000
0010
1000
0010
0100
0010
0100
0010
0100
0001
0100
0001
0100
0001
0100
,
0001
0100
0001
0100
0001
0010
0001
0010
0001
1000
0010
1000
0010
1000
0010
1000
,
0010
1000
0010
1000
0010
1000
0010
1000
0010
0100
0001
0100
0001
0100
0001
0010
,
0001
0100
0001
0100
0001
0100
0001
0100
0001
0100
0010
0100
0010
0100
0010
0100
,
0010
1000
0010
1000
0010
1000
0010
1000
0010
1000
0001
1000
0001
1000
0001
1000
,
0001
0010
0001
0010
0001
0010
0001
0010
0100
0010
0100
1000
0100
1000
0100
1000
,
0100
1000
0001
1000
0001
1000
0001
1000
0001
1000
0001
0100
0001
1000
0001
1000
,
0001
1000
0100
0010
0100
0010
0100
0010
0100
0010
0100
1000
0100
0010
0100
0010
,
0100
0010
0001
0010
0001
0010
0001
0010
0100
0010
0100
0010
0100
1000
0100
1000
,
0100
1000
0100
1000
0100
1000
0100
1000
0001
1000
0001
1000
0001
0100
0001
0100
,
0001
0100
0001
0010
0001
0010
0001
0010
0100
0010
0001
0010
0100
1000
0100
1000
,
0010
0100
0020
1030
0200
0310
0002
0013
,
0100
0010
0002
0103
0020
1030
0200
0310
,
0100
1000
0002
1003
0002
0103
0002
0103
,
0010
0100
0002
0013
0002
0103
0002
0013
,
0100
1000
0200
0310
0002
1003
0200
1300
,
0100
0010
0002
0103
0002
0103
0020
1030
,
0001
0100
0002
1003
0002
1003
0020
0130
,
0001
0010
0200
0310
0200
0310
0002
0103
,
0002
0000
2003
0000
3020
0000
0130
0001
,
0200
0000
0320
0000
2030
0000
3010
0100
,
0020
0000
0032
0000
2003
0000
3010
0100
,
0020
0000
0032
0000
2003
0000
3010
0100
,
0020
0000
2030
0000
3002
0000
0103
0010
,
0200
0000
2300
0000
3002
0000
0103
0010
,
0200
0000
2300
0000
3002
0000
0103
0010
,
0200
0000
2300
0000
3002
0000
0103
0010
,
0001
1000
0010
1000
0001
0100
0001
0100
0001
0100
0001
0100
0010
0100
0010
0100
,
0010
0100
0010
0100
0010
1000
0010
1000
0010
1000
0001
1000
0001
1000
0001
0010
,
0001
0010
0001
0010
0001
0100
0001
1000
0001
1000
0100
0010
0100
0010
0001
0100
,
0001
0100
0010
0100
0010
0100
0010
0100
0010
0100
0010
0100
0010
0100
0010
1000
,
0010
1000
0001
0010
0001
1000
0010
1000
0010
1000
0010
1000
0010
1000
0010
1000
,
0010
1000
0010
1000
0010
0100
0001
0100
0001
0100
0001
0100
0001
1000
0001
1000
,
0001
0100
0001
1000
0001
1000
0100
1000
0001
1000
0010
1000
0010
1000
0010
1000
,
0010
1000
0100
0010
0100
1000
0100
1000
0100
1000
0100
1000
0010
0000
0000
0000
,
0100
1000
0100
1000
0100
1000
0100
1000
0010
0100
0010
0100
0010
0100
0010
0100
,
0001
1000
0001
1000
0001
0100
0001
0100
0010
0100
0001
0100
0001
0010
0100
0010
,
0100
0010
0100
0010
0100
1000
0001
1000
0001
1000
0001
0100
0001
0100
0010
0100
,
0001
0100
0001
1000
0100
1000
0100
1000
0010
1000
0010
0100
0010
0100
0010
1000
,
0100
1000
0001
0100
0001
0010
0001
0010
0001
0010
0100
0010
0100
1000
0100
1000
,
0100
0010
0001
0010
0001
0010
0001
0010
0001
1000
0010
1000
0010
1000
0010
1000
,
0010
0100
0001
0010
0001
0010
0001
0100
0001
0100
0010
0100
0010
0100
0010
1000
,
0001
1000
0001
1000
0001
1000
0001
0010
0100
0010
0100
0010
0001
1010
0100
0000
,
0001
1000
0001
0010
0001
0010
0001
0010
0001
0010
0100
0010
0100
0010
0001
0010
,
0001
0010
0001
1000
0001
1000
0001
1000
0001
1000
0001
1000
0100
1000
0100
1000
,
0100
1000
0100
0010
0100
0010
0100
0010
0100
0010
0100
0010
0001
0010
0001
0010
,
0100
0010
0100
1000
0100
1000
0100
1000
0100
1000
0010
1000
0001
1000
0001
1000
,
0001
1000
0001
0010
0001
0010
0001
0010
0001
0010
0001
0010
0100
0010
0100
0010
,
0100
0010
0100
1000
0100
1000
0010
1000
0010
1000
0010
1000
0010
1000
0010
1000
,
0010
1000
0010
0100
0010
0100
0001
0100
0001
0100
0001
0100
0001
1000
0001
0100
,
0001
1000
0001
0100
0001
0010
0100
0010
0100
0010
0100
0010
0100
0010
0001
0000
,
0010
1000
0001
0100
0010
1000
0001
0100
0010
0000
0100
0010
0001
1000
0010
0100
,
0001
0000
0100
1000
0010
0100
0001
1000
0010
0000
0001
1000
0100
0010
0001
1000
,
0100
0000
0001
0100
0010
1000
0001
0010
0100
0000
0001
0010
0100
1000
0001
0100
,
0010
0000
0001
0100
0010
1000
0100
0010
0001
0000
0010
0100
0001
1000
0010
0100
,
0001
0000
0100
1000
0001
0010
0100
1000
0001
0000
0010
1000
0100
0010
0001
1000
,
0100
0000
0001
1000
0100
0010
0001
1000
0100
0000
0001
0100
0010
1000
0100
0010
,
0001
0000
0010
0100
0001
0010
0100
1000
0010
0000
0001
1000
0010
0100
0001
0010
,
0100
0000
0001
0100
0010
1000
0001
0010
0100
0000
0001
0010
0100
1000
0010
0100
,
1000
0000
0010
0001
0010
0000
0010
0100
0010
0000
0010
0100
0010
0001
0010
0001
,
0010
0000
1000
0001
1000
0000
1000
0010
1000
0000
0100
0010
0100
0010
0100
0010
,
0100
0000
0100
0010
0100
0000
0100
0010
0100
0000
1000
0100
1000
0001
1000
0001
,
1000
0000
1000
0100
1000
0000
0010
0100
0010
0000
0010
0100
0010
0100
0010
0100
,
0010
0000
0010
0001
0010
0000
1000
0001
1000
0000
1000
0001
1000
0001
0100
0001
,
0100
0000
0100
0010
0100
0000
0100
0010
1000
0000
1000
0001
1000
0001
1000
0001
,
1000
0000
0100
0001
0100
0000
0100
0001
0100
0000
0100
0010
0100
0010
1000
0010
,
0100
0000
0100
0010
0100
0000
0100
0010
0100
0000
0100
0001
0100
0001
0100
0000
,
1000
0001
0010
0001
0010
0100
1000
0001
1000
0010
0100
0010
0100
0001
0010
0001
,
0010
0100
1000
0100
1000
0001
0010
0001
0010
0100
1000
0100
1000
0010
0100
0010
,
0100
0001
1000
0001
1000
0100
0010
0100
0010
0001
1000
0001
1000
0100
0010
0100
,
1000
0010
1000
0010
0100
0001
1000
0100
1000
0001
0100
0001
0100
0010
1000
0010
,
1000
0100
0010
0100
0010
0001
1000
0001
0010
0100
1000
0100
1000
0001
0010
0001
,
0010
0100
1000
0100
1000
0010
0100
0001
0100
0001
0010
0100
0010
0100
1000
0001
,
0010
0100
0010
0100
1000
0001
0010
0100
0010
0100
1000
0001
1000
0001
0100
0010
,
0100
0010
1000
0100
1000
0100
0010
0001
0010
0001
0100
0010
0100
0010
1000
0001
,
0010
0000
0010
1000
0010
0000
0010
1000
0010
0000
0010
1000
0100
1000
0100
1000
,
0100
0000
0100
0010
0100
0000
0001
0010
0001
0000
0001
0010
0001
1000
0001
1000
,
0010
0000
0010
1000
0010
0000
0010
1000
0010
0000
0010
1000
0100
1000
0100
1000
,
0100
0000
0100
0010
0100
0000
0100
0010
0001
0000
0001
0010
0001
0010
0001
1000
,
0001
0000
0001
1000
0001
0000
0010
1000
0010
0000
0010
1000
0010
1000
0010
1000
,
0100
0000
0100
1000
0100
0000
0100
1000
0100
0000
0100
1000
0100
1000
0001
0010
,
0001
0000
0001
0010
0001
0000
0100
1000
0001
0000
0001
1000
0001
0100
0001
0100
,
0010
0000
0010
0100
0010
0000
0010
1000
0010
0000
0010
1000
0010
0100
0010
0000
,
4M00
000M
00M0
000M
0M00
00M0
000M
0M00
,
304M
0M00
M000
0M00
M400
000M
4300
0M00
,
3034
00M0
M000
0M00
M000
00M0
0M00
00M0
,
4M03
000M
00M0
000M
0M00
00M0
0M00
000M
,
34M0
000M
M000
00M0
000M
M000
000M
00M0
,
034M
M000
0M00
M000
000M
0M00
000M
0M00
,
403M
0M00
00M0
0M00
000M
00M0
0M00
000M
,
3M40
000M
M000
0M00
M000
000M
0M00
M000
,
0M31
0000
0001
0100
0001
0000
0001
0100
0001
0000
0001
0100
0001
0100
0001
0100
,
0010
0000
0010
0100
0010
0000
0010
0100
0010
0000
0010
0100
0010
0100
0010
0100
,
0001
0000
0001
1000
0001
0000
0010
1000
0100
0000
0100
1000
0100
1000
0010
1000
,
0010
0000
0100
1000
0001
0000
0010
1000
0010
0000
0010
1000
0010
1000
0010
1000
,
0010
0000
0010
0100
0010
0000
0010
0100
0010
0000
0010
0100
0010
0100
0010
0100
,
0010
0000
0001
1000
0010
0000
0010
1000
0010
0000
0010
1000
0010
1000
0010
0000
,
0020
0M00
M000
0M00
M000
000M
0M00
M000
,
0M32
M000
00M0
0M00
00M0
M000
0M00
00M0
,
2M03
00M0
000M
0M00
00M0
0M00
00M0
0M00
,
3001
0000
0010
0100
0001
0010
0100
0000
0010
0100
0001
0010
0100
0000
0001
0100
,
0010
1000
0001
0000
0010
1000
0100
0010
0001
0000
0010
1000
0001
0100
0010
0000
,
0100
0010
0001
1000
0010
0000
0001
0010
0100
1000
0001
0000
0100
1000
0010
0100
,
0001
0000
0010
0100
0001
1000
0010
0000
0001
1000
0100
0010
0001
0000
0010
0100
,
0001
0010
0100
0000
0001
0010
0100
1000
0040
0000
0000
0000
0030
0000
0000
0000
;
