#TITLE:Summerlove;
#SUBTITLE:(Remember Mix);
#ARTIST:David Tavare;
#GENRE:Uplifting Trance;
#CREDIT:B. M'Rey;
#MUSIC:Summerlove (Remember Mix).ogg;
#BANNER:Summerlove (Remember Mix)-bn.png;
#BACKGROUND:Summerlove (Remember Mix)-bg.png;
#CDTITLE:./CDTITLES/BMR Superstars.PNG;
#SAMPLESTART:69.74;
#SAMPLELENGTH:12;
#OFFSET:-0.002;
#BPMS:0=137.956;

//--------------- dance-single - B. M'Rey ----------------
#NOTES:
     dance-single:
     B. M'Rey:
     Beginner:
     2:
     0.078607,0.086021,0,0,0,77,77,0,0,0,0,0.078607,0.086021,0,0,0,77,77,0,0,0,0:
0000
0000
0000
0000
,
0000
0000
0000
0000
,
0000
0000
0000
0000
,
0000
0000
0000
0000
,
0000
1000
0000
0000
,
0000
0000
0000
0000
,
0000
0001
0000
0000
,
0000
0100
0000
0000
,
0000
0010
0000
0001
,
0000
0010
0000
0100
,
0000
1000
0000
0010
,
0000
0100
0000
0010
,
0000
1000
0000
0001
,
0000
0010
0000
0001
,
0000
0100
0000
0010
,
0000
1000
0000
0100
,
0000
1000
0000
0000
,
0000
0000
0000
0001
,
0000
0010
0000
0000
,
0000
0000
0000
0000
,
0100
0000
0000
0000
,
0010
0000
0000
0000
,
0000
1000
0000
0001
,
0000
0100
0000
0000
,
0000
0010
0000
1000
,
0000
0001
0000
0010
,
0000
0001
0000
0100
,
0000
0010
0000
1000
,
0000
0100
0000
1000
,
0000
0010
0000
0100
,
0000
0001
0000
0010
,
0000
1000
0000
0010
,
0000
0100
0000
0000
,
0000
0000
0001
0000
,
0000
1000
0000
0000
,
0000
0000
0000
0000
,
0000
0100
0000
0000
,
0000
0010
0000
0000
,
0000
0001
0000
0000
,
0000
1000
0000
0000
,
0000
0010
0000
0100
,
0000
0010
0000
0100
,
0000
0010
0000
0000
,
0000
0000
0000
0001
,
0000
1000
0000
0001
,
0000
1000
0000
0000
,
0000
0010
0000
0100
,
0000
0001
0000
0010
,
0000
1010
0000
0100
,
0000
1000
0000
0001
,
0000
1001
0000
0100
,
0000
0010
0000
1000
,
0000
0110
0000
0001
,
0000
0010
0000
0001
,
0000
0110
0000
1000
,
0000
0100
0000
1000
,
0000
0010
0000
0000
,
0000
0000
0000
0000
,
0000
0100
0000
0000
,
0000
0000
0000
0000
,
0000
1000
0000
0000
,
0000
0001
0000
0000
,
0000
0000
0010
0000
,
0000
0000
0100
0000
,
0000
1001
0000
0000
,
0000
0010
0000
0000
,
0000
0100
0000
0000
,
0000
0001
0000
0000
,
0000
1001
0000
0000
,
0000
0100
0000
0000
,
0000
1000
0000
0010
,
0000
0200
0000
0000
,
0020
0330
0000
0001
,
0000
0010
0000
0100
,
0000
0010
0000
0100
,
0000
1000
0000
0010
,
0000
0001
0000
0100
,
0000
0010
0000
0001
,
0000
0100
0000
0010
,
0000
1000
0000
0010
;

//--------------- dance-single - B. M'Rey ----------------
#NOTES:
     dance-single:
     B. M'Rey:
     Easy:
     3:
     0.132713,0.285843,0.071461,0.092899,0,130,120,10,13,8,0,0.132713,0.285843,0.071461,0.092899,0,130,120,10,13,8,0:
0000
0000
0000
0000
,
0000
0000
0000
0000
,
0000
0000
0000
0000
,
0000
0000
0000
0000
,
0000
0000
0020
0000
0000
0030
0000
0000
,
0000
0000
0000
0000
,
0000
1000
0000
0010
,
0000
0100
0000
0001
,
0000
1000
0010
0100
,
0000
0001
0010
0100
,
0000
1000
0010
0100
,
0000
0010
0000
0001
,
0000
1000
0010
1000
,
0000
0010
0100
0001
,
0000
0010
0000
1000
,
0000
0010
0000
0001
,
1000
0001
0000
0001
,
0000
0100
0010
0000
,
0010
0001
0000
1000
,
0000
0001
0000
0100
,
0010
0100
0000
0001
,
1000
0001
0000
0001
,
0000
0100
0000
0010
,
0000
0001
0100
0001
,
0200
0301
1000
0001
,
0010
0001
0010
0100
,
0010
0100
1000
0100
,
1000
0010
0100
0010
,
0100
0010
1000
0001
,
0010
0001
0100
0001
,
1000
0010
1000
0010
,
0100
0010
0100
0001
,
0100
0001
0000
1000
,
0000
0000
0100
0000
0000
0001
0000
0000
,
1000
0001
0000
0010
,
0000
1000
0000
0010
,
0100
1000
0000
0000
,
0100
0001
0000
0000
,
0001
0000
1000
0000
0000
0010
0000
0000
,
0000
0001
0000
0000
0000
0000
0000
0000
,
0000
0001
1000
0010
,
1000
0010
1000
0100
,
0010
0002
0000
0013
,
0000
0001
0000
0010
,
0100
0010
0100
0010
,
1000
0002
0020
0000
,
0000
0033
0100
0000
0010
0000
0001
0000
,
1000
0001
1000
0001
,
0010
1000
0000
0010
,
0000
0100
0000
0001
,
0000
1001
0000
0010
,
0000
0001
0000
0100
,
0000
0010
0000
1000
,
0000
0100
0000
0001
,
0000
0110
0000
1000
,
0000
0010
0000
0100
,
0000
0001
0000
0000
,
0000
0000
0000
0000
,
0000
0100
0000
0000
,
0000
1000
0000
0000
,
0000
0010
0000
0000
,
0000
0001
0000
0000
,
0000
1000
0000
0000
,
0000
0100
0000
0000
,
0000
0110
0000
0000
,
0000
1000
0000
0000
,
0000
0001
0000
1000
,
0000
0010
0000
0100
,
0000
0010
0000
1000
,
0000
0001
1000
0001
,
1000
0010
0100
0010
,
0100
0020
0000
0000
,
0031
0100
1000
0010
,
1000
0010
0000
0001
,
0000
0100
0000
0010
,
0000
1000
0000
0010
,
1000
0001
1000
0001
,
0010
0001
0020
0000
,
0000
0130
0000
1000
,
0000
0010
0000
0001
,
0000
0010
0000
0000
0000
0000
0000
0000
;

//--------------- dance-single - B. M'Rey ----------------
#NOTES:
     dance-single:
     B. M'Rey:
     Medium:
     6:
     0.343012,0.515321,0.16436,0.250113,0,336,313,23,35,8,0,0.343012,0.515321,0.16436,0.250113,0,336,313,23,35,8,0:
0000
0000
0000
0000
,
0000
0000
0000
0000
,
0000
0000
0000
0000
,
0000
0000
0000
0000
,
0000
0000
0020
0000
0000
0230
0000
0000
,
0000
0000
0000
0000
,
0000
0000
0000
0000
,
0000
0000
0000
0000
,
0000
0310
1000
0010
,
1000
0001
1000
0001
,
0010
0001
0010
0100
,
0010
0100
1000
0100
,
1000
0010
1000
0010
,
0100
0010
0100
0001
,
0100
0010
1000
0010
,
1000
0000
0010
0000
0100
0000
0001
1000
,
0000
1000
0001
0000
0100
0000
1000
0000
,
0100
0000
0001
0000
0001
0010
0000
1000
,
0100
0001
0100
0001
,
0100
0000
0001
0000
0010
0000
0100
1000
,
0001
0000
0010
0000
0100
0000
0001
1000
,
0010
0001
0010
0001
,
0100
0000
0010
0001
0000
1000
0000
1000
,
0001
0110
0101
1001
,
1001
0000
0001
1000
0001
0000
0001
0100
,
0010
0000
0010
0100
0001
0000
0001
1000
,
0010
0000
0010
1000
0010
0000
0001
0100
,
0001
0000
0010
1000
0010
0000
0100
0000
,
0001
0000
0010
0100
0010
0000
0001
1000
,
0001
0000
0100
0010
0001
0000
0001
0010
,
0100
0000
0001
1000
0001
0000
0010
0100
,
0010
0000
0010
1000
0100
0000
0010
1000
,
0010
0100
0001
0000
1000
0000
0100
0000
,
1000
0000
0100
0000
1000
0000
0100
1000
,
0100
0010
0001
0000
0010
0000
0001
0000
,
0010
0000
0001
0000
1000
0000
0100
1000
,
0100
0000
0010
0000
0001
0000
0100
0010
,
0001
0010
0100
0000
1000
0000
0100
0000
,
0001
0000
0001
0100
0000
1000
0000
0010
,
0000
1000
0000
0100
0001
0000
0010
0000
,
0100
0001
1000
0100
,
1000
0100
1000
0001
,
0100
0000
0001
0000
0100
0010
0001
0000
,
1000
0100
1000
0000
1000
0100
1000
0000
,
1000
0001
0010
0001
,
0010
0001
1000
0000
,
0000
0000
0100
0001
0010
0000
0100
0010
,
1000
0000
0001
0010
1000
0000
0001
0100
,
1000
0000
0001
1000
0001
1000
0000
0100
,
0010
0100
0000
1000
0001
1000
0000
0010
,
0001
0110
0001
1000
,
0001
0100
0001
0100
,
0010
0000
0101
0000
0001
0100
0010
0000
,
1000
0010
1000
0010
,
0100
0000
0001
0000
0001
0010
0001
0000
,
1000
0001
1000
0001
,
0010
0001
1000
0001
,
1000
0001
0100
0010
,
0100
0010
0000
0001
,
0000
0010
0000
0100
,
0010
0100
1000
0100
,
1000
0001
1000
0000
,
0000
0001
0000
0010
,
0000
0000
0100
0000
0000
0000
0001
0100
,
0001
0100
0000
0001
,
0000
0100
0000
0100
,
1000
0001
0000
0100
,
0000
1000
0000
0001
,
1000
0001
1000
0001
,
0100
0010
0100
0010
,
0100
0000
0001
1000
0001
1000
0001
1000
,
0001
1000
0002
0000
0000
0000
0000
0000
,
0000
0003
0100
0000
1000
0000
0100
0000
,
1000
0100
0010
0001
,
0010
0001
0100
0001
,
0100
0010
0100
0010
,
1000
0010
0100
0001
,
0100
0020
0000
0000
,
0030
0001
1000
0001
,
1000
0001
0010
0100
,
0010
0000
0000
0000
;

//--------------- dance-single - B. M'Rey ----------------
#NOTES:
     dance-single:
     B. M'Rey:
     Hard:
     8:
     0.469599,0.801611,0.228674,0.271551,0.275124,460,428,32,38,107,0,0.469599,0.801611,0.228674,0.271551,0.275124,460,428,32,38,107,0:
0000
0000
0000
0000
,
0000
0000
0000
0000
,
0000
0000
0000
0000
,
0000
0000
0000
0000
,
0000
0000
0002
0000
0000
2003
0000
0000
,
0000
0000
0000
0000
,
0000
0000
0000
0000
3001
0000
0000
0010
0000
0000
0001
0000
1000
0000
0000
0100
,
0000
0000
1000
0000
0100
0000
0000
1000
0000
0000
0001
0000
0010
0000
0000
0001
,
0000
0010
0100
0000
1001
0000
0110
0000
,
1100
1001
0110
1100
,
1001
1001
0110
1001
,
1100
0101
1001
0110
,
1001
0101
0101
0110
,
1010
0011
1010
1001
,
0101
1001
1100
0110
,
0011
0000
1100
0000
0011
0000
1100
0001
,
0100
0000
0010
0000
1000
0000
0000
0001
0000
0000
0100
0000
1000
0000
0000
0001
,
0000
1000
0100
0000
0100
0020
0000
1030
,
0001
0000
0100
0000
0001
0000
0100
1000
0000
0000
0010
0000
1000
0000
0000
0001
,
0000
0000
0100
0000
0001
0000
0000
1000
0000
0000
0010
0000
1000
0000
0001
0000
,
0100
0001
0010
0000
1000
0000
0001
0100
,
0001
0100
1000
0000
0001
0000
0010
0000
,
1000
0000
0001
0100
0000
1000
0000
0001
,
0100
0010
1001
0000
1001
0000
1001
0000
,
2002
0000
0000
0000
3103
0000
0001
0100
0000
1000
0010
0000
0001
0000
0001
0010
,
0000
1000
0010
0000
0001
0000
0010
1000
0000
0100
0001
0000
0100
0000
0001
0100
,
0000
0100
0010
0000
0001
0000
0100
0010
0000
1000
0001
0000
0001
0000
0010
1000
,
0000
0100
0001
0000
0100
0000
0100
0010
0000
1000
0010
0000
0001
0000
0001
1000
,
0000
0100
0010
0000
0010
0000
0001
0010
0000
1000
0010
0000
0010
0000
0010
1000
,
0000
1000
0010
0000
0010
0000
0001
0010
0000
0100
0010
0000
0001
0000
0010
1000
,
0000
1000
0100
0000
0001
0000
0100
0010
0000
1000
0010
0000
0010
0000
0001
0100
,
0000
1000
0001
0000
0010
0000
0001
1000
0000
1000
0010
0000
0001
0000
0010
0000
,
0100
0000
0001
0000
0100
0000
0000
1000
0000
0000
0001
0000
0010
0000
0000
1000
,
0000
0000
0100
0000
0001
0000
0000
1000
0000
0000
2000
0000
0000
0000
3100
0000
,
0010
0000
1000
0000
0001
0000
0100
0000
0001
0000
1000
0000
0001
0000
0000
0100
,
0000
0000
1000
0000
0010
0000
0000
1000
0000
0000
0001
0000
0100
0000
0010
0000
,
1000
0001
0100
0000
0100
0000
0100
0010
,
1000
0001
0100
0000
0010
0000
0010
0000
,
0010
0000
0010
1000
0000
0001
0000
0001
,
1000
0000
0100
0000
0100
0000
0000
0001
0000
0000
1000
0000
0001
0000
0000
0100
,
0000
0010
0001
0100
0010
0100
0010
0100
,
0001
1000
0001
0010
0001
0010
0100
1000
,
0100
0000
1000
0000
0200
0000
0000
0000
0000
0000
1300
0000
0001
0000
0000
0010
,
0000
0000
0001
0000
0010
0000
0000
1000
0000
0000
0100
0000
1000
0000
0001
0000
,
1000
0001
0100
0001
0100
0010
0100
0010
,
1000
0010
2000
0000
0020
0000
0000
0000
,
3030
0000
0000
0000
0001
0000
0000
1000
0000
0000
0100
0000
0001
0000
0000
0010
,
0000
0000
1000
0000
0001
0000
0000
0100
0000
0000
0001
0000
1000
0000
0000
0001
,
0000
0001
1000
0001
1000
0001
0010
0100
,
0010
0100
0010
0001
1000
0001
1000
0001
,
0100
0000
0010
0000
2000
0000
0000
0000
0000
0000
3001
0000
0100
0000
0000
0001
,
0000
0000
1000
0000
0010
0000
0000
0001
0000
0000
1000
0000
0100
0000
0000
0001
,
0000
0010
0002
0000
2003
3200
0000
0000
,
0000
0000
0301
0000
1000
0000
0000
0100
0000
0000
0010
0000
0001
0000
0000
1000
,
0000
0100
0010
0000
1000
0002
0000
0000
,
0000
0000
0000
0000
0103
0000
0000
1000
0000
0000
0001
0000
0010
0000
0000
1000
,
0000
0100
0001
0000
1000
0000
0010
0000
,
1000
0010
1000
0100
,
0010
0200
0000
2300
,
0000
0000
3020
0000
0000
0000
0030
0010
,
0000
1000
0000
0010
0000
1000
0000
0010
,
0000
0200
0000
0000
0320
0000
0000
0000
,
0000
0031
0000
0100
,
0000
0000
1000
0000
0000
0000
0000
1000
,
0100
1000
0200
0000
0000
0000
2300
0000
,
0000
0000
3020
0000
0030
1000
0001
0100
,
0001
0100
0002
0000
0000
0000
0203
0000
,
0001
0000
0001
0000
0001
0000
0301
0100
,
0010
1000
0002
0000
1000
0000
1000
0013
,
0100
2000
0001
0000
0001
0000
0001
0000
,
0100
3000
0010
1000
0001
0100
0001
0100
,
0001
0000
1000
0100
0010
0100
0010
0100
0010
0100
0010
0100
0010
0100
0010
0100
,
0220
0000
0331
1000
0100
1000
0100
0010
,
0001
0000
0010
0000
0001
0000
0000
1000
0000
0000
1000
0000
0010
0000
0000
0100
,
0000
0000
0100
0000
0010
0000
0000
1000
0000
0000
1000
0000
0100
0000
0000
0001
,
0000
0000
0100
0000
0001
0000
0000
1000
0000
0000
1000
0000
0010
0000
1000
0000
,
0010
0100
0001
0100
0001
0100
0010
1000
,
0010
1000
0010
0000
1000
0000
0100
0000
,
0001
0000
1000
0000
0100
0000
0000
1000
0000
0000
1000
0000
0010
0000
0000
0100
,
0000
0000
0100
0000
0010
0000
0000
0001
0000
0000
1000
0000
0001
0000
0000
0010
,
0000
0100
0000
0000
0000
0000
0000
0000
;

//--------------- dance-single - B. M'Rey ----------------
#NOTES:
     dance-single:
     B. M'Rey:
     Challenge:
     10:
     0.683981,1.002013,0.307281,0.328719,0.753911,670,626,43,46,0,11,0.683981,1.002013,0.307281,0.328719,0.753911,670,626,43,46,0,11:
0000
0000
0000
0000
,
0000
0000
0000
0000
,
0000
0000
0000
0000
,
0000
0000
0000
0000
,
0000
0000
0000
0000
0100
0000
1000
0000
0100
0000
0000
0000
0100
0000
0000
0001
,
0000
0000
0010
0000
0001
0000
0000
0100
0000
0000
1000
0000
0100
0000
0000
1000
,
0000
0000
0010
0000
0001
0000
0000
0010
0000
0000
0100
0000
0010
0000
0000
0001
,
0000
0000
1000
0000
0001
0000
0000
0010
0000
0000
1000
0000
0010
0000
0000
0100
,
0000
0100
0001
1000
0100
1000
0010
1000
,
0010
0100
0010
0100
0001
0100
0001
0010
,
0001
0010
0100
0010
0100
1000
0100
0010
,
0001
0000
1000
0000
0001
1000
0010
0000
0100
0000
0010
0000
0100
0000
0010
0000
,
0001
0100
0001
1000
0001
0010
0100
1000
,
0100
0010
0100
0010
0001
0100
0001
0100
,
0001
1000
0010
1000
0010
1000
0001
0010
,
0001
1000
0001
1000
0100
0010
0100
0001
,
1000
0000
0010
0000
0100
0000
0010
0100
0000
0100
0001
0000
0100
0000
0001
1000
,
0000
1000
0001
0000
1000
0000
0100
1000
0000
1000
0001
0000
0010
0000
0100
0000
,
0010
0000
0100
0000
0010
0000
0001
1000
0000
1000
0001
0000
0010
0000
0001
0010
,
0000
0010
0100
0000
1000
0000
0001
1000
0000
1000
0001
0000
1000
0000
0010
0000
,
0100
0010
0110
0000
1100
0000
1000
0010
,
1000
0100
0011
0000
1010
0000
0010
0100
,
1000
0000
1000
0100
0010
0001
0010
0001
,
0010
0100
1100
0000
1100
0000
0110
0000
,
1000
0000
0001
0000
1000
0000
0001
0000
1000
0000
0001
0000
0100
0000
0000
1000
0000
0000
0100
0000
0000
1000
0000
0000
0100
0000
0000
1000
0000
0000
0100
0000
0000
1000
0000
0000
0100
0000
0000
1000
0000
0000
0100
0000
0000
1000
0000
0000
,
0100
1000
0010
1000
0010
1000
0010
1000
0010
1000
0010
1000
0010
1000
0010
0100
,
0010
0100
0010
0100
0010
0100
0010
0100
0010
0100
0010
0100
0010
0100
0010
1000
,
0100
1000
0100
1000
0100
1000
0100
1000
0100
1000
0100
1000
0100
1000
0100
1000
,
0010
1000
0010
0100
0010
1000
0010
1000
0010
1000
0010
1000
0010
1000
0010
1000
,
0010
1000
0010
0100
0010
0100
0010
0100
0010
0100
0010
0100
0010
0100
0010
0100
,
0001
0010
0001
0010
0001
0010
0001
0010
0001
0010
0001
0010
0001
0100
0010
0100
,
0010
1000
0010
1000
0010
1000
0010
1000
0010
1000
0010
1000
0010
1000
0010
1000
,
0001
0000
0100
0000
0001
0000
1000
0010
0000
0010
0100
0000
0001
0000
0100
0010
,
0000
0010
1000
0000
0010
0000
1000
0010
0000
0010
1000
0000
0000
0000
0100
0000
,
0001
0000
1000
0000
0100
0000
0010
0001
0000
0001
1000
0000
0010
0000
0100
0001
,
0000
0001
0010
0000
0001
0000
0100
0001
0000
0001
1000
0000
0100
0000
0010
0001
,
0010
0000
0010
0001
0010
0000
0010
0000
0001
0000
1000
0000
0010
0000
1000
0010
,
1000
0000
1000
0010
1000
0000
1000
0000
0010
0000
0100
0000
0001
0000
0100
0000
,
0001
0000
0100
0000
0010
0100
0010
0000
0010
0000
1000
0001
1000
0000
0010
0000
,
0100
0000
1000
0001
1000
0000
0100
0000
0010
0000
1000
0000
0100
0000
0010
0000
,
0001
0000
0100
0000
0001
1000
0001
1000
0100
1000
0100
0010
0001
0010
0001
0010
,
0001
0100
0010
0100
0010
0100
0010
1000
0100
1000
0100
1000
0100
0010
0001
0010
,
0001
0010
0001
1000
0100
1000
0100
1000
0100
0010
0001
0010
0001
1000
0001
1000
,
0010
1000
0010
0100
0001
0100
0010
0100
0010
1000
0010
1000
0001
1000
0010
0100
,
0010
0100
0010
0100
0001
1000
0100
1000
0100
1000
0100
0010
0001
0100
0001
0100
,
0001
0010
0100
1000
0100
1000
0001
1000
0001
0100
0001
1000
0010
0100
0010
0100
,
0010
0100
0001
0010
0001
0010
0001
1000
0100
1000
0010
1000
0100
0010
0100
0010
,
0100
0010
0001
1000
0001
1000
0100
1000
0100
0010
0100
0010
0001
0010
0001
1000
,
0001
1000
0010
1000
0001
0000
1000
0000
0010
0000
1000
0000
0001
0000
1000
0000
,
0010
0100
0010
0100
0010
0100
0001
1000
,
0001
0000
1000
0000
0001
0000
1000
0010
0000
0010
0100
0000
0010
0000
0100
0010
,
0000
0010
0100
0000
0001
0000
1000
0001
0000
0001
1000
0000
0001
0000
1000
0010
,
0000
0010
0100
0000
0110
0000
0000
0000
0010
0000
0100
0000
0001
0000
0000
1000
,
0000
0000
0010
0000
0001
0000
0000
0100
0000
0000
0010
0000
0100
0000
0000
1000
,
0000
0000
0100
0000
0010
0000
0100
0000
0010
0000
0100
0000
0001
0000
0000
0100
,
0000
0000
0010
0000
0100
0000
0000
1000
0000
0000
0010
0000
0001
0000
0000
0100
,
0000
0100
0010
0000
0100
0000
1000
0000
,
0001
0010
0100
0010
,
0001
0100
0000
0010
,
0000
0000
0100
0000
0000
0000
0000
0100
,
0000
0010
0000
0100
0000
0001
0000
0010
,
0000
0001
0000
0000
0020
0000
0000
0000
,
0000
0130
0000
1000
,
0000
0000
0010
0000
0000
0000
1000
0001
,
0100
0010
1000
0000
0001
0000
0010
0000
,
0100
0000
1000
0000
0100
0010
0001
0010
,
0001
0010
0001
0000
0010
0000
0001
0000
,
0010
0000
0001
0000
0010
0000
0001
1000
,
0001
1000
0101
0000
0010
0000
0010
1000
,
0010
1000
0001
0100
0001
0100
0001
0100
,
0010
1000
0010
0100
0010
0100
0001
0100
,
0001
0000
0010
0000
1000
0001
1000
0001
1000
0001
0010
0100
0010
0100
0010
0100
,
0010
0000
0100
0000
0010
0000
0100
0000
0010
0000
0100
0000
1000
0000
0000
0001
0000
0000
1000
0000
0000
0001
0000
0000
0100
0000
0000
0001
0000
0000
0100
0000
0000
0010
0000
0000
0100
0000
0000
0001
0000
0000
1000
0000
0000
0001
0000
0000
,
1000
0010
1000
0010
0100
0010
0100
0001
0100
0001
0010
0001
0010
0100
0010
0100
,
1000
0100
1000
0010
1000
0010
0100
0010
0100
0001
0100
0001
1000
0001
1000
0010
,
1000
0010
0100
0010
0100
0001
0100
0001
0010
0001
1000
0100
1000
0100
1000
0001
,
0100
0001
0010
0001
1000
0000
0000
0010
0000
0000
0100
0000
0010
0000
0000
0001
,
0000
0000
1000
0000
0001
0000
0000
1000
0000
0000
0010
0000
0100
0000
0000
0010
,
0000
0000
1000
0000
0100
0000
0000
1000
0000
0000
0001
0000
0100
0000
0000
0001
,
0000
0000
0100
0000
0010
0000
0000
1000
0000
0000
0100
0000
0010
0000
0000
0100
,
0000
0001
0000
0000
0000
0000
0000
0000
;
