#VERSION:0.83;
#TITLE:Strawberry Avalanche;
#ARTIST:Owl City;
#GENRE:Dream Pop;
#CREDIT:B. M'Rey;
#MUSIC:Strawberry Avalanche.ogg;
#BANNER:Strawberry Avalanche-bn.png;
#BACKGROUND:Strawberry Avalanche-bg.png;
#CDTITLE:./CDTITLES/BMR Superstars.PNG;
#SAMPLESTART:46.791;
#SAMPLELENGTH:15;
#OFFSET:-0.136;
#BPMS:0=117.012;

//--------------- dance-single - B. M'Rey ----------------
#NOTEDATA:;
#STEPSTYPE:dance-single;
#DESCRIPTION:B. M'Rey;
#CREDIT:B. M'Rey;
#DIFFICULTY:Beginner;
#METER:2;
#RADARVALUES:0.063909,0.093733,0.007101,0,0,63,62,1,0,0,0,0.063909,0.093733,0.007101,0,0,63,62,1,0,0,0;
#NOTES:
0000
0000
0000
0000
,
0000
0000
0000
0000
,
0000
0000
0000
0000
,
0000
0000
0000
0000
,
0000
0000
0000
0000
0000
0000
0000
1000
,
0000
0000
0000
0000
,
0000
0000
0000
0000
0000
0000
0000
0100
,
0000
0000
0000
0000
,
0000
0000
0000
0000
0000
0000
0000
0001
,
0000
0000
0000
0000
0000
0000
0000
1000
,
0000
0000
0000
0000
0000
0000
0000
0010
,
0000
0000
0000
0000
0000
0000
0000
0100
,
0000
0000
0000
0000
0000
0000
0000
0001
,
0000
0000
0000
0000
0000
0000
0000
0010
,
0000
0000
0000
0000
0000
0000
0000
0100
,
0000
0000
0000
0000
0000
0000
0000
0001
,
0000
0000
0000
1000
0000
0000
0000
0010
,
0000
0000
0000
0100
0000
0000
0000
0001
,
0000
0001
0000
0001
0000
0000
0000
1000
,
0000
0000
0000
0010
0000
0000
0000
0100
,
0000
0000
0000
0010
0000
0000
0000
1000
,
0000
0000
0000
0100
0000
0000
0000
0010
,
0000
0010
0000
0010
0000
0000
0000
0100
,
0000
0000
0000
1000
0000
0000
0000
0001
,
0000
0000
0000
0100
0000
0000
0000
0110
,
0000
0000
0000
0000
0000
0000
0000
0001
,
0000
0000
0000
0000
0000
0000
0000
1000
,
0000
0000
0000
0000
0000
0000
0000
0010
,
0000
0000
0000
0100
0000
0000
0000
0001
,
0000
0000
0000
0000
0000
0000
0000
1000
,
0000
0000
0000
0000
0000
0000
0000
0010
,
0000
0000
0000
0000
0000
0000
0000
0100
,
0000
0000
0000
1000
0000
0000
0000
1001
,
0000
0000
0000
0000
,
0000
0000
0000
0000
0000
0000
0000
0100
,
0000
0000
0000
0000
,
0000
0000
0000
0000
0000
0000
0000
0010
,
0000
0000
0000
0000
0000
0000
0000
1000
,
0000
0000
0000
0000
0000
0000
0000
0001
,
0000
0000
0000
0000
0000
0000
0000
0010
,
0000
0000
0000
0000
0000
0000
0000
0001
,
0000
0000
0000
0000
0000
0000
0000
1000
,
0000
0000
0000
0010
0000
0000
0000
0100
,
0000
0000
0000
0010
0000
0000
0000
0001
,
0000
0000
0000
1000
0000
0000
0000
0010
,
0000
0000
0000
0100
0000
0000
0000
0010
,
0000
0000
0000
1000
0000
0000
0000
0001
,
0000
0000
0000
0010
0000
0000
0000
0001
,
0000
0000
0000
0100
0000
0000
0000
0010
,
0000
0000
0000
1000
0000
0000
0000
0110
,
0000
0000
0000
0000
0000
0000
0000
1000
,
0000
0000
0000
0000
0000
0000
0000
0010
,
0000
0000
0000
0000
0000
0000
0000
0100
,
0000
0000
0000
0001
0000
0000
0000
0010
,
0000
0000
0000
0000
0000
0000
0000
1000
,
0000
0000
0000
0000
0000
0000
0000
0100
,
0000
0000
0000
0000
0000
0000
0000
0001
,
0000
0000
0000
0010
0000
0000
0000
1000
,
0000
0000
0000
0000
0000
0000
0000
0010
,
0000
0000
0000
0000
0000
0000
0000
0100
,
0000
0000
0000
0000
0000
0000
0000
0001
,
0000
0000
0000
0000
0000
0000
0000
0010
,
0000
0000
0000
0000
0000
0000
0000
0100
,
0000
0000
0000
0000
0000
0000
0000
1000
,
0000
0000
0000
0000
0000
0000
0000
0001
;

//--------------- dance-single - B. M'Rey ----------------
#NOTEDATA:;
#STEPSTYPE:dance-single;
#DESCRIPTION:B. M'Rey;
#CREDIT:B. M'Rey;
#DIFFICULTY:Easy;
#METER:4;
#RADARVALUES:0.103471,0.118719,0.007101,0.14912,0,102,101,1,21,0,0,0.103471,0.118719,0.007101,0.14912,0,102,101,1,21,0,0;
#NOTES:
0000
0000
0000
0000
,
0000
0000
0000
0000
,
0000
0000
0000
0000
,
0000
0000
0000
0000
,
0000
0000
0000
0000
0000
0000
0000
0200
,
0000
0000
0000
0000
0000
0000
0000
0302
,
0000
0000
0000
0000
0000
0000
0000
2003
,
0000
0000
0000
0000
0000
0000
0000
3002
,
0000
0000
0000
0000
0000
0000
0000
0013
,
0000
0000
0000
0100
0000
0000
0000
0010
,
0000
0000
0000
1000
0000
0000
0000
0100
,
0000
0000
0000
0001
0000
0000
0000
0010
,
0000
0000
0000
0001
0000
0000
0000
0100
,
0000
0000
0000
0010
0000
0000
0000
1000
,
0000
0000
0000
0100
0000
0000
0000
1000
,
0000
0000
0000
0100
0000
0000
0000
0001
,
0000
0000
0000
0010
0000
0000
0000
0001
,
0000
1000
0000
0010
0000
1000
0000
0010
,
0000
1000
0000
0001
0000
0000
0000
0001
,
0000
0100
0000
0001
0000
1000
0000
0010
,
0000
0000
0000
0001
0000
1000
0000
0000
,
0000
0100
0000
0001
0000
0100
0000
0001
,
0000
0100
0000
0010
0000
0000
0000
0010
,
0000
1000
0000
0000
0000
0100
0000
0001
,
0000
0000
0000
0001
0000
1000
0000
0020
,
0000
0000
0000
0031
0000
1000
0000
0020
,
0000
0000
0000
0031
0000
1000
0000
0200
,
0000
0000
0000
0310
0000
0001
0000
1000
,
0000
0000
0000
0010
0000
0000
0000
0200
,
0000
0000
0000
0301
0000
0010
0000
2000
,
0000
0000
0000
3100
0000
0001
0000
0020
,
0000
0000
0000
1030
0000
0001
0000
0100
,
0000
0000
0000
1000
0000
0000
0000
1001
,
0000
0000
0000
0000
0000
0000
0000
0100
,
0000
0000
0000
0001
0000
0000
0000
0010
,
0000
0000
0000
0000
0000
0000
0000
0100
,
0000
0000
0000
1000
0000
0000
0000
1001
,
0000
0000
0000
0000
0000
0000
0000
0001
,
0000
0000
0000
0100
0000
0000
0000
0010
,
0000
0000
0000
0000
0000
0000
0000
1001
,
0000
0000
0000
1001
0000
0000
0000
1001
,
0000
0000
0000
0000
0000
0000
0000
0010
,
0000
1000
0000
0010
0000
1000
0000
0010
,
0000
0100
0000
0001
0000
0000
0000
0001
,
0000
0100
0000
0010
0000
1000
0000
0100
,
0000
0000
0000
0010
0000
0100
0000
0010
,
0000
0100
0000
0010
0000
1000
0000
0001
,
0000
1000
0000
0001
0000
0000
0000
0100
,
0000
0010
0000
0000
0000
0010
0000
0000
,
0000
1000
0000
0010
0000
0100
0000
0020
,
0000
0000
0000
0031
0000
1000
0000
0020
,
0000
0000
0000
0031
0000
1000
0000
0200
,
0000
0000
0000
0310
0000
0001
0000
1000
,
0000
0000
0000
0010
0000
0000
0000
0200
,
0000
0000
0000
0301
0000
0010
0000
2000
,
0000
0000
0000
3100
0000
0001
0000
0020
,
0000
0000
0000
1030
0000
0001
0000
0100
,
0000
0000
0000
1000
0000
0000
0000
1002
,
0000
0000
0000
0000
0000
0000
0000
0023
,
0000
0000
0000
0000
0000
0000
0000
0230
,
0000
0000
0000
0000
0000
0000
0000
0302
,
0000
0000
0000
0000
0000
0000
0000
2003
,
0000
0000
0000
0000
0000
0000
0000
3020
,
0000
0000
0000
0000
0000
0000
0000
0230
,
0000
0000
0000
0000
0000
0000
0000
0302
,
0000
0000
0000
0000
0000
0000
0000
2000
,
0000
0000
0000
0000
0000
0000
0000
3003
;

//--------------- dance-single - B. M'Rey ----------------
#NOTEDATA:;
#STEPSTYPE:dance-single;
#DESCRIPTION:B. M'Rey;
#CREDIT:B. M'Rey;
#DIFFICULTY:Medium;
#METER:6;
#RADARVALUES:0.179553,0.237438,0.049707,0.426058,0,177,170,7,60,0,0,0.179553,0.237438,0.049707,0.426058,0,177,170,7,60,0,0;
#NOTES:
0000
0000
0000
0000
,
0000
0000
0000
0000
,
0000
0000
0000
0000
,
0000
0000
0000
0000
,
0000
1000
0000
0001
0000
0100
0000
0020
,
0000
0000
0000
0000
0000
0000
0000
2030
,
0000
0000
0000
0000
0000
0000
0000
3020
,
0000
0000
0000
0000
0000
0000
0030
0040
,
0000
0000
0000
1030
0000
0001
0000
0100
,
0000
0000
0000
0000
0000
0010
0000
0001
,
0000
1000
0000
0000
0000
0010
0000
0100
,
0000
0000
0001
1000
,
0000
0000
0010
0000
1000
0000
0001
0100
,
0000
0000
0000
0000
0000
0001
0000
1000
,
0000
0000
0000
0000
0000
0010
0000
0100
,
0000
0000
0000
0010
,
0000
0000
0000
1000
0000
0001
0000
0010
,
1000
0010
0000
0001
0000
0100
0010
0001
,
0000
1000
0000
0010
0000
0001
0000
0010
,
0100
0001
0000
0001
0100
0010
0000
0100
,
0000
0010
0000
0001
1000
0000
0100
0000
,
0100
0001
0100
0000
1000
0100
0000
0010
,
0000
0100
0000
0010
0000
0000
0100
0001
,
0000
0010
2000
0000
0000
3100
1000
0010
,
0000
0000
1000
0010
0000
0101
0000
0200
,
0000
0000
0000
0301
0000
1000
0000
0200
,
0000
0000
0000
0301
0000
0010
0000
0002
,
0000
0000
0000
1003
0000
0100
0000
0010
,
0000
1000
0000
0010
0100
1000
0000
0200
,
0000
0000
0000
0301
0000
0100
0000
0002
,
0000
0000
0000
0013
0000
0100
0000
0002
,
0000
0000
0000
0103
0000
0010
0000
0001
,
0000
1000
0000
0100
0001
1000
0000
0220
,
0000
0000
0000
0330
0000
0100
0000
0010
,
0000
1000
0000
0001
0000
0010
0000
0100
,
0000
0000
0000
0100
0000
1000
0000
0200
,
0000
0000
0000
0302
0000
0000
0000
0103
,
0000
0010
0000
0000
0000
0100
0000
0010
,
0000
1000
0000
0100
0000
0010
0000
0100
,
0000
0000
0000
0001
0000
1000
0000
0001
,
0000
0000
0000
0010
0000
0000
0000
1000
,
0000
0000
0000
0001
0000
0000
0000
0010
,
0100
0001
0000
0010
0000
0100
1000
0001
,
0000
0100
0000
0010
0000
1000
0000
0001
,
1000
0100
0000
0010
0000
0100
0000
0001
,
0000
0100
0000
0001
0010
0001
0000
0100
,
0000
0010
1000
0001
0000
0010
0000
0100
,
0000
1000
0010
0100
0000
0010
0000
0001
,
0100
0001
0000
0100
0000
0001
0100
0000
,
1000
0000
0010
0000
1000
0000
0010
0200
,
0000
0000
0000
0301
0000
1000
0000
0200
,
0000
0000
0000
0301
0000
0010
0000
0002
,
0000
0000
0000
1003
0000
0100
0000
0010
,
0000
1000
0000
0010
0100
1000
0000
0200
,
0000
0000
0000
0301
0000
0100
0000
0002
,
0000
0000
0000
0013
0000
0100
0000
0002
,
0000
0000
0000
0103
0000
0010
0000
0001
,
0000
1000
0000
0100
0001
1000
0000
0002
,
0000
0000
0000
0000
0000
1003
0000
0100
,
0000
0000
0000
0000
0000
0010
0000
1000
,
0000
0000
0100
0001
,
0000
0000
0000
1000
0000
0010
0000
0001
,
0000
0000
0000
0000
0000
1001
0000
1001
,
0000
0000
0000
0000
0000
0110
0000
0220
,
0000
0000
0000
0000
,
0000
0000
0000
0000
0000
0000
0000
0032
,
0000
0000
0000
0000
0000
0000
0000
0303
;

//--------------- dance-single - B. M'Rey ----------------
#NOTEDATA:;
#STEPSTYPE:dance-single;
#DESCRIPTION:B. M'Rey;
#CREDIT:B. M'Rey;
#DIFFICULTY:Hard;
#METER:10;
#RADARVALUES:0.322587,0.403268,0.028404,0.482865,0.131368,318,314,4,68,0,1,0.322587,0.403268,0.028404,0.482865,0.131368,318,314,4,68,0,1;
#NOTES:
0000
0000
0000
0000
,
0000
0000
0000
0000
,
0000
0000
0000
0000
,
0000
0000
0000
0000
,
0000
0000
0000
0000
1000
0000
0010
0000
0000
0100
0000
0000
0001
0000
0200
0000
,
0000
0000
0000
0000
0000
0301
0020
0000
,
0000
0000
0000
0000
0000
0000
0030
0000
0100
1000
0400
0000
0000
0000
0302
0000
,
0000
0000
0000
0000
0000
0000
0000
0000
0000
0000
0000
0000
0000
0000
0000
0000
0000
0000
0000
0000
0000
0000
0000
0000
0000
0000
0000
0000
0000
0000
0000
0000
0000
0000
0000
0000
0000
0000
0000
0000
0000
0000
0000
0000
0000
0000
0000
0000
0000
0000
0000
0000
0000
0000
0000
0000
0000
0000
0000
0000
0000
0000
0000
0000
0000
0000
0000
0000
0000
0000
0000
0000
1003
0000
0000
0000
0000
0000
0000
0000
0000
0000
0000
0000
0010
0000
0000
0000
0000
0000
0000
0000
0000
0000
0000
0000
0100
0000
0000
0000
0000
0000
0000
0000
0000
0000
0000
0000
0000
0000
0000
0000
0000
0000
0000
0000
0000
0000
0000
0000
0001
0000
0000
0000
0000
0000
0000
0000
0000
0000
0000
0000
0000
0000
0000
0000
0000
0000
0000
0000
0000
0000
0000
0000
0010
0000
0000
0000
0000
0000
0000
0000
0000
0000
0000
0000
0000
0000
0000
0000
0000
0000
0000
0000
0000
0000
0000
0000
0200
0300
0000
0000
0000
0000
0000
0000
0000
0000
0000
0000
0000
0000
0000
0000
0000
0000
0000
0000
0000
0000
0000
0000
,
0000
0000
0000
0000
0000
0000
0000
0000
0000
0000
0000
0000
0200
0300
0000
0000
0000
0000
0000
0000
0000
0000
0000
0000
0000
0000
0000
0000
0000
0000
0000
0000
0000
0000
0000
0000
0000
0000
0000
0000
0000
0000
0000
0000
0000
0000
0000
0000
0200
0300
0000
0000
0000
0000
0000
0000
0000
0000
0000
0000
0000
0000
0000
0000
0000
0000
0000
0000
0000
0000
0000
0000
0001
0000
0000
0000
0000
0000
0000
0000
0000
0000
0000
0000
0000
0000
0000
0000
0000
0000
0000
0000
0000
0000
0000
0000
0010
0000
0000
0000
0000
0000
0000
0000
0000
0000
0000
0000
0000
0000
0000
0000
0000
0000
0000
0000
0000
0000
0000
0000
1000
0000
0000
0000
0000
0000
0000
0000
0000
0000
0000
0000
0000
0000
0000
0000
0000
0000
0000
0000
0000
0000
0000
0000
0100
0000
0000
0000
0000
0000
0000
0000
0000
0000
0000
0000
0000
0000
0000
0000
0000
0000
0000
0000
0000
0000
0000
0000
1000
0000
0000
0000
0000
0000
0000
0000
0000
0000
0000
0000
0000
0000
0000
0000
0000
0000
0000
0000
0000
0000
0000
0000
,
0000
0010
0000
1000
0000
0010
0001
0020
,
0000
1000
0000
0031
0000
0200
0000
2300
,
0000
0000
3002
2003
,
0000
0000
0000
0000
3010
0000
1000
0000
0000
0100
0000
0000
0001
0000
0020
0000
,
0000
1000
0000
0030
0100
2000
0000
3002
,
0000
0100
0000
0013
0000
0200
0000
0320
,
0000
0000
0000
0032
,
0000
0000
0000
0000
1003
0000
0010
0000
0000
0100
0000
0000
0001
0000
0000
0000
,
1000
0010
0001
0100
0010
1000
0001
0000
,
1000
0010
0100
0001
0010
0000
0000
0100
,
0000
1000
0000
0000
0010
0000
0001
0000
0000
0100
0000
0000
0020
0000
0000
0000
,
0000
0030
1000
0001
0010
0100
1000
0000
,
0010
1000
0001
0000
0100
0010
1000
0001
,
0010
0001
0100
0010
0000
1000
0000
0001
,
0010
0001
0200
0000
0000
0310
0002
0000
,
0000
0000
0000
0000
1003
0000
0010
0000
0000
0001
0000
0000
0100
0000
0140
0000
,
0000
0000
0000
0000
0000
0000
1030
0200
0000
0000
0302
0000
0000
0000
0043
0000
,
0000
0000
0000
0000
0000
0000
0130
0010
0000
0000
1000
0000
0100
0000
0004
0000
,
0000
0000
0000
0000
0103
0000
0010
0004
0000
0000
1003
0000
0010
0000
0200
0000
,
0000
0301
0010
1000
0100
1000
0010
4000
,
0000
0000
0000
0000
0000
0000
3010
0002
0000
0000
0203
0000
0000
0000
4300
0000
,
0000
0000
0000
0000
3010
0000
0002
0203
0000
0000
0310
0000
0100
0000
4000
0000
,
0000
0000
3010
0001
0010
0000
1000
0400
0000
0000
0301
0000
0010
0000
4000
0000
,
0000
3001
0100
0010
1000
0100
1000
2004
,
0000
0000
0000
0000
3013
0100
0020
0000
,
2030
0000
3200
0000
0000
0301
0010
1000
,
0002
0000
0003
0000
0100
0010
1000
0000
,
0010
0100
0002
0000
0000
0000
0000
2003
,
0000
0000
0000
0000
3001
0010
0002
0000
,
0000
0103
2000
0000
0000
3010
0100
0001
,
0020
0000
0000
0030
1000
0001
0010
0100
,
0010
1000
0001
0020
0000
0000
0000
0000
,
0000
0000
0000
0000
1030
0000
0010
0000
0000
0100
0000
0000
0001
0000
1000
0000
,
0001
0000
0100
0000
0010
0000
0001
0000
0010
0000
0100
0000
1000
0000
0000
0010
,
0000
0100
0001
0010
0000
1000
0100
0010
,
0000
0001
0000
0000
0010
0000
0100
0000
1000
0000
0010
0000
0200
0000
0000
0000
,
0000
0300
0001
0010
0001
0100
1000
0000
,
0010
0100
0001
1000
0010
0100
0001
0010
,
1000
0100
0001
0010
0000
0000
0100
1000
,
0010
0100
0002
0000
0000
0103
0020
0000
,
1030
0100
0000
0010
0001
0000
0010
0100
0000
1000
0100
0000
0001
0000
0140
0000
,
0000
0000
0000
0000
0000
0000
1030
0200
0000
0000
0302
0000
0000
0000
0043
0000
,
0000
0000
0000
0000
0000
0000
0130
0020
0000
0000
1030
0000
0100
0000
0004
0000
,
0000
0000
0000
0013
0100
0000
0010
0004
0000
0000
1003
0000
0010
0000
0200
0000
,
0000
0301
0010
1000
0100
1000
0010
4000
,
0000
0000
0000
0000
0000
0000
3010
0002
0000
0000
0203
0000
0000
0000
4300
0000
,
0000
0000
0000
0000
3000
0000
0001
0200
0000
0000
0320
0000
0130
0000
4000
0000
,
0000
0000
3010
0001
0010
0000
1000
0400
0000
0000
0301
0000
0010
0000
4000
0000
,
0000
3001
0100
0010
1000
0100
1000
2000
,
0000
0000
0000
0000
0000
3002
0023
0032
,
0000
0000
0000
0000
0000
0203
0000
2300
,
0000
0000
3002
2003
,
0000
0000
0000
0000
3020
0000
2030
0000
0000
3200
0000
0000
0302
0000
0023
0000
,
0000
0000
0000
0000
0000
2030
0000
3002
,
0000
0000
0000
0000
0000
0203
0000
0320
,
0000
0000
0000
0000
0000
0000
0000
0000
0000
0000
0000
0000
0031
0000
1000
0100
,
0000
0001
0010
0000
1000
0100
0000
0001
0010
0000
0100
1000
0001
0000
0220
0000
,
0000
0000
0000
0000
0000
0000
0000
0000
0000
0000
0000
0000
0000
0330
0000
0000
;
