#VERSION:0.83;
#TITLE:Shalala lala;
#ARTIST:Vengaboys;
#GENRE:Eurodance;
#CREDIT:B. M'Rey;
#MUSIC:Shalala lala.ogg;
#BANNER:Shalala lala-bn.png;
#BACKGROUND:Shalala lala-bg.png;
#CDTITLE:./CDTITLES/BMR Superstars.PNG;
#SAMPLESTART:72.068;
#SAMPLELENGTH:15;
#OFFSET:-0.020;
#BPMS:0=124;

//--------------- dance-single - B. M'Rey ----------------
#NOTEDATA:;
#STEPSTYPE:dance-single;
#DESCRIPTION:B. M'Rey;
#CREDIT:B. M'Rey;
#DIFFICULTY:Beginner;
#METER:3;
#RADARVALUES:0,0,0,0,0;
#NOTES:
0000
0000
0000
0000
,
0000
0000
0000
0000
,
1000
0000
0000
0000
,
0001
0000
0000
0000
,
0100
0000
0010
0000
,
1000
0000
0001
1001
,
0010
0000
0000
0000
,
0000
0000
1000
0000
,
0010
0000
0000
0000
,
0000
0000
0100
0000
,
0001
0000
0000
0000
,
0000
0000
0100
0000
,
0010
0000
0000
0000
,
0000
0000
1000
0000
,
0001
0000
0000
0000
,
0000
0000
0100
0000
,
0010
0000
0000
0000
,
0000
0000
1000
0000
,
0010
0000
0000
0000
,
0000
0000
0001
0000
,
0100
0000
0000
0000
,
0000
0000
0000
0000
,
1000
0000
0010
0000
,
0100
0000
0000
0000
,
0001
0000
1000
0000
,
0000
0000
0000
0000
,
0100
0000
0010
0000
,
1000
0000
0000
0000
,
0001
0000
0100
0000
,
0000
0000
0000
0000
,
0010
0000
0100
0000
,
0001
0000
0000
0000
,
1000
0000
0010
0000
,
0000
0000
0000
0000
,
0100
0000
0010
0000
,
1000
0000
0001
0000
,
1000
0000
0001
0000
,
1001
0000
0000
0000
,
1000
0000
0000
0010
,
0000
0100
0000
0001
,
0010
0000
0000
0000
,
0000
0000
0000
0000
,
0001
0000
0000
0010
,
0000
1000
0000
0010
,
0100
0000
0000
0000
,
0000
0000
0000
0000
,
0001
0000
0000
1000
,
0000
0010
0000
0100
,
0001
0000
0000
0000
,
1000
0000
0010
0000
,
0100
0000
0000
0000
,
0001
0000
0000
1000
,
0020
0000
0000
0000
,
0030
0000
0000
0000
,
1000
0000
0000
0010
,
0000
0100
0000
0001
,
0020
0000
0030
0000
,
0000
0000
0000
0000
,
0001
0000
0000
0010
,
0000
1000
0000
0010
,
0200
0000
0300
0000
,
0000
0000
0000
0000
,
0001
0000
0000
1000
,
0000
0010
0000
0100
,
0002
0000
0003
0000
,
1000
0000
0010
0000
,
0100
0000
0000
0000
,
0001
0000
0000
1000
,
0020
0000
0000
0030
,
0001
0000
0100
0000
,
2000
0000
0000
0000
,
0000
0000
0000
0000
0000
3000
0000
0000
0000
0000
0000
0000
0000
0000
0000
0000
0000
0000
0000
0000
0000
0000
0000
0000
0000
0000
0000
0000
0000
0000
0000
0000
0000
0000
0000
0000
0000
0000
0000
0000
0000
0000
0000
0000
0000
0000
0000
0000
0000
0000
0000
0000
0000
0000
0000
0000
0000
0000
0000
0000
0000
0000
0000
0000
0000
0000
0000
0000
0000
0000
0000
0000
0000
0000
0000
0000
0000
0000
0000
0000
0000
0000
0000
0000
0000
0000
0000
0000
0000
0000
0000
0000
0000
0000
0000
0000
0000
0000
0000
0000
0000
0000
0000
0000
0000
0000
0000
0000
0000
0000
0000
0000
0000
0000
0000
0000
0000
0000
0000
0000
0000
0000
0000
0000
0000
0000
0000
0000
0000
0000
0000
0000
0000
0000
0000
0000
0000
0000
0000
0000
0000
0000
0000
0000
0000
0000
0000
0000
0000
0000
0000
0000
0000
0000
0000
0000
0000
0000
0000
0000
0000
0000
0000
0000
0000
0000
0000
0000
0000
0000
0000
0000
0000
0000
0000
0000
0000
0000
0000
0000
0000
0000
0000
0000
0000
0000
0000
0000
0000
0000
0000
0000
;

//--------------- dance-single - B. M'Rey ----------------
#NOTEDATA:;
#STEPSTYPE:dance-single;
#DESCRIPTION:B. M'Rey;
#CREDIT:B. M'Rey;
#DIFFICULTY:Easy;
#METER:5;
#RADARVALUES:0,0,0,0,0;
#NOTES:
0000
0000
0000
0000
,
0000
0000
0000
0000
,
1000
0001
0000
0100
,
0001
1000
0000
0010
,
0100
0000
0001
0000
,
1000
0000
0010
0110
,
0001
0000
0010
0000
,
0100
0000
1000
0001
,
0010
0000
1000
0000
,
0010
0000
0100
0010
,
0001
0000
1000
0000
,
0001
0000
0010
0100
,
1000
0000
0010
0000
,
0100
0000
0001
0010
,
0001
0000
1000
0000
,
0010
0000
0100
0010
,
1000
0000
0001
0000
,
0010
0000
0100
0001
,
0100
0000
0010
0000
,
1000
0000
0100
0010
,
0001
0000
0010
0000
,
0100
0000
1000
0001
,
1000
0000
0010
0000
,
0100
0000
0001
0010
,
0200
0000
0310
0000
,
0001
0000
0000
1000
,
0010
0000
0100
0000
,
0001
0000
0001
0100
,
0020
0000
1030
0000
,
0100
0000
0000
0001
,
1000
0000
0010
0000
,
0100
0000
0001
0010
,
0200
0000
0310
0000
,
0001
0000
0000
1000
,
0010
0000
0100
0000
,
0001
0000
0010
0001
,
0200
0000
0020
0000
,
0330
0000
0000
0000
,
1000
0001
1000
0000
,
0000
0010
0100
0000
,
0020
0000
0032
0000
,
1003
0000
0010
0000
,
1000
0001
1000
0000
,
0000
0100
0001
0000
,
0020
0000
2030
0000
,
3001
0000
0000
0000
,
0010
0100
0010
0000
,
0000
0001
1000
0000
,
0020
0000
0230
0000
,
0301
0000
1010
0000
,
0100
0010
0100
0000
,
0001
0010
0001
0000
,
0200
0000
0000
0300
,
0000
0010
0000
0001
,
1000
0001
1000
0000
,
0000
0010
0100
0000
,
0020
0000
0032
0000
,
1003
0000
0000
0000
,
1000
0001
1000
0000
,
0000
0100
0001
0000
,
0020
0000
2030
0000
,
3000
0000
0001
0000
,
0010
0100
0010
0000
,
0000
0001
1000
0000
,
0020
0000
0230
0000
,
0300
0001
0000
0000
,
0100
0010
0100
0000
,
0001
0010
0001
0000
,
0200
0000
0000
0301
,
0000
0010
0100
1000
,
0002
0000
0000
0000
,
0003
0000
0000
0000
;

//--------------- dance-single - B. M'Rey ----------------
#NOTEDATA:;
#STEPSTYPE:dance-single;
#DESCRIPTION:B. M'Rey;
#CREDIT:B. M'Rey;
#DIFFICULTY:Medium;
#METER:6;
#RADARVALUES:0.235908,0.358419,0.178718,0.235908,0,231,206,25,33,0,0,0.235908,0.358419,0.178718,0.235908,0,231,206,25,33,0,0;
#NOTES:
0000
0000
0000
0000
,
0000
0000
0000
0000
,
1001
1001
0100
0010
,
0110
0110
1000
0100
,
1000
0010
0200
0300
,
1000
0010
0100
0010
,
1000
0100
0000
1000
,
0000
0010
0100
0001
,
0100
0010
1000
0000
,
1000
0000
1000
0001
,
0010
0100
1000
0000
,
1000
0000
0100
0010
,
1000
0001
0100
0000
,
1000
0000
1000
0100
,
1001
0001
0100
0000
,
0010
0000
0010
0100
,
0010
0001
0000
0010
,
0000
0100
0010
0100
,
1000
0100
1000
0000
,
0100
0000
0100
0001
,
0100
0010
1000
0000
,
1000
0000
0100
0001
,
0100
0001
1000
0100
,
1000
0000
1000
0100
,
0010
0000
1000
0000
,
0100
0000
0000
0001
,
0010
0100
1000
0100
,
0010
0000
1000
0000
,
0100
0000
1000
0000
,
0100
0000
1000
0010
,
0100
0001
0100
0010
,
1000
0000
1000
0001
,
1000
0000
0100
0000
,
1000
0000
0010
0100
,
0010
0001
1000
0000
,
1000
0010
0100
0010
,
0100
0000
0020
0000
,
0030
0100
0001
1000
,
0200
0000
0300
0010
,
0100
2000
0000
3100
,
0020
0000
0230
0000
,
0301
0000
0100
1000
,
0020
0000
0030
0010
,
0100
0020
0000
1030
,
0200
0000
0320
0000
,
0031
0000
0100
0000
,
0020
0000
0030
0001
,
0100
0200
0000
0301
,
0002
0000
0203
0000
,
0310
1000
0100
1000
,
0020
0000
0030
0010
,
0002
0000
1003
0100
,
0020
0000
0002
0000
,
0033
0100
0010
1000
,
0002
0000
0003
0100
,
0001
0020
0000
0130
,
0002
0000
0203
0000
,
0301
0000
0100
0000
,
0200
0000
0300
0010
,
0100
2000
0000
3001
,
0200
0000
0320
0000
,
0030
0000
0001
1000
,
0020
0000
0030
0100
,
0010
0200
0000
0310
,
0002
0000
0023
0000
,
0030
0010
0100
1000
,
0200
0000
0300
0100
,
0020
0000
0130
1000
,
0200
0000
0000
0300
,
0001
0020
0000
1030
,
0002
0000
0000
0000
,
1003
0000
0000
0000
;

//--------------- dance-single - B. M'Rey ----------------
#NOTEDATA:;
#STEPSTYPE:dance-single;
#DESCRIPTION:B. M'Rey;
#CREDIT:B. M'Rey;
#DIFFICULTY:Hard;
#METER:9;
#RADARVALUES:0.338033,0.460825,0.207313,0.343139,0,331,302,29,48,37,0,0.338033,0.460825,0.207313,0.343139,0,331,302,29,48,37,0;
#NOTES:
0000
0000
0000
0000
,
0000
0000
0000
0000
,
0100
0001
0100
0000
0010
0000
1000
0000
,
1000
0010
0100
0000
0001
0000
0100
0000
,
1001
0000
1001
0000
1000
0100
0010
0000
,
0110
0000
1000
0000
1000
0001
0010
0000
,
0010
0100
0010
0100
0000
0100
0000
0001
,
0000
0010
0000
0001
0010
0100
0010
0100
,
1000
0100
1000
0100
0000
0010
0000
0100
,
0000
0001
0000
0100
1000
0100
1000
0001
,
1000
0100
0010
1000
0000
0100
0000
0010
,
0000
0100
0000
1000
0100
0010
0100
0001
,
1000
0001
0100
0010
0000
0001
0000
0010
,
0000
0100
0000
0010
1000
0000
0101
0000
,
0010
0100
1000
0100
0000
0001
0000
0100
,
0000
0001
0000
0001
0010
0001
0010
0100
,
0010
0001
0100
1000
0000
0100
0000
1000
,
0000
0100
0000
0001
0100
0010
0100
0010
,
0100
0001
0010
0100
0000
0010
0000
0100
,
0000
0001
0000
1000
0010
0100
0010
0001
,
0010
0001
0010
1000
0000
0001
0000
1000
,
0010
0000
0001
0000
0010
0000
0100
0001
,
0100
0000
0100
0010
1000
0000
1000
0001
,
1000
0000
0100
0010
1000
0000
0010
0000
,
2000
0000
0000
3010
0200
0000
0000
0000
,
0310
0000
0001
0000
0100
0000
0100
0010
,
0100
0000
1000
0001
1000
0000
0100
0000
,
0010
0000
0000
0001
0100
0000
1000
0000
,
0100
0000
0000
0100
0020
0000
0000
0000
,
1030
0000
0001
0000
0110
0000
0010
0100
,
0010
0000
0100
0001
0100
0000
1100
0000
,
1010
0000
0000
0010
0100
0000
0001
0000
,
2000
0000
3000
0100
2000
0000
0000
0000
,
3010
0000
0100
0000
0000
1000
0000
0000
0010
0000
0000
0000
1000
0000
0100
0000
,
1000
0000
1000
0010
0100
0000
0000
0010
,
0000
0001
1000
0100
0010
0000
0100
0000
,
2000
0000
3000
0001
0020
0000
0000
0000
,
1030
0010
0001
0010
,
0100
0010
1000
0100
1000
0000
1001
0000
,
0101
0000
0100
0001
0010
0000
1000
0001
,
1000
0000
0000
0001
0010
0000
0100
0000
,
0001
0010
0001
0010
,
0100
0001
0100
0010
0100
0000
1010
0000
,
1001
0000
1000
0001
0010
0000
1000
0000
,
0200
0000
0000
0310
0100
0000
0000
0001
,
0010
0100
0010
0001
,
0100
0010
1000
0010
1000
0000
0101
0000
,
0101
0000
0100
0010
1000
0000
1000
0000
,
0002
0000
0000
0013
0200
0000
0000
0000
,
0310
0001
0010
0001
,
0010
0001
0010
0100
0010
0000
1000
0100
,
0000
0001
1000
0000
0100
0000
0010
0000
,
0200
0000
0000
1300
2000
0000
0000
3000
,
0100
0010
1000
0001
,
1000
0100
0010
0100
0010
0000
1001
0000
,
0011
0000
0010
0001
0100
0000
0001
0000
,
0010
0000
0000
0001
1000
0000
0010
1000
,
0001
0100
0010
1000
,
1000
0001
0100
0010
0100
0000
0101
0000
,
0011
0000
0010
0001
1000
0000
0010
0000
,
1000
0000
0000
0001
0100
0000
0000
0000
,
0100
0000
0001
0000
1000
0100
0010
0000
,
0010
0001
0010
0001
0100
0000
0110
0000
,
0101
0000
1000
0001
1000
0000
1000
0000
,
0100
0000
0000
0010
0100
0000
0010
0000
,
0100
0001
0100
0001
,
0100
0001
0100
0001
0100
0000
0000
0010
,
0000
0001
0010
0001
1000
0000
0001
0000
,
1000
0000
0000
0010
0100
0000
0000
0001
,
0000
0010
1000
0100
0010
0000
0100
0000
,
1000
0000
0000
0001
2000
0000
0000
0000
,
3100
0000
0000
0000
;

//--------------- dance-single - B. M'Rey ----------------
#NOTEDATA:;
#STEPSTYPE:dance-single;
#DESCRIPTION:B. M'Rey;
#CREDIT:B. M'Rey;
#DIFFICULTY:Challenge;
#METER:12;
#RADARVALUES:0.47488,0.715588,0.235908,0.193016,0.221611,465,432,33,27,113,7,0.47488,0.715588,0.235908,0.193016,0.221611,465,432,33,27,113,7;
#NOTES:
0000
0000
0000
0000
,
0000
0000
0000
0000
,
1001
0000
0110
0000
0110
0000
0001
0010
0001
0000
1100
0000
0110
0000
0000
0000
,
0011
0000
0000
0000
1000
0000
0100
0000
1000
0000
0000
0000
0040
0030
0000
0000
0011
0000
0000
0000
1100
0000
0000
0000
0110
0000
0000
0000
0004
0000
0003
0000
,
1000
0000
0010
0000
0100
0000
0010
0001
0010
0100
0010
0100
1000
0100
1000
0000
,
0100
0000
0010
0001
1000
0000
0010
1000
0100
0000
0010
0000
0001
0000
0000
0000
,
0110
0000
1000
0000
0010
0000
0100
0000
0000
0000
0010
0100
0010
0000
000M
0000
,
M000
000M
0M00
1000
0001
0010
0001
0010
,
0001
0000
0100
0000
0010
0000
0100
0000
0010
0000
1000
0010
100M
0000
00M0
0000
,
0M00
000M
0000
0010
0001
0010
0001
0010
,
0100
0000
1000
0000
0100
0000
1000
0000
0100
0000
0010
0001
0010
0000
0M00
0000
,
000M
M000
000M
1000
0001
0010
0001
0010
,
0001
0000
0100
0000
0010
0000
0100
0000
0010
0000
0100
0010
0100
0000
0M00
0000
,
00M0
M000
0000
0010
0100
0010
0001
0100
,
1001
0000
1000
0000
0001
0000
0100
0000
0010
0000
1000
0010
1000
0000
1000
0000
,
0010
0100
0001
0100
0001
0100
0010
1000
,
0010
0000
1000
0000
0010
0000
0100
0000
0001
0000
0100
0010
0100
0000
0100
0000
,
0010
1000
0010
1000
0100
1000
0100
0010
,
0100
0000
0010
0000
0001
0000
0010
0000
0001
0000
0100
0001
0100
0000
0100
0000
,
0010
0100
0010
1000
0010
1000
0001
1000
,
0010
0000
0100
0000
0010
0000
0100
0000
0010
0000
1000
0001
1000
0000
0010
0000
,
0001
0010
0001
1000
0100
0010
0100
0010
,
1001
0000
1000
0001
1000
0000
0100
0010
,
1000
0000
1000
0001
0010
0000
0100
0000
,
0020
0000
1030
0100
2000
0000
0000
3100
,
0010
0000
0000
0100
0000
0000
1000
0000
0001
0000
0000
0000
0100
0000
0001
0000
,
0100
0000
0100
0010
1000
0000
0100
0001
,
0100
0000
0000
0000
0100
0000
0010
0000
1000
0000
0000
0100
0000
0000
0100
0000
,
2000
0000
3100
0010
0200
0000
1000
0300
,
1000
0000
0000
0010
0000
0000
0001
0100
0001
0000
0000
0000
0100
0000
0001
0000
,
1000
0000
1000
0010
1000
0000
0010
0001
,
0010
0000
0100
0010
0100
0000
0010
0000
,
0002
0000
0000
0000
0010
0003
0000
0000
2000
0000
0000
0000
3010
0000
0000
0000
,
0010
0000
0100
0000
0000
1000
0000
0000
0001
0000
0000
0000
1000
0000
0100
0000
,
0010
0000
0010
0100
1000
0000
1000
0200
,
0000
0000
0301
0000
0010
0000
0100
0000
1000
0000
0000
0001
0000
0000
1000
0000
,
0001
0000
0010
0100
0010
0000
1000
0000
,
1001
0020
M002
0200
,
1333
0001
1000
0001
1000
0000
0110
0110
,
0110
0000
0000
0000
1000
0000
0001
0000
1000
0000
0000
0100
0000
0000
0010
0000
,
0100
0000
0000
0000
0100
0000
0001
0000
0100
0000
0000
0000
0010
0000
0001
0010
,
0001
0000
0100
0000
0010
0000
0000
0000
0100
0010
0100
0000
1000
0000
0000
0000
,
1000
0100
0010
0100
1000
0000
1010
1010
,
1010
0000
0000
0000
0100
0000
0010
0000
0100
0000
0000
0010
0000
0000
100M
0000
,
0400
0000
0000
0000
0000
0000
0000
0000
0020
0000
0000
0000
0330
0000
0001
0010
,
0001
0000
0000
1000
0000
0000
0010
0000
0100
0000
0001
0010
0001
0000
0000
0000
,
1000
0100
1000
0001
1000
0000
0110
0110
,
0110
0000
0000
0000
1000
0000
0010
0000
1000
0000
0000
0010
0000
0000
0001
0000
,
0200
0000
0000
0000
0000
0000
0000
0000
0040
0000
0000
0000
0300
0030
1000
0100
,
1000
0000
0100
0000
0001
0000
0000
0100
0001
0000
0100
0000
0001
0000
0000
0000
,
0010
1000
0100
1000
0010
0000
0010
0100
,
0010
0000
0100
0000
0001
0000
0100
0000
0001
0000
000M
0100
0000
0000
0010
0000
,
2000
0000
0M00
0000
0000
0000
0100
3010
0400
0000
0000
0000
000M
0000
0000
0000
,
0000
M320
0002
0200
,
1333
0001
0010
0001
0010
0000
1010
1010
,
1010
0000
0000
0000
0100
0000
0010
0000
1000
0000
0000
0100
0000
0000
0001
0000
,
0100
0000
0001
0000
0010
0000
0100
0000
1000
0000
0100
0000
0001
0000
1000
0100
,
1000
0000
0000
0010
0000
0000
0100
0000
0001
0000
0000
0010
0000
0000
0001
0000
,
1000
0001
1000
0001
1000
0000
0110
0110
,
0110
0000
0000
0000
1000
0000
0010
0000
1000
0000
0000
0001
0000
0000
1000
0000
,
040M
0000
0000
0000
M020
0000
0330
1000
,
0100
0000
0000
0000
1000
0000
0001
0010
0001
0000
0010
0000
0001
0000
0010
0000
,
0001
0100
0010
0100
0010
0000
0011
0011
,
0011
0000
0000
0000
0001
0000
0010
0000
0100
0000
0000
0010
0000
0000
1000
0000
,
020M
0000
0000
0000
0000
0000
0000
0000
0040
0000
0000
0000
0300
0030
0000
0000
,
0020
0230
0320
0032
2003
3200
0320
0230
,
0310
0100
0010
0001
0010
0000
1000
0010
,
1000
0000
0100
0000
1000
0000
0010
0000
0100
0000
0000
0010
0000
0000
0010
0000
,
1000
0000
0000
0000
1000
0000
0001
1000
0001
0000
0000
0000
0010
0000
0100
0000
,
0000
0000
0100
0000
1000
0000
0010
0000
1000
0000
0000
0010
0000
0000
0001
0000
,
0100
0000
0000
0000
0010
0000
0001
1000
0001
0000
0000
0000
1000
0000
0010
0000
,
1000
0000
1000
0001
1000
0000
0011
0000
0011
0000
0000
0000
0000
0000
0000
0000
;
