#VERSION:0.83;
#TITLE:Sexy Sexy Lover;
#ARTIST:Modern Talking;
#GENRE:Eurodance;
#CREDIT:B. M'Rey;
#MUSIC:Sexy Sexy Lover.ogg;
#BANNER:Sexy Sexy Lover-bn.png;
#BACKGROUND:Sexy Sexy Lover-bg.png;
#CDTITLE:./CDTITLES/BMR Superstars.PNG;
#SAMPLESTART:53.471;
#SAMPLELENGTH:15;
#OFFSET:-0.147;
#BPMS:0=128.678;

//--------------- dance-single - B. M'Rey ----------------
#NOTEDATA:;
#STEPSTYPE:dance-single;
#DESCRIPTION:B. M'Rey;
#CREDIT:B. M'Rey;
#DIFFICULTY:Beginner;
#METER:3;
#RADARVALUES:0.070772,0.078815,0,0,0,66,66,0,0,0,0,0.070772,0.078815,0,0,0,66,66,0,0,0,0;
#NOTES:
0000
0000
0000
0000
,
0000
0000
0000
0000
,
0000
0000
0000
0000
,
0000
0000
0000
0000
,
0000
0001
0000
0000
,
0000
1000
0000
0000
,
0000
0010
0000
0000
,
0000
0100
0000
0000
,
0000
1001
0000
0000
,
0000
0010
0000
0000
,
0000
0001
0000
0000
,
0000
0100
0000
0000
,
0000
1000
0000
0010
,
0000
0100
0000
0000
,
0000
0001
0000
0010
,
0000
0100
0000
0000
,
0000
0001
0000
0000
,
0000
1000
0000
0000
,
0000
0010
0000
0100
,
0000
0001
0000
0000
,
0000
1000
0000
0010
,
0000
0100
0000
0001
,
0000
0010
0000
0001
,
0000
0100
0000
0010
,
0000
1000
0000
0000
,
0000
0010
0000
0000
,
0000
0100
0000
0000
,
0000
0010
0000
0000
,
0000
1001
0000
0000
,
0000
0110
0000
0000
,
0000
0001
0000
0000
,
0000
1000
0000
0010
,
0000
0100
0000
0000
,
0000
0110
0000
0000
,
0000
1000
0000
0100
,
0000
0001
0000
0010
,
0000
0001
0000
0100
,
0100
0110
0000
0000
,
0000
1100
0000
0000
,
0000
0001
0000
0010
,
0000
0001
0000
0100
,
0000
0110
0000
0000
,
0000
0101
0000
0000
,
0000
0010
0000
1000
,
0000
0100
0000
0010
,
0000
0000
0000
0100
,
0000
1000
0000
0000
,
0000
0001
0000
0000
,
0000
0100
0000
0000
,
0000
0010
0000
0000
,
0000
0110
0000
0000
,
0000
0001
0000
0010
,
0000
1000
0000
0100
,
0000
1000
0000
0010
,
0010
0110
0000
0000
,
0000
0011
0000
0000
,
0000
1000
0000
0100
,
0000
1000
0000
0010
,
0000
0110
0000
0000
,
0000
1010
0000
0000
,
0000
0100
0000
0001
,
0000
0010
0000
0100
,
0000
0000
0000
0000
,
0000
0001
0000
0000
,
0000
1000
0000
0000
,
0000
0010
0000
0000
,
0000
0100
0000
0000
,
0000
1001
0000
0000
,
0000
0010
0000
0000
,
0000
0001
0000
0000
,
0000
0100
0000
0000
;

//--------------- dance-single - B. M'Rey ----------------
#NOTEDATA:;
#STEPSTYPE:dance-single;
#DESCRIPTION:B. M'Rey;
#CREDIT:B. M'Rey;
#DIFFICULTY:Easy;
#METER:5;
#RADARVALUES:0.142617,0.159881,0.007506,0.015012,0,133,132,1,2,0,0,0.142617,0.159881,0.007506,0.015012,0,133,132,1,2,0,0;
#NOTES:
0000
0000
0000
0000
,
0000
0000
0000
0000
,
0000
0000
0000
0000
,
0000
0000
0000
0000
,
0000
0001
0010
0001
,
0000
0001
0100
0001
,
0000
0010
0100
0001
,
0000
0001
1000
0000
,
0100
0010
0100
0010
,
0000
0010
1000
0001
,
0000
0010
0100
0010
,
0000
0001
0100
0000
,
1000
0001
1000
0100
,
1000
0100
0010
0000
,
0010
0000
0001
0000
0000
0010
0000
0000
,
1000
0000
0001
0000
0000
0100
0000
0000
,
1000
0000
0100
0000
0000
1000
0000
0001
,
0000
1000
0000
0000
0000
0100
0000
0000
,
1000
0010
1000
0100
,
1000
0010
0000
0010
,
0100
0010
1000
0001
,
1000
0100
1000
0100
,
0000
0000
0100
0000
0000
0001
0000
0000
,
0010
0000
0001
0000
0000
1000
0000
0000
,
1000
0100
1000
0100
,
0010
0100
0000
0001
,
0000
0001
1000
0001
,
0000
0020
0000
0030
,
0000
1001
0000
0001
,
0010
0001
0000
0010
,
1000
0010
0000
0100
,
0010
0100
0000
1100
,
0000
1001
0000
0001
,
1000
0010
0000
0010
,
0100
0010
0000
0100
,
1000
0100
0000
0010
,
0000
0001
0000
0001
,
1000
1001
1000
0010
,
0000
0001
0010
0001
,
0000
0001
1000
0000
,
0100
0000
0010
0000
0000
0100
0000
0000
,
1000
0100
1000
0100
,
0000
0001
0100
0001
,
0000
0000
0001
0000
0000
1000
0000
0000
,
1000
0000
0010
0000
0000
0001
0000
0100
,
0000
1001
0000
0100
,
1000
0100
0000
0010
,
0100
0010
0000
1000
,
0000
0001
0000
0010
,
0000
0100
0000
0001
,
1000
0010
0000
0010
,
0100
0010
0000
0100
,
1000
0100
0000
0010
,
0000
0001
0000
0001
,
1000
1001
1000
0010
,
0000
0001
0010
0001
,
0000
0001
1000
0000
,
0100
0000
0010
0000
0000
0100
0000
0000
,
1000
0100
1000
0100
,
0000
0001
0100
0001
,
0000
0000
0001
0000
0000
1000
0000
0000
,
1000
0000
0010
0000
0000
0001
0000
0100
,
0000
0000
0000
0000
,
0000
0001
1000
0001
,
0000
0100
0010
0100
,
0000
0100
1000
0001
,
0000
0001
1000
0000
,
0010
0100
0010
0100
,
0000
0010
0100
0001
,
0000
0001
0010
0001
,
0100
0110
0000
0000
;

//--------------- dance-single - B. M'Rey ----------------
#NOTEDATA:;
#STEPSTYPE:dance-single;
#DESCRIPTION:B. M'Rey;
#CREDIT:B. M'Rey;
#DIFFICULTY:Medium;
#METER:9;
#RADARVALUES:0.276655,0.292083,0.060049,0.007506,0,258,250,8,1,0,0,0.276655,0.292083,0.060049,0.007506,0,258,250,8,1,0,0;
#NOTES:
0000
0000
0000
0000
,
0000
0000
0000
0000
,
0000
0000
0000
0000
,
0000
0000
0000
0000
,
0000
0000
1000
0001
1000
0001
1000
0000
,
0010
0000
1000
0100
1000
0010
1000
0000
,
0100
0000
1000
0100
0010
0001
0100
0000
,
0010
0000
1000
0100
0010
0000
0010
0001
,
0010
0000
0100
0010
1000
0010
1000
0000
,
0100
0000
0100
0001
0100
0010
1000
0000
,
1000
0000
0100
0001
1000
0001
0100
0000
,
0100
0000
0100
0010
1000
0000
0100
0001
,
1000
0010
0000
0001
0000
0010
0000
0001
,
0010
1000
0000
0001
0000
1000
0000
0010
,
0100
1000
0100
0000
0010
0100
0000
0010
,
1000
0000
1000
0001
0000
1000
0000
0100
,
0000
1000
0100
0000
0001
0010
0000
0100
,
0000
0010
0000
0001
1000
0010
0000
0001
,
0100
1000
0000
0001
0000
0100
0000
0010
,
0000
0100
0000
0010
1000
0000
0010
1000
,
0100
1000
0000
0100
0000
1000
0000
0100
,
0000
0010
0000
0100
0000
0010
0000
0001
,
0010
0001
0010
0000
0001
1000
0000
0010
,
1000
0000
0010
0000
0010
1000
0000
0001
,
0000
0100
0010
0100
0000
0100
0000
0010
,
0000
0100
0000
0001
0000
1000
0000
0001
,
0000
1000
0010
1000
0000
1000
0000
0010
,
0000
0100
0010
0001
,
1000
0000
1001
0000
0000
0001
0100
0001
,
0100
0010
1000
0010
0000
0010
0100
0000
,
0001
0000
0100
0010
0000
0010
1000
0000
,
0100
0000
0010
0001
0000
0100
1001
0000
,
1100
0000
1001
0000
0000
0001
0100
0001
,
0100
0010
0100
0010
0000
0010
1000
0000
,
0100
0000
0010
0100
0000
0000
0010
0000
,
0100
0001
0000
0010
0000
0001
1000
0001
,
0000
0001
0010
0000
1000
0000
0110
0000
,
0110
0000
1000
0100
1000
0100
1000
0002
,
0000
0000
0013
0001
0100
0010
0100
0020
,
0000
0030
1000
0000
1000
0100
0000
0100
,
0010
1000
0001
1000
,
0001
0000
1000
0100
0010
0001
0010
0002
,
0000
0003
0100
0010
0100
0001
0100
0002
,
0000
0003
0010
0000
0010
0100
0000
0000
,
1000
0001
1000
0000
0100
0020
0000
1030
,
0000
0001
0000
1000
0000
0001
0000
1000
,
0000
0001
0100
0000
0000
0010
1000
0000
,
1000
0000
0010
0100
0000
0000
1000
0000
,
0100
0001
0000
1000
0000
0010
1000
0000
,
0100
0000
0001
0000
0000
0001
0100
0001
,
0100
0010
0100
0010
0000
0010
1000
0000
,
0100
0000
0010
0100
0000
0000
0010
0000
,
0100
0001
0000
0010
0000
0001
1000
0001
,
0000
0001
0010
0000
1000
0000
0110
0000
,
0110
0000
1000
0100
1000
0100
1000
0002
,
0000
0000
0013
0001
0100
0010
0100
0020
,
0000
0030
1000
0000
1000
0100
0000
0100
,
0010
1000
0001
1000
,
0001
0000
1000
0100
0010
0001
0010
0002
,
0000
0003
0100
0010
0100
0001
0100
0002
,
0000
0003
0010
0000
0010
0100
0000
0000
,
1000
0001
1000
0000
0100
0020
0000
1030
,
0000
0001
0000
1000
0000
0001
0000
1000
,
0000
0001
1000
0001
1000
0001
1000
0000
,
0010
0000
1000
0100
1000
0010
1000
0000
,
0100
0000
1000
0100
0010
0001
0100
0000
,
0010
0000
1000
0100
0010
0000
0010
0001
,
0010
0000
0100
0010
1000
0010
1000
0000
,
0100
0000
0100
0001
0100
0010
1000
0000
,
1000
0000
0100
0001
1000
0001
0100
0000
,
0100
0110
0000
0000
;

//--------------- dance-single - B. M'Rey ----------------
#NOTEDATA:;
#STEPSTYPE:dance-single;
#DESCRIPTION:B. M'Rey;
#CREDIT:B. M'Rey;
#DIFFICULTY:Hard;
#METER:11;
#RADARVALUES:0.551166,0.905993,0.180148,0.29274,0.228938,514,490,24,39,0,1,0.551166,0.905993,0.180148,0.29274,0.228938,514,490,24,39,0,1;
#NOTES:
0000
0000
0000
0000
,
0000
0000
0000
0000
,
0000
0000
0000
0000
,
0000
0000
0000
0000
,
0000
0000
0000
0000
0110
0000
0010
1000
0000
1000
0100
0000
0010
0000
0100
0000
,
1000
0000
0001
0000
1000
0000
0010
0100
0000
0100
0001
0000
0010
0000
0001
0000
,
0100
0000
0010
0000
0100
0000
0001
0010
0000
0010
0001
0000
0010
0000
0001
0000
,
1000
0000
0100
0000
0010
0000
0100
1000
0000
1000
0010
0000
0100
0000
0010
0000
,
0100
0000
0001
0000
0110
0000
0010
1000
0000
1000
0100
0000
0010
0000
0001
0000
,
1000
0000
0010
0000
1000
0000
0001
0100
0000
0100
0001
0000
0010
0000
0001
0000
,
0010
0000
0100
0000
0010
0000
0100
1000
0000
1000
0010
0000
0100
0000
0010
0000
,
0100
0000
0010
0000
1000
0000
0001
0010
0000
0010
0001
0000
1000
0000
0100
0000
,
1000
0010
1000
0100
0010
0100
1000
0100
,
1000
0010
1000
0001
0010
0100
1000
0000
,
0010
0100
0010
0100
0010
0001
0000
0010
,
1000
0000
0010
0001
0000
0001
0010
0000
,
1000
0100
1000
0001
0000
0001
1000
0010
,
0000
1001
0000
1000
0000
0001
0000
0010
,
1000
0001
1000
0100
1000
0100
0010
0100
,
1000
0001
0000
0010
0000
0001
0000
0100
,
0010
0001
0110
0000
1000
0001
1000
0010
,
0000
0100
0000
0001
0000
0100
0000
0010
,
1000
0100
0010
0000
0010
0100
0000
0001
,
1000
0010
1000
0000
0010
0100
0000
0001
,
1000
0000
0100
0001
1000
0010
1000
0100
,
0010
0100
1000
0000
0100
0000
0010
0000
,
0100
0000
0010
0001
0100
0010
0100
0010
,
1000
0010
0100
0000
0001
0000
1000
0000
,
1000
0100
0110
0000
0000
1000
1001
1100
,
1001
1100
1001
1001
0000
0100
1000
0100
,
0010
0100
0011
0011
0000
0001
0100
0001
,
0100
0010
0110
0110
0000
0010
1100
0000
,
1010
0000
0110
0000
0010
0110
0110
1010
,
1010
0110
1001
1001
0000
1000
0010
1000
,
0100
0010
0001
0010
0000
1000
0001
1000
,
0001
1000
0000
0100
0000
0100
0010
1000
,
0000
0010
0100
0000
0001
0010
1001
0000
,
0110
0000
0001
0001
0010
0100
0010
4000
,
0000
3000
0100
0001
0010
0001
0100
4000
,
0000
0000
3002
0000
0013
0400
0000
0000
,
0301
0010
1000
0100
0010
1000
0100
0001
,
0010
0100
1000
0100
1000
0010
0100
0004
,
0000
0000
0013
0100
1000
0010
0100
0004
,
0000
0013
2000
0000
3010
0002
0000
0000
,
0013
0100
1000
0010
0100
0002
0000
0043
,
0000
0000
0000
0000
0000
1030
0001
1000
,
0001
0100
0010
0100
0000
0100
0001
1000
,
0001
1000
0100
1000
0000
0000
0100
0000
,
0001
0100
0000
0001
0000
1000
0010
1000
,
0000
1000
0001
0000
0000
0110
0110
0101
,
0101
0110
1001
1001
0000
0001
0100
0001
,
0010
0100
1000
0100
0000
0001
1000
0001
,
1000
0001
0000
0010
0000
0010
0100
0001
,
0000
0100
0010
0000
1000
0100
1001
0000
,
0110
0000
1000
1000
0100
0010
0100
0004
,
0000
0003
0010
1000
0100
1000
0010
0004
,
0000
0000
2003
0000
3100
0040
0000
0000
,
1030
0100
0001
0010
0100
0001
0010
1000
,
0100
0010
0001
0010
0001
0100
0010
4000
,
0000
0000
3100
0010
0001
0100
0010
4000
,
0000
3100
0002
0000
0103
2000
0000
0000
,
3100
0010
0001
0100
0010
2000
0000
3400
,
0000
0000
0000
0000
0000
0301
1000
0001
,
1000
0000
0001
0000
0110
0000
0010
1000
0000
1000
0100
0000
0010
0000
0100
0000
,
1000
0000
0001
0000
1000
0000
0010
0100
0000
0100
0001
0000
0010
0000
0001
0000
,
0100
0000
0010
0000
0100
0000
0001
0010
0000
0010
0001
0000
0010
0000
0001
0000
,
1000
0000
0100
0000
0010
0000
0100
1000
0000
1000
0010
0000
0100
0000
0010
0000
,
0100
0000
0001
0000
0110
0000
0010
1000
0000
1000
0100
0000
0010
0000
0001
0000
,
1000
0000
0010
0000
1000
0000
0001
0100
0000
0100
0001
0000
0010
0000
0001
0000
,
0010
0000
0100
0000
0010
0000
0100
1000
0000
1000
0010
0000
0110
0000
0000
0000
,
0110
1001
0000
0000
;
