#VERSION:0.83;
#TITLE:Save tonight;
#ARTIST:Jackie 'O';
#GENRE:Eurodance;
#CREDIT:B. M'Rey;
#MUSIC:Save Tonight.mp3;
#BANNER:Save Tonight-bn.png;
#BACKGROUND:Save Tonight-bg.png;
#CDTITLE:./CDTITLES/Dancemania X1.PNG;
#SAMPLESTART:71.180;
#SAMPLELENGTH:15;
#OFFSET:-0.040;
#BPMS:0=133,32=66.5,40=132.7,152=132.74;

//--------------- dance-single - B. M'Rey ----------------
#NOTEDATA:;
#STEPSTYPE:dance-single;
#DESCRIPTION:B. M'Rey;
#CREDIT:B. M'Rey;
#DIFFICULTY:Beginner;
#METER:2;
#RADARVALUES:0.084928,0.131569,0,0,0,61,61,0,0,0,0,0.084928,0.131569,0,0,0,61,61,0,0,0,0;
#NOTES:
0000
0000
0000
0000
,
0000
0000
0000
0000
,
0000
0000
0000
0000
,
0000
0000
0000
0000
,
0100
0000
0000
0000
,
0001
0000
0000
0000
,
0010
0000
0000
0000
,
1000
0000
0000
0000
,
0001
0000
0100
0000
,
0010
0000
0001
0000
,
1000
0000
0000
0000
,
0100
0000
0000
0000
,
0001
0000
0000
0000
,
0010
0000
0000
0000
,
0100
0000
0000
0000
,
0001
0000
0000
0000
,
1000
0000
0000
0000
,
0100
0000
0000
0000
,
1000
0000
0000
0000
,
0010
0000
0000
0000
,
0100
0000
0000
0000
,
0001
0000
0000
0000
,
0010
0000
0000
0000
,
0001
0000
0000
0000
,
0100
0000
0000
0000
,
0010
0000
0000
0000
,
1000
0000
0000
0000
,
0100
0000
0000
0000
,
1000
0000
0000
0000
,
0001
0000
0000
0000
,
0010
0000
0000
0000
,
0001
0000
0000
0000
,
0100
0000
0000
0000
,
0010
0000
0000
0000
,
1000
0000
0000
0000
,
0100
0000
0000
0000
,
0001
0000
0000
0000
,
0010
0000
0000
0000
,
0100
0000
1000
0000
,
0010
0000
0001
0000
,
0100
0000
0010
0000
,
1000
0000
0001
0000
,
0010
0000
0001
0000
,
0010
0000
0100
0000
,
0001
0000
1000
0000
,
0010
0000
0100
0000
,
0001
0000
0000
0000
,
1000
0000
0000
0000
,
0010
0000
0000
0000
,
0001
0000
0000
0000
,
0100
0000
0000
0000
,
0010
0000
0000
0000
,
0001
0000
0000
0000
,
1000
0000
0000
0000
,
1000
0000
0000
0000
;

//--------------- dance-single - B. M'Rey ----------------
#NOTEDATA:;
#STEPSTYPE:dance-single;
#DESCRIPTION:B. M'Rey;
#CREDIT:B. M'Rey;
#DIFFICULTY:Easy;
#METER:5;
#RADARVALUES:0.187955,0.263137,0.048729,0.038983,0,135,130,5,4,0,0,0.187955,0.263137,0.048729,0.038983,0,135,130,5,4,0,0;
#NOTES:
0000
0000
0000
0000
,
0000
0000
0000
0000
,
0000
0000
0000
0000
,
0000
0000
0000
0000
,
0000
0100
0000
0100
,
0000
0010
0000
0010
,
0000
0100
0000
0100
,
0000
0010
0000
0000
,
0100
0000
0010
0000
,
0100
0000
0000
0000
,
0010
0010
0000
0001
,
0100
0100
0000
0001
,
0010
0010
0000
0001
,
0100
0100
0100
0100
,
0010
0000
0000
0000
,
1000
0000
1000
0001
,
0100
0000
0000
0000
,
0010
0000
0001
1000
,
0100
0000
0000
0000
,
0010
0000
1000
0001
,
0100
0000
0010
0000
,
1000
1000
0001
0001
,
0100
0100
0010
0000
,
0100
0100
0000
0001
,
0100
0100
0000
0000
,
0010
0100
0000
0010
,
1000
1000
0000
0001
,
0100
0100
0000
0000
,
0020
0000
0000
0030
,
2000
0000
0000
3000
,
0100
0100
0000
0000
,
0010
0001
0000
0100
,
0010
0010
0000
0000
,
1000
0100
0000
0010
,
0001
0100
0000
0000
,
0001
0001
0001
0000
,
2000
0000
0000
3000
,
0002
0000
1000
0003
,
0100
0100
0010
0010
,
0100
0100
1000
0000
,
0010
0010
0100
0100
,
0010
0010
0001
0000
,
0100
0100
0010
0010
,
0100
0000
0010
0000
,
0010
0010
0100
0100
,
0010
1000
0100
0001
,
0010
0010
0010
0010
,
0001
0000
1000
0000
,
0010
0010
0010
0010
,
1000
0000
0001
0000
,
1010
0000
0101
0000
,
0100
0010
0100
0010
,
0101
0000
1100
0000
,
0010
0001
0100
1000
,
0101
0000
0000
0000
;

//--------------- dance-single - B. M'Rey ----------------
#NOTEDATA:;
#STEPSTYPE:dance-single;
#DESCRIPTION:B. M'Rey;
#CREDIT:B. M'Rey;
#DIFFICULTY:Medium;
#METER:7;
#RADARVALUES:0.314651,0.50459,0.370341,0.077967,0.058475,226,188,38,8,0,0,0.314651,0.50459,0.370341,0.077967,0.058475,226,188,38,8,0,0;
#NOTES:
0000
0000
0000
0000
,
0000
0000
0000
0000
,
0000
0000
0000
0000
,
0000
0000
0000
0000
,
1000
0000
0000
0001
0000
0000
0000
0000
1000
0000
0000
0001
0000
0000
0000
0000
,
0100
0000
0000
0010
0000
0000
0000
0000
0100
0000
0000
0010
0000
0000
0000
0000
,
1000
0000
0000
0100
0000
0000
0001
0000
1000
0000
0000
0100
0000
0000
0001
0000
,
0010
0010
0010
0010
,
2200
0000
0000
0000
3300
0000
0000
0000
0001
0010
0100
0000
1001
0000
0110
0000
,
0202
0000
0000
0000
0303
0000
0000
0000
0001
1000
0010
0000
0101
0000
1010
0000
,
0100
0000
0100
0000
0000
0010
0010
0000
,
0001
0000
1000
0000
0000
0010
0100
0000
,
0001
0000
1000
0000
0000
0100
1000
0000
,
0010
0000
0100
0000
0000
0001
0100
0000
,
1001
1100
0100
0110
,
0000
0001
0000
0100
,
1001
0101
0100
0110
,
0000
1000
0000
0100
,
0010
0010
0001
0000
0010
0001
0010
0000
,
1000
0100
1000
0000
0100
0100
1000
0000
,
0020
0000
0000
0030
,
0200
0000
0000
0300
,
0001
0000
1000
0000
0100
0100
0100
0000
,
1000
0001
0100
0000
,
0001
0000
1000
0000
0010
0010
0010
0000
,
1000
0001
0010
0000
,
0101
0000
0010
0000
1000
0001
1000
0000
,
0100
0110
0001
0000
,
0010
0000
1010
0000
0001
0001
0001
0000
,
0010
0110
1001
0000
,
0100
1000
0000
0000
0100
1000
0000
0000
0000
0000
0000
0000
0000
0000
0000
0000
,
0110
0110
0000
0000
,
0100
0001
0000
0000
0100
0001
0000
0000
0000
0000
0000
0000
0000
0000
0000
0000
,
0110
1001
0000
0000
,
0010
0010
1001
1001
,
0100
0100
1001
1001
,
0010
1000
0100
1000
0010
0100
0010
0100
,
0001
0010
0001
0100
0010
1000
0100
0000
,
0001
0000
0001
0000
,
1000
0000
1000
0000
,
0100
0000
0100
0000
,
0001
0000
0001
0000
,
1000
0000
1000
0000
,
0001
0000
0001
0000
,
0010
0000
0010
0000
,
0001
0000
0001
0000
,
0010
1000
0001
0100
,
1001
0110
1001
0110
,
1000
0001
0100
0010
,
1001
0110
1001
0110
,
1000
0001
0100
0010
,
0001
1000
0001
1000
,
0010
0100
0010
0100
,
1001
0110
1001
0110
,
2002
0000
3003
0000
;

//--------------- dance-single - B. M'Rey ----------------
#NOTEDATA:;
#STEPSTYPE:dance-single;
#DESCRIPTION:B. M'Rey;
#CREDIT:B. M'Rey;
#DIFFICULTY:Hard;
#METER:10;
#RADARVALUES:0.426032,0.478033,0.282629,0.068221,0.102331,306,277,29,7,0,0,0.426032,0.478033,0.282629,0.068221,0.102331,306,277,29,7,0,0;
#NOTES:
0000
0000
0000
0000
,
0000
0000
0000
0000
,
0000
0000
0000
0000
,
0000
0000
0000
0000
,
1000
0000
0000
0001
0000
0000
1000
0000
0001
0000
0000
1000
0000
0000
0001
0000
,
1000
0000
0000
0100
0000
0000
1000
0000
0100
0000
0000
1000
0000
0000
0100
0000
,
0010
0000
0000
0001
0000
0000
0010
0000
0001
0000
0000
0010
0000
0000
0001
0000
,
1000
0000
0000
0001
0000
0000
1000
0000
0001
0000
0000
1000
0000
0000
0001
0000
,
0010
0000
0010
0000
0010
0000
0000
0000
1000
0001
1000
0001
1000
0000
0000
0000
,
0010
0000
0010
0000
0010
0000
0000
0000
0001
1000
0001
1000
0001
0000
0000
0000
,
0001
0010
0110
0000
1000
0100
0110
0000
,
1000
0100
0001
0100
1000
0000
0101
0000
,
0010
1000
0110
0000
0001
0100
0110
0000
,
0001
0100
1000
0100
0001
0000
1100
0000
,
0010
0000
0000
0000
0010
0000
0000
0010
0000
0000
0010
0000
0000
0000
1000
0000
,
0100
0000
0000
0000
0100
0000
0000
0100
0000
0000
0100
0000
0010
0000
0100
0000
,
1000
0000
0000
0000
1000
0000
0000
1000
0000
0000
1000
0000
0000
0000
0010
0000
,
1000
0000
0100
0000
1000
0000
0001
0100
,
0010
0000
0000
0000
0010
0000
0000
0010
0000
0000
1000
0000
0000
0000
0100
0000
,
0010
0000
0000
0000
0001
0000
0000
0001
0000
0000
1000
0000
0010
0000
1000
0000
,
0100
0000
0000
0000
0100
0000
0000
0100
0000
0000
0010
0000
0000
0000
0001
0000
,
0100
0000
0010
0000
1000
0000
0001
0100
,
0010
0000
0010
0000
1100
0000
0001
0100
,
1000
0100
0001
0000
0000
0010
1000
0000
,
0100
0000
0100
0000
0011
0000
1000
0100
,
0001
0100
1000
0000
0000
0010
0001
0000
,
0110
0000
0000
0000
0110
0000
0000
0000
0000
0000
0000
0000
1001
0000
0000
0010
,
0100
0010
0000
0000
1001
0000
0000
0000
0000
0000
0000
0000
0100
0000
0000
0000
,
0010
1000
0001
0000
0010
0001
1000
0000
,
1100
0000
0101
0000
1000
0100
0001
0100
,
1000
0000
1010
0000
0100
0010
0001
1000
,
0010
0000
0101
0000
0010
0100
1000
0010
,
0100
0000
0011
0000
1000
0001
1000
0010
,
0100
0000
0101
0000
0010
1000
0001
0100
,
0020
0200
0000
0330
,
0001
0000
0000
0100
0000
0000
1000
0000
0000
0000
0000
0000
0000
0000
0000
0000
,
0010
0010
1000
1000
0001
0001
0100
0000
,
2020
0030
0200
3300
,
0010
1000
0100
1000
0010
0100
0001
0000
,
1010
0000
0100
0001
0100
0001
0100
0000
,
0010
0001
0100
0001
0010
0100
1000
0000
,
0011
0000
1000
0100
1000
0100
1000
0000
,
0010
0001
0010
0100
1000
0010
0100
0000
,
1100
0000
0001
0010
0001
0010
0001
0000
,
1000
0010
0100
0001
0010
0100
1000
0000
,
0101
0000
1000
0010
1000
0010
1000
0000
,
0010
0001
1000
0100
,
1000
0001
1000
0100
0010
0000
1001
0000
,
0010
1000
0001
0100
,
0001
1000
0001
0100
0010
0000
1001
0000
,
0010
0010
0101
1100
,
0001
1000
0010
0100
,
0001
1000
0001
0000
0100
0010
0100
0000
,
0001
1000
0001
0100
0010
0000
1001
0000
,
0220
0000
0330
0000
;
