#TITLE:Sam;
#ARTIST:E-Rotic;
#GENRE:Eurodance;
#CREDIT:B. M'Rey;
#MUSIC:Sam.ogg;
#BANNER:Sam-bn.png;
#BACKGROUND:Sam-bg.png;
#CDTITLE:./CDTITLES/BMR Superstars.PNG;
#SAMPLESTART:58.855;
#SAMPLELENGTH:13.000;
#OFFSET:-0.138;
#BPMS:0=138.971;

//--------------- dance-single - B. M'Rey ----------------
#NOTES:
     dance-single:
     B. M'Rey:
     Beginner:
     1:
     0,0,0,0,0:
0000
0000
0000
0000
,
0000
0000
0000
0000
,
0000
0000
0000
0000
,
0000
0000
0000
0000
,
0000
0000
0000
0000
,
0000
0000
0000
0000
,
0000
0000
0000
0000
,
0000
0000
0000
0000
,
0000
0001
0000
0000
,
0000
1000
0000
0000
,
0000
0010
0000
0000
,
0000
0100
0000
0010
,
0000
0001
0000
0000
,
0000
1000
0000
0000
,
0000
0010
0000
0000
,
0000
1001
0000
0000
,
0000
1000
0000
0000
,
0000
0010
0000
0000
,
0000
0100
0000
0000
,
0000
0001
0000
0010
,
0000
1001
0000
0000
,
0000
0100
0000
0000
,
0000
0010
0000
0000
,
0000
0100
0000
0010
,
0000
0101
0000
0000
,
0000
1000
0000
0000
,
0000
0010
0000
0000
,
0000
0100
0000
0000
,
0000
0001
0000
0000
,
0000
0010
0000
0000
,
0000
0100
0000
0000
,
0000
0001
0000
0000
,
0000
1000
0000
0000
,
0000
1001
0000
0000
,
0000
0010
0000
0100
,
0000
1000
0000
0010
,
0000
0100
0000
0001
,
0000
0010
0000
0001
,
0000
0100
0000
0010
,
0000
1000
0000
0100
,
0000
1000
0000
0001
,
0000
0010
0000
0100
,
0000
1001
0000
0000
,
0000
0010
0000
0000
,
0000
0100
0000
0000
,
0000
0001
0000
0010
,
0000
1000
0000
0000
,
0000
0010
0000
0000
,
0000
0100
0000
0000
,
0000
0001
0000
0010
,
0000
1001
0000
0000
,
0000
0000
0000
0000
,
0000
0000
0000
0000
,
0000
0000
0000
0000
,
0000
0000
0000
0000
,
0000
0000
0000
0000
,
0000
0000
0000
0000
,
0000
0000
0000
0000
,
0000
1000
0000
0000
,
0000
0010
0000
0000
,
0000
0100
0000
0000
,
0000
0001
0000
0000
,
0000
0010
0000
0000
,
0000
0001
0000
0000
,
0000
0100
0000
0000
,
0000
1001
0000
0000
,
0000
0001
0000
0010
,
0000
0001
0000
0100
,
0000
0010
0000
1000
,
0000
0010
0000
0100
,
0000
0010
0000
0001
,
0000
1000
0000
0010
,
0000
0100
0000
0010
,
0000
0001
0000
1000
,
0000
1001
0000
0000
,
0000
0100
0000
0000
,
0000
0010
0000
0000
,
0000
0001
0000
0100
,
0000
0010
0000
0000
,
0000
1000
0000
0000
,
0000
0001
0000
0000
,
0000
0100
0000
0010
,
0000
1001
0000
0000
;

//--------------- dance-single - B. M'Rey ----------------
#NOTES:
     dance-single:
     B. M'Rey:
     Easy:
     4:
     0,0,0,0,0:
0000
0000
0000
0000
,
0000
0000
0000
0000
,
0000
0000
0000
0000
,
0000
0000
0000
0000
,
0000
0000
0000
0000
,
0000
0000
0000
0000
,
0000
0000
0000
0000
,
0000
0000
0000
0000
,
0000
0001
1000
0100
,
0000
0001
1000
0001
,
0000
0100
0010
0001
,
0000
0001
0000
0010
,
0000
0001
0100
0010
,
0000
0001
0010
0100
,
0000
0100
1000
0001
,
0000
0101
0000
0110
,
0000
0001
0010
0100
,
0010
0100
1000
0001
,
0100
0010
0100
0010
,
0100
0101
0000
0110
,
0000
0100
1000
0001
,
0100
0010
0100
0010
,
0100
0001
0010
0001
,
0100
0110
0000
0011
,
0000
0110
0000
0000
,
0000
1100
1100
0100
,
1000
0001
1000
0001
,
0010
0001
0010
0100
,
0010
0100
1000
0100
,
0010
1001
1001
0010
,
0100
0001
0100
0001
,
0010
0011
0010
0100
,
0010
0100
1000
0100
,
0010
1001
0000
0000
,
0000
0001
0000
0100
,
0000
0100
0010
0100
,
0000
0010
0000
0001
,
0000
0010
0100
0010
,
0000
0001
0000
0010
,
0000
0100
1000
0010
,
0100
0010
0000
0010
,
0000
0110
0000
0110
,
0000
0100
0010
0001
,
0010
0001
1000
0010
,
1000
0100
0010
0001
,
0100
1010
0000
0110
,
0000
0110
1000
0001
,
1000
0010
0100
0010
,
1000
0100
1000
0001
,
1000
0110
0000
1010
,
0000
2002
0000
0000
,
0000
3203
0000
0000
,
0000
0302
0000
0000
,
0000
0203
0000
0000
,
0000
0320
0000
0000
,
0000
2030
0000
0000
,
0000
3002
0000
0000
,
0000
0203
0000
0000
,
0000
0301
0000
0001
,
0000
1000
0000
1000
,
0000
0010
0000
0010
,
0000
0100
0000
0100
,
0000
0001
0010
0100
,
0000
1000
0100
0010
,
0000
0001
1000
0001
,
1000
1001
0000
0000
,
0000
0010
0000
0010
,
0000
0001
1000
0100
,
0000
0001
0000
0010
,
0000
0001
1000
0010
,
0000
0001
0000
0010
,
0000
0100
1000
0100
,
0010
0001
0000
0001
,
0000
1100
0000
0101
,
0000
0010
1000
0010
,
1000
0100
1000
0100
,
0010
0001
0010
0100
,
0010
1001
0000
1010
,
0000
0011
0010
0100
,
0010
0001
1000
0001
,
0100
0001
0100
0010
,
0100
0011
0000
0011
,
0000
0110
0000
0000
;

//--------------- dance-single - B. M'Rey ----------------
#NOTES:
     dance-single:
     B. M'Rey:
     Medium:
     6:
     0,0,0,0,0:
0000
0000
0000
0000
,
0000
0000
0000
0000
,
0000
0000
0000
0000
,
0000
0000
0000
0000
,
0000
0000
0000
0000
,
0000
0000
0000
0000
,
0000
0000
0000
0000
,
0000
0000
0000
0000
,
0000
0001
0010
0001
,
0010
0000
0100
0010
,
0100
0001
0010
0001
,
0100
0010
0000
0100
,
0000
0100
1000
0100
,
1000
0000
0010
0100
,
1000
0001
1000
0100
,
1000
0110
0110
1001
,
1001
0000
0001
1000
0010
0000
0010
1000
,
0100
0000
0100
0010
0001
0000
0010
1000
,
0100
0000
0001
0010
0001
0000
0100
1000
,
0100
0001
0001
0010
,
0010
0000
1000
0100
0001
0000
0001
1000
,
0010
0000
0001
0010
0100
0000
0001
0100
,
0001
0000
0010
1000
0001
0000
0010
0100
,
0010
0001
0001
0010
,
0010
1010
0000
0000
,
0000
0000
0101
0000
1010
0000
0001
1000
,
0010
0000
0010
0100
0010
0000
0001
0010
,
0100
0000
0001
0000
0010
0000
0001
1000
,
0010
0100
0010
0100
,
0010
0000
1001
0000
0110
0000
0001
0010
,
0100
0000
0100
1000
0010
0000
1000
0000
,
0010
0000
1001
0000
0000
0000
0100
0010
,
0001
0010
0100
0001
,
0100
0011
0000
0011
,
0011
0000
0100
0000
0100
1000
0100
0000
,
0010
0100
0001
0000
0001
1000
0001
0000
,
0100
0000
1010
0000
0001
1000
0001
0000
,
0100
1000
0100
0000
0100
0000
0001
0000
,
0100
0000
0101
0000
0010
0000
0100
0010
,
0100
0000
1000
0000
0001
0000
0001
0100
,
0001
0000
0010
0000
1000
0000
0100
0010
,
0001
0011
1100
1010
,
1100
0000
0001
0100
0010
0000
0001
0100
,
0001
0000
0001
0010
0100
0000
0010
0100
,
0001
0000
0100
1000
0010
0000
0100
0010
,
0100
0100
0100
0001
,
0001
0000
1001
0000
0010
0000
0100
0010
,
0001
0000
0001
0100
0001
0000
0100
1000
,
0100
0000
0100
0010
0001
0000
0100
0010
,
0100
1001
1001
0101
,
0101
2002
0000
0000
,
0000
3203
0000
0000
,
0000
0320
0000
0000
,
0000
0230
0000
0000
,
0000
0302
0000
0000
,
0000
2003
0000
0000
,
0000
3020
0000
0000
,
0000
0230
0000
0000
,
0000
0301
0100
0001
,
1000
0010
0100
0010
,
1000
0010
1000
0100
,
1000
0010
0100
0010
,
0100
0010
1000
0100
,
0010
0100
0010
0100
,
1000
0001
1000
0001
,
1000
1100
0000
1001
,
1010
0000
0100
0000
0001
0100
0001
0000
,
0100
0010
0100
0000
0100
1000
0010
0000
,
0001
0000
0011
0000
0100
0010
0001
0000
,
0010
1000
0100
0000
1000
0000
0100
1000
,
0010
0000
0101
0000
0010
0000
0100
1000
,
0001
1000
0010
0001
,
0010
0100
0010
0000
0001
0000
0001
0100
,
0001
0110
1010
1001
,
0110
0000
0010
1000
0010
0000
0100
0010
,
0001
0000
0010
1000
0010
0000
0010
0100
,
0001
0000
0001
0100
0001
0000
0010
1000
,
0001
0001
0001
0010
,
0010
0000
0100
1000
0001
0000
0010
0100
,
0010
0000
0100
0010
0001
0000
0010
0100
,
0010
0000
0001
1000
0010
0000
0010
0100
,
0010
0100
0100
1000
,
1000
0011
0000
0000
;

//--------------- dance-single - B. M'Rey ----------------
#NOTES:
     dance-single:
     B. M'Rey:
     Hard:
     8:
     0,0,0,0,0:
0000
0000
0000
0000
,
0000
0000
0000
0000
,
0000
0000
0000
0000
,
0000
0000
0000
0000
,
0000
0000
0000
0000
,
0000
0000
0000
0000
,
0000
0000
0000
0000
,
0000
0000
0000
0000
,
0000
0000
0010
0000
0100
0000
0010
0001
,
1000
0010
0100
0001
,
0010
1000
0001
0000
0100
0000
0010
0001
,
0100
1010
0000
1001
,
0000
0000
0001
0000
0100
0000
0010
0100
,
1000
0000
0001
0000
0010
0000
0100
0001
,
1000
0000
0001
0000
0010
0000
0001
0010
,
0100
1010
1010
0011
,
0011
0000
0001
0100
0001
0100
0001
1000
,
0100
1000
0100
1000
0001
0100
0001
0100
,
0001
1000
0010
1000
0010
1000
0001
0010
,
0001
1001
1010
1010
,
0110
0000
0011
0000
0100
0010
0001
1000
,
0001
1000
0001
0010
0100
0010
0100
0010
,
0001
0100
0001
0100
0010
0100
0010
1000
,
0010
1001
0101
0101
,
0110
1010
0100
0010
,
1000
0000
0110
0000
1001
0000
0100
0010
,
0001
0000
0010
0100
0001
1000
0100
0010
,
0100
0000
1100
0000
0001
0000
0010
0100
,
0001
0000
0010
1000
0001
0000
0010
0100
,
0001
0000
1001
0000
1010
0000
0010
0100
,
0001
0000
0100
0010
0001
0010
0001
1000
,
0001
0000
0110
0000
0010
0000
0001
0100
,
0001
0000
0001
0010
0100
1000
0001
0010
,
0001
0110
0000
0011
,
0110
0000
0100
0000
0010
1000
0100
0010
,
0001
0100
0000
1000
0100
0010
0000
1000
,
0010
0000
0101
0000
0010
0100
0010
0100
,
0001
1000
0000
0100
0000
1000
0001
0100
,
0010
0000
1100
0000
0010
0100
0001
1000
,
0010
0100
0000
0001
0000
1000
0000
0100
,
0010
0100
0000
1000
0000
0100
0010
0100
,
0010
1000
0110
0000
0110
0000
1100
0000
,
0101
0000
0001
1000
0001
1000
0100
1000
,
0100
0010
0100
0010
0001
0010
0001
1000
,
0001
1000
0010
1000
0010
0100
0010
0100
,
0001
0011
1001
1100
,
0011
0000
0110
0000
0010
0100
0010
1000
,
0001
1000
0001
1000
0100
0010
0100
0010
,
0001
0010
0001
1000
0001
1000
0010
1000
,
0010
0101
0101
1010
,
1010
0220
M000
000M
,
0000
0332
M000
00M0
,
M000
0023
0M00
000M
,
M000
0230
M000
000M
,
M000
0302
00M0
0M00
,
M000
0023
M000
000M
,
0M00
2030
0M00
000M
,
00M0
3200
M000
000M
,
00M0
0000
031M
0000
1000
0000
0100
0001
,
0010
0000
0100
0000
1000
0000
0001
0010
,
0100
0000
0010
0000
1000
0000
0010
0100
,
1000
0010
0100
0001
,
0010
0000
0100
0001
0010
0000
0001
1000
,
0010
0000
0100
0001
1000
0000
0100
0010
,
1000
0011
1100
0110
,
0011
1001
0000
1001
,
1001
0000
0010
0000
0001
1000
0010
0100
,
0001
1000
0000
0100
0010
0100
0000
0010
,
0100
0000
0110
0000
0010
1000
0010
0100
,
0001
0010
0000
1000
0000
0100
0000
1000
,
0001
0000
1100
0000
0001
0000
0010
0100
,
0001
0010
0000
0100
0000
1000
0000
0100
,
0001
0100
0000
1000
0000
0010
0100
1000
,
0010
1000
1100
0000
0110
0000
0011
0000
,
1010
0000
0001
1000
0001
1000
0001
0100
,
0010
1000
0001
1000
0010
1000
0010
0100
,
0001
0100
0010
0100
0010
1000
0100
0010
,
0100
0110
1001
1100
,
0110
0000
0101
0000
0001
0010
0001
0100
,
0001
0100
0010
0100
0010
1000
0010
1000
,
0100
1000
0100
0010
0100
0010
0001
0010
,
0001
1001
0110
1100
,
1100
0011
0000
0000
;

//--------------- dance-single - B. M'Rey ----------------
#NOTES:
     dance-single:
     B. M'Rey:
     Challenge:
     10:
     0,0,0,0,0:
0000
0000
0000
0000
,
0000
0000
0000
0000
,
0000
0000
0000
0000
,
0000
0000
0000
0000
,
0000
0000
0000
0000
,
0000
0000
0000
0000
,
0000
0000
0000
0000
,
0000
0000
0000
0000
,
0000
0000
0M01
1000
0001
1000
0010
1000
,
0010
0100
000M
0100
0001
1000
0001
0010
,
0001
0000
0100
0000
M010
0100
0010
0100
0010
0000
1000
0000
0010
0000
1000
0000
,
0010
1000
0M01
0000
0100
0000
00M1
0000
,
0010
0000
100M
0100
0001
0010
0001
0010
,
0001
1000
00M0
0100
0010
0100
0010
1000
,
0100
1000
000M
1000
0010
0100
0010
0100
,
0010
0000
1000
0000
1MM1
0000
0000
0000
MM11
0000
0000
0000
MM11
0000
0000
0010
,
M10M
0000
0010
0000
01M0
0000
1000
0000
0001
0000
1000
0001
0000
1000
0000
1000
,
0010
0000
0100
0000
M010
0001
0100
0001
0100
0000
0001
0010
0000
1000
0000
0010
,
1000
0000
0100
0000
001M
0100
0010
0100
0001
0000
0100
0001
0000
0100
0000
0010
,
0100
1000
1M1M
0000
0110
0000
M1M1
0000
,
0011
0000
0000
0000
0M10
0000
1000
0000
0010
0000
1000
0010
0000
0100
0000
0001
,
0010
0000
0100
0000
M001
0010
0001
0010
0001
0000
0010
0100
0000
1000
0000
0001
,
0100
0000
1000
0000
010M
0010
0100
0010
0001
0000
1000
0001
0000
1000
0000
0100
,
0010
1000
M11M
0000
0110
0000
MM11
0000
,
0011
0000
MMM1
00M0
1000
0M00
0001
00M0
,
1000
0000
0010
0001
0010
0000
0000
0000
1001
0000
0000
0000
0100
0000
0010
0000
,
0100
0000
0100
1000
0001
1000
0001
1000
,
0010
0000
0100
0000
0010
0000
0100
0000
0000
0000
1000
0100
1000
0000
0001
0000
,
0100
0000
0001
0010
0001
0010
0001
1000
,
0100
0000
MM11
0000
M11M
0000
0001
0100
,
0010
0000
0010
0100
0001
1000
0001
1000
,
0001
0000
M11M
0000
0100
0000
0001
1000
,
0010
0000
0010
1000
0001
0100
0001
0100
,
0001
0000
0000
0000
M11M
0000
0000
0000
0010
0000
MMMM
0000
0000
1010
0000
0000
,
1100
0000
0100
0010
M100
0000
0001
0000
0100
0000
0001
0010
M001
0000
0100
0000
,
0010
0000
0001
0100
M001
0000
0100
0000
0010
0000
1000
0100
1000
0000
0001
0100
,
0010
0000
0000
0000
M110
0000
0001
0000
0100
0000
0001
0100
M001
0000
0010
0000
,
1000
0000
0100
0010
M001
0000
0001
0010
0001
0000
1000
0000
0100
0000
0010
0000
,
0100
0000
0000
0000
10M1
0000
0100
1000
0010
0000
1000
0000
0M01
0000
0100
1000
,
0001
0000
0010
0000
0M01
0000
0010
1000
0100
0000
0010
0100
0010
0000
0010
1000
,
0100
0000
1000
0000
001M
0000
0100
0000
0010
0000
0001
0010
0M01
0000
1000
0000
,
0100
0000
0001
0100
M010
0000
0000
0000
1MM1
0000
0000
0000
1MM1
0000
0000
0000
,
M11M
0000
0000
0000
M100
0000
0010
0000
0001
0000
0100
0001
0000
1000
0000
1000
,
0001
0000
1000
0000
01M0
1000
0100
1000
0100
0000
0010
0100
0000
0010
0000
1000
,
0001
0000
0010
0000
M001
0100
0001
0100
0001
0000
0100
0010
0000
0100
0000
0001
,
0010
1000
1M1M
0000
1001
0000
MM11
0000
,
0011
0000
0000
0000
010M
0000
0010
0000
0100
0000
1000
0100
0000
0010
0000
1000
,
0001
0000
1000
0000
01M0
1000
0100
1000
0001
0000
1000
0001
0000
0100
0000
0010
,
0001
0000
1000
0000
01M0
1000
0100
1000
0100
0000
1000
0001
0000
0100
0000
0010
,
0001
0100
MM11
0000
0110
0000
MM11
0000
,
0101
4MM0
0000
3040
,
0000
M43M
0000
0304
,
0000
MM43
0000
0034
,
0000
M4M3
0000
0340
,
0000
4M3M
0000
3400
,
0000
43MM
0000
3004
,
0000
MM43
0000
0034
,
0000
M4M3
0000
0340
,
0000
0000
0130
1000
010M
1000
0010
0100
,
001M
1000
0010
1000
010M
1000
0001
0010
,
M001
0010
0001
0100
M010
0100
0010
0100
,
0M01
1000
0010
1000
0M10
1000
0001
0010
,
M001
0010
0001
0100
M010
0100
0010
0100
,
00M1
1000
0001
1000
0M01
0010
0100
0010
,
M100
0010
1001
1000
0M11
0010
1001
1000
,
11M0
0000
1000
0000
110M
0000
0000
0000
0010
0000
MMMM
0000
0000
0110
0000
0000
,
1010
0000
0100
0010
010M
0000
1000
0000
0100
0000
1000
0010
100M
0000
0100
0000
,
0010
0000
1000
0100
100M
0000
0100
0000
0010
0000
0001
0100
0001
0000
1000
0100
,
0010
0000
0000
0000
011M
0000
1000
0000
0100
0000
1000
0100
10M0
0000
0010
0000
,
0001
0000
0100
0010
1M00
0000
1000
0010
1000
0000
0001
0000
0100
0000
0010
0000
,
0100
0000
0000
0000
1MM1
0000
0100
0001
0010
0000
0001
0000
10M0
0000
0100
0001
,
1000
0000
0010
0000
1M00
0000
0010
0001
0100
0000
0010
0100
0010
0000
0010
0001
,
0100
0000
0001
0000
M010
0000
0100
0000
0010
0000
1000
0010
1M00
0000
0001
0000
,
0100
0000
1000
0100
MM1M
0000
0000
0000
1MM1
0000
0000
0000
1MM1
0000
0000
0000
,
M11M
0000
0000
0000
10M0
0000
0100
0000
0001
0000
1000
0001
0000
0100
0000
0001
,
0010
0000
0100
0000
M010
0100
0010
0100
0001
0000
0010
0001
0000
0010
0000
1000
,
0001
0000
1000
0000
010M
0010
0100
0010
0100
0000
0010
0001
0000
0010
0000
1000
,
0001
1000
MM11
0000
1100
0000
11MM
0000
,
0110
0000
0000
0000
MMM1
0000
0010
0000
0001
0000
0010
0100
0000
1000
0000
0001
,
0100
0000
1000
0000
010M
0010
0100
0010
0001
0000
0010
0001
0000
0010
0000
1000
,
0100
0000
1000
0000
01M0
1000
0100
1000
0010
0000
1000
0010
0000
0100
0000
0001
,
0010
1000
11MM
0000
0110
0000
M1M1
0000
,
0011
011M
M000
000M
,
M000
000M
0M00
00M0
,
0M00
0000
0000
0000
;
