#VERSION:0.83;
#TITLE:Russian Roullette;
#ARTIST:Ice MC;
#GENRE:Eurodance;
#CREDIT:B. M'Rey;
#MUSIC:Russian Roulette.ogg;
#BANNER:Russian Roulette-bn.png;
#BACKGROUND:Russian Roulette-bg.png;
#CDTITLE:./CDTITLES/Eurobeat X-Press 1 ~Non-Stop Mix~.PNG;
#SAMPLESTART:103.392;
#SAMPLELENGTH:15;
#OFFSET:-0.160;
#BPMS:0=134.842;

//--------------- dance-single - B. M'Rey ----------------
#NOTEDATA:;
#STEPSTYPE:dance-single;
#DESCRIPTION:B. M'Rey;
#CREDIT:B. M'Rey;
#DIFFICULTY:Beginner;
#METER:4;
#RADARVALUES:0,0,0,0,0;
#NOTES:
0000
0000
0000
0000
,
0000
0000
0000
0000
,
0000
0000
0000
0000
,
0000
0000
0000
0000
,
0000
0000
0000
0000
,
0000
0000
0000
0000
,
0000
0000
0000
0000
,
0000
0000
0000
0000
,
0000
0010
0000
0000
,
0000
1000
0000
0000
,
0000
0001
0000
0000
,
0000
0100
0000
0000
,
0000
0010
0000
0000
,
0000
1000
0000
0000
,
0000
0100
0000
0000
,
0000
0001
0000
0000
,
0000
1000
0000
0000
,
0000
0100
0000
0000
,
0000
1000
0000
0000
,
0000
0010
0000
0000
,
0000
0100
0000
0000
,
0000
0001
0000
0000
,
0000
1000
0000
0000
,
0000
0001
0000
0000
,
0000
1000
0000
0010
,
0000
0100
0000
0010
,
0000
0001
0000
1000
,
0000
0010
0000
0100
,
0100
0001
0000
1000
,
0000
0010
0000
0100
,
0000
0001
0000
1000
,
0000
0010
0000
0001
,
0001
0010
0000
0000
,
0000
0000
0000
1000
,
0000
1000
0001
0100
,
0010
1000
0100
0010
,
0001
1000
0010
0100
,
0001
1000
0010
0100
,
0001
1000
0010
0100
,
0001
1000
0010
0100
,
0001
1000
0100
0010
,
0001
0100
0010
1000
,
0110
0001
0000
1000
,
0000
0010
0000
0100
,
0000
0001
0000
1000
,
0000
0010
0000
0100
,
0100
0001
0000
0010
,
0000
0001
0000
1000
,
0000
0100
0000
1000
,
0000
0010
0000
0001
,
0001
1000
0100
0010
,
0001
0100
0010
1000
,
0001
0010
0100
1000
,
0010
0100
0001
0010
,
0100
1000
0001
0100
,
0010
1000
0100
0010
,
0001
0100
0010
1000
,
0001
0010
0000
0000
,
1000
0010
0000
0100
,
0000
0001
0000
1000
,
0000
0010
0100
0000
,
0000
0001
0000
0010
,
0000
1000
0010
0100
,
0000
0001
0000
0010
,
0000
0100
0000
0000
,
0000
0001
0000
1000
,
0000
0010
0000
0101
,
0000
0010
0000
1000
,
0100
0001
0000
0000
,
0000
0010
0000
0100
,
0000
1000
0010
0100
,
0000
1000
0000
0001
,
0000
0010
0100
0000
,
0000
0001
1000
0020
,
0000
0200
0000
0330
;

//--------------- dance-single - B. M'Rey ----------------
#NOTEDATA:;
#STEPSTYPE:dance-single;
#DESCRIPTION:B. M'Rey;
#CREDIT:B. M'Rey;
#DIFFICULTY:Easy;
#METER:6;
#RADARVALUES:0,0,0,0,0;
#NOTES:
0000
0000
0000
0000
,
0000
0000
0000
0000
,
0000
0000
0000
0000
,
0000
0000
0000
0000
,
0000
0000
0000
0000
,
0000
0000
0000
0000
,
0000
0000
0000
0000
,
0000
0000
0000
0000
,
0000
1000
0100
1000
,
0001
1000
0001
0100
,
0010
0100
0001
0100
,
0010
1000
0001
0010
,
0001
1000
0010
1000
,
0010
0100
0001
0100
,
0001
0100
0001
0100
,
0010
1000
0001
0010
,
0100
1000
0001
1000
,
0100
1000
0010
0100
,
0010
1000
0100
0010
,
0100
0010
0100
1000
,
0001
0100
0010
0100
,
0010
0100
0001
0100
,
0010
1000
0010
0100
,
0010
0100
0000
0000
,
0000
1010
0001
1000
,
0010
0100
0010
1000
,
0001
1000
0010
0100
,
0001
1000
0001
0100
,
0001
0100
0001
0100
,
0001
1000
0001
1000
,
0001
1000
0100
1000
,
0001
0100
0001
0100
,
0010
1000
0000
0100
,
0000
0010
0000
1000
,
0001
0100
0010
1000
,
0010
1000
0001
0100
,
0010
0100
0010
0100
,
0001
0010
0001
0010
,
0001
1000
0010
0100
,
0010
0100
0010
0100
,
0001
0100
0001
1000
,
0100
1000
0001
0010
,
0100
0010
0100
1000
,
0010
0100
0001
1000
,
0010
0100
0001
0100
,
0010
0100
0010
1000
,
0010
0100
0010
1000
,
0001
1000
0100
0010
,
0100
1000
0001
0100
,
0010
0100
0010
1000
,
0001
0101
0001
0100
,
0010
1000
0100
0010
,
0001
0100
0010
1000
,
0010
0100
0001
0100
,
0001
0010
0100
0010
,
0001
1000
0010
1000
,
0100
0010
0100
1000
,
0010
1000
0000
0010
,
0000
0100
0001
0010
,
0001
1000
0010
0100
,
0001
0200
0000
0300
,
0010
0100
0001
1000
,
0010
0100
0001
1000
,
0010
1000
0010
1000
,
0001
0020
0000
0030
,
0010
1000
0100
1000
,
0100
0110
0100
0010
,
0001
0010
0100
1000
,
0001
0200
0000
0300
,
0001
1000
0100
0010
,
0100
1001
0100
1000
,
0001
0100
0010
1000
,
0010
0200
0000
0300
,
0001
0100
0010
2000
,
0000
0200
0000
3300
;

//--------------- dance-single - B. M'Rey ----------------
#NOTEDATA:;
#STEPSTYPE:dance-single;
#DESCRIPTION:B. M'Rey;
#CREDIT:B. M'Rey;
#DIFFICULTY:Medium;
#METER:10;
#RADARVALUES:0,0,0,0,0;
#NOTES:
0000
0000
0000
0000
,
0000
0000
0000
0000
,
0000
0000
0000
0000
,
0000
0000
0000
0000
,
0000
0000
0000
0000
1000
0000
0000
0100
0000
0000
0001
0000
0000
0000
0000
0000
,
0100
0000
0010
0000
1000
0000
0000
0001
0000
0000
0100
0000
1000
0000
0000
0010
,
0000
0000
0100
0000
1000
0000
0000
0200
0000
0000
0000
0000
0000
0000
0000
0000
,
0300
0100
1000
0000
0010
0001
0000
0020
,
0000
1000
0130
1000
,
0001
0100
0010
0100
,
0010
1000
0100
0010
,
0001
0100
0010
0000
0001
0010
0000
0200
,
0000
0010
0301
1000
,
0010
1000
0001
0010
,
0001
0010
0100
1000
,
0001
1000
0010
0000
0001
0100
0000
0020
,
0000
0000
0100
0000
0001
0030
1000
0000
,
0100
0010
0001
1000
,
0001
0010
0001
0010
,
0001
1000
0010
0000
0001
1000
0000
0002
,
0000
0100
0013
1000
,
0100
0010
0100
1000
,
0100
1000
0001
0010
,
0100
0001
0000
0000
,
0000
0000
0110
0000
1000
0001
0100
0001
,
0100
0001
0000
0000
0010
0100
0010
0100
,
0010
0100
0000
0001
0100
0010
0000
0100
,
0000
0100
1000
0001
0000
0010
0100
0010
,
1000
0001
0000
0010
1000
0010
1000
0100
,
1000
0100
0000
0001
0010
0100
1000
0100
,
0010
0100
0000
0100
0010
0001
0000
1000
,
0000
0100
0010
0100
0000
0001
1000
0100
,
0010
0100
0010
0000
1000
0000
0010
0000
,
1000
0100
0001
0200
,
0000
0000
1300
0100
0010
0001
0010
0001
,
1000
0100
0010
0100
1000
0100
1000
0010
,
0100
0010
0000
0010
0100
0001
0000
0100
,
0010
0100
0010
0001
1000
0001
0010
0100
,
1000
0100
0010
0001
0010
0100
1000
0001
,
0010
0001
0000
0001
0010
0001
1000
0000
,
0010
0000
0010
0001
0010
0000
0100
0001
,
0100
0000
1000
0100
1000
0010
1000
0001
,
1000
0000
1001
0000
1000
0001
1000
0010
,
1000
0010
0000
0001
0100
0010
0100
0010
,
0100
0010
0000
0010
1000
0001
0000
0010
,
0000
0010
0100
0010
0000
0010
1000
0001
,
1000
0010
0000
0010
0100
0010
1000
0010
,
0100
0001
0000
0100
1000
0010
1000
0010
,
1000
0001
0000
0010
0100
0001
0000
0100
,
0000
0001
0100
0001
0000
0100
0010
0100
,
0010
0001
1000
0100
0010
0001
0010
0001
,
1000
0001
0000
0001
1000
0100
1000
0100
,
0010
0100
0000
0001
0010
0001
0010
0100
,
0010
0000
1000
0010
1000
0010
1000
0100
,
1000
0000
1000
0100
1000
0000
0010
0100
,
1000
0000
1000
0001
1000
0000
1000
0100
,
0010
0000
1000
0100
1000
0010
0100
0001
,
1000
0001
1000
0000
0010
0000
1000
0000
,
0110
0000
0010
0100
1000
0010
1000
0000
,
1000
0000
0100
0000
0010
0000
0000
1000
0000
0000
0001
0000
0010
0000
0000
0100
,
0000
0000
0010
0000
1000
0000
0000
0001
0000
0000
0010
0000
0100
0000
0000
0000
,
1000
0000
0100
0000
0010
0000
0000
1000
0000
0000
0010
0000
0000
0000
0010
0000
,
0100
0000
0001
0000
1000
0000
0000
0100
0000
0000
0010
0000
0000
0000
0010
0000
,
1000
0000
0001
0000
0100
0000
0000
0010
0000
0000
0100
0000
0001
0000
0000
1000
,
0000
0000
0010
0000
0100
0000
0000
0002
0000
0000
0000
0000
0000
0000
0000
0000
,
1003
0001
0100
0000
0100
0010
0000
0010
,
1000
0000
0001
0000
0010
0000
0000
1000
0000
0000
0001
0000
0100
0000
0000
0000
,
1000
0000
0100
0000
1000
0000
0000
0001
0000
0000
1000
0000
0100
0000
0000
0010
,
0000
0000
0001
0000
1000
0000
0000
0020
0000
0000
0000
0000
0000
0000
0000
0000
,
0130
0000
0001
0000
0100
0000
0000
0001
0000
0000
0010
0000
0000
0000
0010
0000
,
0100
0000
0010
0000
0100
0000
0000
0001
0000
0000
0100
0000
0000
0000
0000
0000
,
1000
0000
0100
0000
1000
0000
0000
0001
0000
0000
0100
0000
0010
0000
0000
0100
,
0000
0000
0001
0000
0100
0000
0000
0001
0000
0000
0001
0000
0010
0000
0100
0000
,
0010
0001
1000
0000
0100
0010
0000
0020
,
0000
0200
0000
0330
;

//--------------- dance-single - B. M'Rey ----------------
#NOTEDATA:;
#STEPSTYPE:dance-single;
#DESCRIPTION:B. M'Rey;
#CREDIT:B. M'Rey;
#DIFFICULTY:Hard;
#METER:13;
#RADARVALUES:0,0,0,0,0;
#NOTES:
0000
0000
0000
0000
,
0000
0000
0000
0000
,
0000
0000
0000
0000
,
0000
0000
0000
0000
,
0000
0000
0000
0000
0100
0000
0000
0001
0000
0000
0100
0000
0000
0000
0000
0000
,
0010
0000
1000
0000
0010
0000
0000
0100
0000
0000
0100
0000
0001
0000
0000
1000
,
0000
0000
1000
0000
0001
0000
0000
2000
0000
0000
0000
0000
0000
0000
0000
0000
,
3000
1000
0100
0000
0001
0100
0000
0020
,
0000
1030
0001
0010
,
0001
1000
0100
0010
,
0100
0010
0100
0010
,
0100
0001
0010
0000
0100
0010
0000
0200
,
0000
1300
0100
1000
,
0100
1000
0001
1000
,
0001
1000
0001
0100
,
0010
0100
0001
0000
0010
1000
0000
0100
,
0010
0001
0100
0001
1000
0001
0100
0010
,
0100
0001
1000
0010
0100
0010
0100
0010
,
0100
0010
0100
0001
1000
0100
1000
0100
,
1000
0010
1000
0001
1000
0100
1000
0010
,
0100
0010
0100
0001
1000
0010
1000
0010
,
0100
0010
0100
0001
0010
0001
1000
0100
,
0010
0100
1000
0001
0010
0001
0100
0010
,
1000
0010
0001
0000
0001
1000
0000
0010
,
0100
0000
0001
0000
0010
0000
0100
1000
0010
0000
0001
0000
0010
0000
0001
0000
,
0100
0000
0010
0000
1000
0000
0010
0001
0100
0000
0010
0000
0100
0000
0001
0000
,
0010
0000
0100
0000
1000
0000
0100
0001
1000
0000
0100
0000
1000
0000
0010
0000
,
0100
0010
1000
0010
1000
0100
1000
0010
,
0100
0000
0010
0000
1000
0000
0010
0100
1000
0000
0001
0000
0010
0000
0001
0000
,
0100
0000
0010
0000
0100
0000
0010
0001
0100
0000
0010
0000
1000
0000
0100
0000
,
1000
0000
0010
0000
1000
0000
0100
0010
1000
0000
0100
0000
0010
0000
0001
0000
,
0010
0001
0100
0001
0010
0001
1000
0010
,
0100
0000
1010
0010
0100
0000
0001
0010
,
0001
0000
0000
0000
0010
0000
0100
0000
0001
0000
0000
0000
0010
0001
1000
0010
,
0000
0100
0001
1000
0100
0000
0010
0000
0001
0000
1000
0000
0010
1000
0000
0001
,
0000
0100
0001
0010
0001
0000
1000
0000
0001
0100
0001
0100
0010
0000
0001
0000
,
0010
0000
0001
0000
0010
1000
0100
1000
0100
0000
0010
0000
0001
0100
0001
0010
,
0100
0000
0100
1000
0100
0000
0001
0010
0000
0100
0000
0001
0010
0100
0001
0000
,
0100
0000
0010
0000
0010
0100
0000
0100
0001
0000
0100
0000
0010
1000
0000
0100
,
0001
0000
0010
0000
0010
0100
0010
1000
0100
0000
0100
1000
0010
0000
0001
0100
,
0001
0000
1000
0000
0010
1000
0010
0000
0010
0000
0001
0010
0001
0000
0010
0000
,
0001
0100
0000
0100
0001
1000
0010
0000
0100
0000
0010
0000
1000
0000
0010
0000
,
0001
0000
0000
0000
0100
0000
0001
1000
0100
0000
0010
0000
0100
0000
0010
0000
,
1000
0000
0001
0000
0100
0000
0010
0001
0100
0000
0010
0000
1000
0000
0010
0000
,
0100
0000
0001
0000
0010
0000
0100
0001
1000
0000
0010
0000
1000
0000
0001
0000
,
0100
0001
0100
0010
0100
0001
0100
0001
,
0100
0000
0010
0000
1100
0000
0001
0010
1000
0000
0001
0000
0100
0000
0001
0000
,
0100
0000
0010
0000
1000
0000
0100
0001
1000
0000
0001
0000
1000
0000
0010
0000
,
1000
0000
0100
0000
1000
0000
0010
0001
1000
0000
0010
0000
1000
0000
0100
0000
,
0010
0100
1000
0010
0100
0010
0100
0001
,
0100
0000
0000
0000
0100
1000
0010
0100
0001
0000
0010
1000
0001
0000
1000
0000
,
0001
0000
1000
0000
0100
1000
0100
0010
0100
0000
0001
0010
0100
0000
0001
0000
,
0100
0000
0001
0000
1000
0010
0001
0100
0001
0000
0010
1000
0001
0000
0100
0000
,
0001
0000
0100
1000
0010
1000
0100
1000
0001
0100
0010
1000
0010
0000
0001
1000
,
0001
0000
0001
0100
0010
0100
0001
0010
0100
0000
0100
0000
0100
1000
0001
0100
,
0001
0000
0010
0100
0001
1000
0100
0000
0010
0000
0100
1000
0010
1000
0100
0000
,
0010
0000
1000
0000
0001
0000
0010
0000
0001
0010
0100
0000
0001
0000
0100
1000
,
0001
0000
0010
0000
0100
0000
1000
0000
0001
1000
0000
0100
0010
1000
0010
0000
,
0001
1000
0100
0010
0100
0010
0100
0010
,
1000
0001
1000
0010
1000
0001
0100
0001
,
0010
0100
0010
0001
0010
0001
0100
0001
,
1000
0001
0100
0001
0100
0001
1000
0100
,
1000
0100
0011
0001
0010
0100
1000
0010
,
0100
0001
1000
0001
0100
0001
1000
0100
,
1000
0100
1000
0001
0010
0100
1000
0001
,
1000
0010
1000
0010
0100
0010
1000
0100
,
0010
0100
0011
0001
1000
0001
1000
0100
,
0010
0001
1000
0010
0100
0010
0100
0010
,
0100
0001
0010
0001
0100
0001
0010
0100
,
0010
0001
1000
0010
0100
0010
0100
0010
,
0100
0010
1100
0100
0010
0100
1000
0001
,
0010
0001
0010
0001
0010
0100
1000
0100
,
1000
0001
1000
0100
1000
0001
0010
0100
,
1000
0100
1000
0100
0010
0001
0010
0100
,
0010
0001
2002
0000
0000
0000
3003
0000
;

//--------------- dance-single - B. M'Rey ----------------
#NOTEDATA:;
#STEPSTYPE:dance-single;
#DESCRIPTION:B. M'Rey;
#CREDIT:B. M'Rey;
#DIFFICULTY:Challenge;
#METER:17;
#RADARVALUES:0,0,0,0,0;
#NOTES:
0000
0000
0000
0000
,
0000
0000
0000
0000
,
0000
0000
0000
0000
,
0000
0000
0000
0000
,
0000
0000
0000
0000
0100
0000
0000
1000
0000
0000
0100
0000
0000
0000
0000
0000
,
0010
0000
0001
0000
0010
0000
0000
0100
0000
0000
0100
0000
1000
0000
0000
0001
,
0000
0000
0001
0000
1000
0000
0000
0001
0000
0000
0000
0000
0000
0000
0000
0000
,
0000
0001
0100
0000
1000
0100
0000
0010
,
0000
0000
1000
0001
0010
0001
0100
0001
,
0010
0100
1000
0001
1000
0100
1000
0100
,
0010
0100
0010
0001
0100
0001
0010
0001
,
1000
0010
1000
0010
0100
0010
1000
0001
,
1000
0100
0010
0100
1000
0100
0010
0001
,
0010
0100
1000
0100
1000
0100
0010
0001
,
0100
0001
0010
0100
0010
0001
0100
0001
,
1000
0100
1000
0001
1000
0001
0010
0100
,
0010
0000
0100
0000
1000
0000
0010
0001
0010
0000
0010
0100
1000
0000
0100
0001
,
1000
0000
0100
0000
1000
0000
0100
0010
1000
0000
0010
0001
1000
0000
1000
0010
,
1000
0000
0010
0000
0100
0000
0010
0100
0010
0000
1000
0010
0100
0000
1000
0010
,
1000
0010
1000
0010
1000
0010
1000
0010
,
0100
0000
0001
0000
1000
0000
0010
0100
0010
0000
1000
0010
0100
0000
0100
0001
,
0010
0000
1000
0000
0100
0000
0100
0010
1000
0000
0010
0001
0010
0000
0100
0010
,
0100
0000
0100
0000
1000
0000
0001
0000
0010
0000
1000
0100
1000
0000
0010
0000
,
1000
0000
0100
0001
1000
0000
0000
0000
1000
0000
0001
0000
0000
0000
0010
0000
,
0100
0000
0010
0000
1000
0001
0010
0001
0010
0001
1000
0100
1000
0010
1000
0010
,
0100
0010
0100
0001
0100
0001
1000
0001
1000
0100
1000
0100
0010
0001
0010
0001
,
0010
0100
1000
0100
1000
0100
0010
0001
0010
0100
0010
0100
1000
0100
1000
0001
,
0010
0001
0010
0001
0100
0010
0100
0010
0100
0001
1000
0010
1000
0010
1000
0100
,
0010
0100
0010
0100
1000
0001
1000
0001
1000
0100
0010
0001
0010
0001
0100
0001
,
0100
0010
0100
0010
1000
0010
1000
0100
1000
0100
0010
0100
0010
0001
0010
0001
,
1000
0001
1000
0010
0100
0010
0100
0010
1000
0100
1000
0001
1000
0001
0010
0001
,
0010
0100
1000
0001
1000
0001
1000
0100
0010
0001
0010
0001
0010
0100
1000
0100
,
1000
0001
1000
0001
1000
0000
0010
0000
0100
0000
0010
0000
1000
0000
0010
0000
,
1000
0000
0100
0000
0010
0000
0100
0000
1000
0000
0001
0000
0010
1000
0001
0010
,
0000
0100
1000
0001
0100
0000
0010
0000
1000
0000
0001
0000
0010
0001
0000
1000
,
0000
0100
1000
0010
1000
0000
0001
0000
1000
0100
1000
0100
0010
0000
1000
0000
,
0010
0000
1000
0000
0010
0001
0100
0001
0100
0000
0010
0000
1000
0100
1000
0010
,
0100
0000
0100
0001
0100
0000
1000
0010
0000
0100
0000
1000
0010
0100
1000
0000
,
0100
0000
0010
0000
0010
0100
0000
0100
1000
0000
0100
0000
0010
0001
0000
0100
,
1000
0000
0010
0000
0010
0100
0010
0001
0100
0000
0100
0001
0010
0000
1000
0100
,
1000
0000
0001
0000
0010
0001
0010
0000
0010
0000
1000
0010
1000
0000
0010
0000
,
1000
0100
0000
0100
1000
0001
0010
0000
0100
0000
0010
0000
0001
0000
0010
0000
,
1000
0000
0000
0000
1000
0001
0010
0001
0100
0001
0100
0010
0100
0010
1000
0010
,
1000
0001
1000
0001
0010
0001
0010
0100
1000
0100
1000
0100
0010
0001
0010
0100
,
0010
0100
1000
0100
1000
0001
1000
0001
0100
0010
0100
0010
1000
0010
1000
0100
,
1000
0100
0010
0100
0010
0001
0010
0001
0100
0010
0100
0010
0100
0001
1000
0010
,
0100
0010
0100
0010
1000
0100
1000
0001
1000
0001
0100
0010
0100
0010
0100
0001
,
0010
0100
0010
0100
0010
0001
1000
0100
1000
0100
1000
0010
0100
0010
0100
0010
,
1000
0001
1000
0001
1000
0100
0010
0001
0010
0001
0010
0100
1000
0100
1000
0100
,
0010
0001
0010
0100
0010
0100
1000
0100
1000
0001
1000
0010
0100
0010
0100
0001
,
0100
0000
1000
0000
0100
0001
0010
0100
1000
0000
0010
0001
1000
0000
0001
0000
,
1000
0000
0001
0000
0100
0001
0100
0010
0100
0000
1000
0010
0100
0000
1000
0000
,
0100
0000
1000
0000
0001
0010
1000
0100
1000
0000
0010
0001
1000
0000
0100
0000
,
1000
0000
0100
0001
0010
0001
0100
0001
1000
0100
0010
0001
0010
0000
1000
0001
,
1000
0000
1000
0100
0010
0100
1000
0010
0100
0000
0100
0000
0100
0001
1000
0100
,
1000
0000
0010
0100
1000
0001
0100
0000
0010
0000
0100
0001
0010
0001
0100
0000
,
0010
0000
0001
0000
1000
0000
0010
0000
1000
0010
0100
0000
1000
0000
0100
0001
,
1000
0000
0010
0000
0100
0000
0001
0000
1000
0001
0000
0100
0010
0001
0010
0000
,
1000
0000
0001
0000
1000
0001
1000
0001
1000
0001
1000
0001
1000
0100
1000
0100
,
1000
0001
0100
0001
0100
0001
0100
0001
1000
0001
0100
0001
0100
0001
0010
0001
,
0010
0100
0010
0100
0010
0100
0010
0100
0010
0001
0010
0001
0010
0001
1000
0001
,
1000
0001
1000
0100
1000
0100
1000
0100
1000
0100
0010
0100
0010
0100
0010
0100
,
0010
0100
1000
0001
1000
0001
1000
0001
0100
0001
0100
0001
0100
0001
0100
0001
,
1000
0001
1000
0010
1000
0010
1000
0010
1000
0010
1000
0100
1000
0100
1000
0100
,
0010
0100
0010
0100
0010
0100
0010
0100
1000
0001
1000
0001
0100
0001
0100
0001
,
0100
0001
0100
0010
0100
0001
0100
0010
0100
0010
0100
0001
1000
0001
0100
0001
,
0100
0001
0100
0010
0100
0010
0100
0010
0100
0010
0100
0001
0100
0001
1000
0001
,
0100
0010
1000
0010
1000
0010
1000
0010
1000
0010
0100
0010
0100
0010
0100
0010
,
0100
0001
0100
0001
0100
0001
0100
0010
0100
0010
1000
0010
1000
0010
1000
0010
,
1000
0001
1000
0001
1000
0001
1000
0001
1000
0100
0010
0001
0010
0001
0010
0001
,
1000
0010
1000
0010
0100
0001
0100
0001
0010
0001
0010
0001
1000
0001
1000
0001
,
1000
0001
1000
0001
0100
0010
0100
0010
0100
0010
0100
0010
0100
0001
0100
0010
,
0100
0010
0100
0010
1000
0010
1000
0010
1000
0010
1000
0010
0100
0010
0100
0001
,
0100
0010
0100
0010
1000
0010
1000
0010
1000
0010
1000
0100
0010
0100
0010
0100
,
0010
0001
0010
0000
2002
0000
0000
0000
0000
0000
0000
0000
3003
0000
0000
0000
;
