#VERSION:0.83;
#TITLE:Reason;
#ARTIST:Ian Van Dahl;
#GENRE:Vocal Trance;
#CREDIT:B. M'Rey;
#MUSIC:Reason.ogg;
#BANNER:Reason-bn.png;
#BACKGROUND:Reason-bg.png;
#CDTITLE:./CDTITLES/Dream Dance vol.24.PNG;
#SAMPLESTART:42.891;
#SAMPLELENGTH:15;
#OFFSET:-0.987;
#BPMS:0=140.01,136=70.005,168=140.01;
#STOPS:168=1.714;

//--------------- dance-single - B. M'Rey ----------------
#NOTEDATA:;
#STEPSTYPE:dance-single;
#DESCRIPTION:B. M'Rey;
#CREDIT:B. M'Rey;
#DIFFICULTY:Beginner;
#METER:4;
#RADARVALUES:0.140603,0.203726,0.034413,0.117005,0.017207,143,138,5,17,0,0,0.140603,0.203726,0.034413,0.117005,0.017207,143,138,5,17,0,0;
#NOTES:
0000
0000
0000
0000
,
1000
0000
0001
0000
,
0100
0000
0100
0000
,
0001
0000
1000
0000
,
0010
0000
0100
0000
,
0001
0000
0010
0000
,
0001
0000
1000
0000
,
0100
0000
1000
0000
,
0010
0000
0100
0000
,
0001
0000
0010
0000
,
0001
0000
0100
0000
,
0010
0000
1000
0000
,
0100
0000
1000
0000
,
0010
0000
0100
0000
,
0001
0000
0010
0000
,
0001
0000
0100
0000
,
0010
0000
1000
0000
,
0100
0000
1000
0000
,
0010
0000
0100
0000
,
0001
0000
0010
0000
,
0001
0000
0100
0000
,
1000
0000
0001
0000
,
0010
0000
0100
0000
,
0010
0000
1000
0000
,
0100
0000
1000
0000
,
0010
0000
0100
0000
,
0001
0000
0010
0000
,
0001
0000
0100
0000
,
0010
0000
1000
0000
,
0100
0000
0001
0000
,
0010
0000
0001
0000
,
0100
0000
0010
0000
,
1000
0000
0010
0000
,
0100
0000
0001
0000
,
2000
0000
0000
0000
,
0000
3002
0000
0000
0000
0000
0000
0000
0000
0000
0000
0000
0000
0000
0000
0000
,
0000
2003
0000
0000
0000
0000
0000
0000
0000
0000
0000
0000
0000
0000
0000
3020
,
0000
0000
0000
0000
0230
0000
0000
0302
,
2003
0000
0000
0000
,
0000
3002
0000
0000
0000
0000
0000
0000
0000
0000
0000
0000
0000
0000
0000
0000
,
0000
2003
0000
0000
0000
0000
0000
0000
0000
0000
0000
0000
0000
0000
0000
3000
,
0200
0000
0320
0000
,
0030
0210
0000
0000
0000
0000
0000
0000
,
0000
0000
0000
0000
0000
0310
0000
0000
,
0000
1002
0000
0000
0000
0000
0000
0000
,
0000
0000
0000
0000
0000
0103
0000
0000
,
0000
0210
0000
0000
0000
0000
0000
0310
,
0000
2001
0000
0000
0000
0000
0000
3001
,
0000
0210
0000
0000
0000
0000
0000
0310
,
0000
1000
0000
0000
1000
0000
0000
0000
,
1000
0000
0001
0000
,
1000
0000
0100
0000
,
0100
0000
1000
0000
,
0010
0000
1000
0000
,
0010
0000
0100
0000
,
0001
0000
1000
0000
,
0100
0000
0010
0000
,
0020
0000
1030
0000
,
1000
0000
0001
0000
,
1000
0000
0100
0000
,
0100
0000
1000
0000
,
0010
0000
1000
0000
,
0010
0000
0100
0000
,
0001
0000
1000
0000
,
0100
0000
0010
0000
,
0100
0000
1000
0000
,
1000
0000
0001
0000
,
0001
0000
0010
0000
,
0010
0000
0010
0000
,
0010
0000
0100
0000
,
0100
0000
0010
0000
,
0010
0000
0010
0000
,
1000
0000
1000
0000
,
0100
0000
0001
0000
,
1000
0000
0000
0000
;

//--------------- dance-single - B. M'Rey ----------------
#NOTEDATA:;
#STEPSTYPE:dance-single;
#DESCRIPTION:B. M'Rey;
#CREDIT:B. M'Rey;
#DIFFICULTY:Easy;
#METER:7;
#RADARVALUES:0.250725,0.280124,0.089474,0.199597,0.017207,255,242,13,29,0,0,0.250725,0.280124,0.089474,0.199597,0.017207,255,242,13,29,0,0;
#NOTES:
0000
0000
0000
0000
,
0100
0100
0100
0100
,
0010
0010
0010
0010
,
1000
1000
1000
1000
,
1000
1000
1000
1000
,
0001
0001
0001
0001
,
1000
1000
1000
1000
,
1000
0100
0100
0100
,
0100
0000
0000
0100
,
0010
1000
0010
0001
,
1000
0010
0100
0100
,
0010
0100
1000
0001
,
0010
0001
1000
0001
,
0010
0100
1000
0001
,
0010
1000
0100
0010
,
0002
0000
0000
0003
0000
0000
2000
0000
,
3020
0000
0000
0030
0000
0000
0000
0000
,
0110
0000
0001
0000
,
1000
1000
0001
0010
,
0002
0000
0000
0000
0000
0003
0010
0000
,
2000
0001
3010
1000
,
0002
0000
0100
0003
0001
0000
1000
0000
,
0010
0100
1000
0001
,
0020
0000
0000
0000
,
0032
0000
1003
1000
,
1000
0001
0101
0001
,
1000
1001
0100
0001
,
0100
0001
1000
0001
,
0010
0100
1000
0001
,
0010
0001
0110
1000
,
0001
0101
1000
1000
,
0100
0001
0010
0100
,
2000
0000
0000
0000
,
3001
0000
0000
0001
,
2000
0000
0000
0000
,
0000
3002
0000
0000
0000
0000
0000
0000
0000
0000
0000
0000
0000
0000
0000
0000
,
0000
2003
0000
0000
0000
0000
0000
0000
0000
0000
0000
0000
0000
0000
0000
3020
,
0000
0000
0000
0000
0230
0000
0000
0302
,
2003
0000
0000
0000
,
0000
3002
0000
0000
0000
0000
0000
0000
0000
0000
0000
0000
0000
0000
0000
0000
,
0000
2003
0000
0000
0000
0000
0000
0000
0000
0000
0000
0000
0000
0000
0000
3000
,
0200
0000
0320
0000
,
0030
0200
0000
0300
0000
0020
0000
0030
,
0000
0200
0000
0300
0000
0020
0000
0030
,
0000
2000
0000
3000
0000
0002
0000
0003
,
0000
0200
0000
0300
0000
0002
0000
0003
,
0000
0100
0000
0100
0000
0100
0000
0100
,
0000
1000
0000
1000
0000
1000
0000
1000
,
0000
0100
0000
0100
0000
0100
0000
0100
,
0000
1000
0000
0000
1000
0000
1000
0000
,
1000
0001
0101
0001
,
1000
1001
0100
0001
,
0100
0001
1000
0001
,
0010
0100
1000
0001
,
0010
0001
0110
1000
,
0001
0101
1000
1000
,
0100
0001
0010
0100
,
0020
0000
1030
1000
,
1000
0001
0101
0001
,
1000
1001
0100
0001
,
0100
0001
1000
0001
,
0010
0100
1000
0001
,
0010
0001
0110
1000
,
0001
0101
1000
1000
,
0100
0001
0010
0100
,
0100
0100
1000
1000
,
1000
1000
0001
0001
,
0001
0001
0010
0010
,
0010
0010
0010
0010
,
0010
0010
0100
0100
,
0100
0100
0010
0010
,
0010
0010
0010
1000
,
1000
1000
1000
1000
,
0100
1000
0001
0010
,
0100
0000
0000
0000
;

//--------------- dance-single - B, M'Rey ----------------
#NOTEDATA:;
#STEPSTYPE:dance-single;
#DESCRIPTION:B, M'Rey;
#CREDIT:B. M'Rey;
#DIFFICULTY:Medium;
#METER:8;
#RADARVALUES:0.311685,0.464578,0.089474,0.206479,0.096357,317,304,13,30,0,0,0.311685,0.464578,0.089474,0.206479,0.096357,317,304,13,30,0,0;
#NOTES:
0000
0000
0000
0000
,
1000
0000
0001
0000
,
0100
0100
0100
0100
,
0100
0000
0001
0000
,
1000
1000
1000
1000
,
1000
0000
0001
0000
,
0010
0010
0010
0010
,
0010
0000
0100
0000
,
0002
0000
0000
0000
,
1003
0000
0000
0001
0010
0100
0000
1000
,
0000
0010
0000
0001
0000
0100
0000
0010
,
0000
0000
0000
0000
0000
0000
1000
0001
,
0010
0000
0100
1000
0000
0001
0000
0100
,
0000
0010
0000
1000
0000
0000
0000
0001
,
0000
0000
0000
0100
0001
0000
0001
0100
,
0020
0000
0000
2030
0000
0000
3200
0000
,
0302
0000
0000
0023
0000
0000
0000
0000
,
0130
0000
0000
0000
0001
1000
0000
0100
,
0000
0001
0000
0010
0000
1000
0000
0100
,
0001
0010
0000
0000
0000
0100
1000
0001
,
0010
0000
0100
1000
0000
0001
0000
0010
,
0000
0100
0000
1000
0000
0000
0000
0001
,
0000
0000
0000
0000
0010
0100
0010
1000
,
0100
0000
0000
0000
,
0001
0000
0000
0000
1000
0001
0010
0100
,
0001
1000
0000
0100
0000
0001
0000
0010
,
0000
0100
0000
1000
0000
0001
0010
0100
,
0000
0000
1000
0100
0000
0001
0000
0010
,
0000
0000
0000
0000
0100
1000
0001
0010
,
0000
0100
0000
1000
0000
0001
0000
0010
,
0000
0001
0000
0100
0000
0010
1000
0100
,
0000
0000
0001
0010
0000
0100
0000
1000
,
0000
0010
0000
0001
0000
0100
0000
0010
,
2000
0000
0000
0000
,
3001
0000
0000
0000
0010
0001
0000
0100
0000
0000
0010
0001
0000
0100
0000
0010
,
0000
0001
0000
0000
0000
0000
0010
0100
1000
0000
0100
0010
0000
1000
0000
0100
,
0000
1000
0000
0000
0000
0000
0000
0000
0000
0000
0000
0010
0100
0010
0100
0020
,
0000
0000
0000
0000
0230
0000
0000
0302
,
1003
0000
0000
0000
0010
0100
0000
0010
0000
0100
0000
0001
0000
0100
0000
0010
,
0000
0001
0000
0000
0000
0000
0010
0100
1000
0000
0100
0010
0000
0001
0000
1000
,
0000
0200
0000
0000
0300
0000
0000
0000
0000
0000
0000
0000
0100
0010
0001
0200
,
0000
0000
0320
0000
,
0030
2000
0000
3200
0000
0320
0000
0032
,
0000
0023
0000
0230
0000
2300
0000
3200
,
0000
0320
0000
0032
0000
0023
0000
0230
,
0000
2300
0000
3200
0000
0302
0000
0203
,
0000
0310
0000
0110
0000
0110
0000
0110
,
0000
1001
0000
1001
0000
1001
0000
1001
,
0000
0101
0000
0101
0000
0101
0000
0101
,
0000
1010
0000
1010
1000
0001
0010
0100
,
0001
1000
0000
0100
0000
0001
0000
0010
,
0000
0100
0000
1000
0000
0001
0010
0100
,
0000
0000
1000
0100
0000
0001
0000
0010
,
0000
0000
0000
0000
0100
1000
0001
0010
,
0000
0100
0000
1000
0000
0001
0000
0010
,
0000
0001
0000
0100
0000
0010
1000
0100
,
0000
0000
0001
0010
0000
0100
0000
1000
,
0000
0010
0000
0001
1000
0001
0010
0100
,
0001
1000
0000
0100
0000
0001
0000
0010
,
0000
0100
0000
1000
0000
0001
0010
0100
,
0000
0000
1000
0100
0000
0001
0000
0010
,
0000
0000
0000
0000
0100
1000
0001
0010
,
0000
0100
0000
1000
0000
0001
0000
0010
,
0000
0001
0000
0100
0000
0010
1000
0100
,
0000
0000
0001
0010
0000
0100
0000
1000
,
0000
0010
0000
0001
1000
0001
0010
0100
,
0001
1000
0000
0100
0000
0001
0000
0010
,
0000
0100
0000
1000
0000
0001
0000
0100
,
0000
1000
0000
0100
0000
0001
0000
0010
,
0000
0100
0000
0001
0000
1000
0000
0010
,
0000
0100
0000
1000
0000
0001
0000
0010
,
0000
0001
0000
0100
0000
0010
0000
0100
,
0000
1000
0000
0010
0000
0100
0000
1000
,
0000
0010
0000
0001
0000
0100
0000
0010
,
2000
0000
0000
3000
;

//--------------- dance-single - B. M'Rey ----------------
#NOTEDATA:;
#STEPSTYPE:dance-single;
#DESCRIPTION:B. M'Rey;
#CREDIT:B. M'Rey;
#DIFFICULTY:Hard;
#METER:11;
#RADARVALUES:0.480802,0.45761,0.282188,0.144536,0.113564,489,448,41,21,0,0,0.480802,0.45761,0.282188,0.144536,0.113564,489,448,41,21,0,0;
#NOTES:
0000
0000
0000
0000
,
1000
0100
1000
0100
1000
0100
1000
0100
,
0001
1000
0001
1000
0001
1000
0001
1000
,
0010
0100
0010
0100
0010
0100
0010
0100
,
0010
1000
0010
1000
0010
1000
0010
1000
,
0100
0001
0100
0001
0100
0001
0100
0001
,
0010
0001
0010
0001
0010
0001
0010
0001
,
0010
0100
1000
0100
1000
0100
1000
0100
,
1000
0000
0000
0001
0000
0000
0010
0000
0000
0100
0000
0000
1000
0000
0000
0000
,
0001
1000
0010
0100
0001
0010
0100
1000
,
0010
0100
0001
0010
1000
0100
1000
0010
,
0001
0000
1000
0000
0010
0000
0100
1000
,
0001
0010
0100
0001
0010
1000
0100
0010
,
0001
1000
0010
0100
,
0001
0000
0010
0000
1000
0100
0001
0010
,
0200
0000
0000
2300
0000
0000
3020
0000
,
0032
0000
0000
0203
0000
0000
0000
0000
,
0304
0000
0000
0000
0103
1000
0000
0100
,
0010
0001
0010
1000
0100
0010
0001
0010
,
0200
1000
0000
0000
0000
0310
0001
0100
,
0020
0100
0031
0010
,
0200
0000
1000
0300
0100
0000
0010
0000
,
0001
0000
1000
0000
0010
1000
0100
0010
,
0004
0000
0000
0000
,
0403
0000
0000
0000
0310
0001
0010
0001
,
0010
0110
1100
0101
,
1010
0000
0110
0000
1001
0010
0100
0001
,
1000
0010
0100
0001
0010
1000
0100
0010
,
0001
0000
1000
0000
0010
1000
0100
0010
,
0001
0110
1001
0011
,
0110
0000
1100
0000
0011
1000
0010
0001
,
1000
0010
0100
0010
0001
0010
1000
0100
,
0040
0000
0000
0000
,
0130
0000
0000
1000
0000
0000
0001
0000
0000
0010
0000
0000
0100
0000
0000
0000
,
2001
0000
0000
0000
0010
0001
0000
0100
0000
0000
0010
0001
0000
0100
0000
0010
,
0000
3002
0000
0000
0000
0000
0010
0100
1000
0000
0100
0010
0000
1000
0000
0100
,
0000
2003
0000
0000
0000
0000
0000
0000
0000
0000
0000
0010
0100
0010
0100
3020
,
0000
0000
0000
0000
0230
0000
0000
0302
,
2003
0000
0000
0000
0010
0100
0000
0010
0000
0100
0000
0001
0000
0100
0000
0010
,
0000
3002
0000
0000
0000
0000
0010
0100
1000
0000
0100
0010
0000
1000
0000
1000
,
0000
2003
0000
0000
0000
0000
0000
0000
0000
0000
0000
0010
0100
0010
0001
3200
,
0000
0000
0320
0000
,
0030
0110
0000
0110
0000
0110
0000
0110
,
0000
0110
0000
0110
0000
0110
0000
0110
,
0000
1001
0000
1001
0000
1001
0000
1001
,
0000
0101
0000
0101
0000
0101
0000
0101
,
0010
0100
0010
0100
0010
0100
0010
0100
,
0010
1000
0010
1000
0010
1000
0010
1000
,
0010
0100
0001
0100
0001
0100
0001
0100
,
0001
1000
0001
1000
0010
0001
0010
0001
,
0010
0000
0010
0100
1000
0000
0100
0001
,
0010
0000
0100
0010
1000
0010
0100
0001
,
1000
0010
0100
0001
0010
1000
0100
0010
,
0001
0000
1000
0000
0010
1000
0100
0010
,
0001
0000
0010
0100
1000
0000
0010
0001
,
0010
0000
1000
0100
0010
1000
0010
0001
,
1000
0010
0100
0010
0001
0010
1000
0100
,
0020
0000
0000
0001
0000
0001
0000
0001
,
0130
0110
1100
0101
,
1010
0000
0110
0000
1001
0010
0100
0001
,
1000
0010
0100
0001
0010
1000
0100
0010
,
0001
0000
1000
0000
0010
1000
0100
0010
,
0001
0110
1001
0011
,
0110
0000
1100
0000
0011
1000
0010
0001
,
1000
0010
0100
0010
0001
0010
1000
0100
,
0020
0000
0000
0000
0100
0100
0100
0100
,
1030
0100
1000
0100
1000
0100
1000
0100
,
0001
1000
0001
1000
0001
1000
0001
1000
,
0010
0100
0010
0100
0010
0100
0010
0100
,
0010
1000
0010
1000
0010
1000
0010
1000
,
0100
0001
0100
0001
0100
0001
0100
0001
,
0010
0001
0010
0001
0010
0001
0010
0001
,
0010
0100
1000
0100
1000
0100
1000
0100
,
1000
0001
1000
0010
0100
0010
1000
0001
,
2002
0000
0000
3003
;

//--------------- dance-single - B. M'Rey ----------------
#NOTEDATA:;
#STEPSTYPE:dance-single;
#DESCRIPTION:B. M'Rey;
#CREDIT:B. M'Rey;
#DIFFICULTY:Challenge;
#METER:15;
#RADARVALUES:0,0,0,0,0;
#NOTES:
0000
0000
0000
0000
,
0110
0000
0100
0001
0100
0000
1000
0010
1000
0000
0010
0100
1000
0000
1000
0010
,
1000
0000
0100
0001
0010
0000
0010
0001
1000
0000
1000
0001
1000
0000
0100
0010
,
1000
0000
0010
0001
1000
0000
1000
0010
0100
0000
0100
0001
1000
0000
0010
0100
,
0010
0000
0010
0001
0100
0000
1000
0010
1000
0000
0100
0010
1000
0000
0100
0001
,
0100
0000
0100
0001
1000
0000
0100
0001
1000
0000
1000
0010
1000
0000
0100
0010
,
0100
0000
0100
0010
1000
0000
1000
0001
1000
0000
0100
0010
0100
0000
1000
0100
,
0010
0000
0010
0001
0010
0000
1000
0001
1000
0000
0100
0001
1000
0000
1000
0001
,
0100
0000
0000
0001
0000
0000
0010
0000
0000
0100
0000
0000
1000
0000
0001
0010
,
1000
0001
0010
0001
0010
0100
1000
0100
,
1000
0001
1000
0001
0010
0100
1000
0100
,
1000
0001
1000
0001
0100
0001
0100
0010
,
1000
0001
0100
0001
0100
0001
1000
0010
,
1000
0100
0010
0100
0010
0001
1000
0010
,
0100
0010
1000
0010
1000
0001
0010
0100
,
0010
0000
1000
0001
0000
0001
0100
0000
,
0100
0000
1000
0001
0000
0010
1000
0000
,
0100
0001
0100
0001
0100
0000
0001
0000
1000
0000
0010
0000
0100
0000
0001
0000
,
1000
0001
1000
0010
0100
0010
1000
0010
,
0100
0010
0100
0010
1000
0000
0010
0000
0100
0000
0001
0000
1000
0000
0001
0000
,
1000
0001
1000
0001
1000
0000
0001
0000
0100
0000
0010
0000
1000
0000
0010
0000
,
1000
0010
1000
0010
0100
0000
0010
0000
0100
0000
0010
0000
1000
0000
0010
0000
,
1000
0001
1000
0001
0100
0001
0010
0100
,
0010
0100
0010
0100
0010
0000
0000
0000
0001
0000
0000
0000
1000
0000
0000
0000
,
0001
0010
0001
0010
0001
0000
0000
0000
0100
0000
1000
0000
0010
0000
0100
0000
,
0001
0000
1000
0010
1000
0000
0100
0001
1000
0000
0100
0010
0100
0000
1000
0100
,
1000
0000
1000
0001
0100
0000
0100
0001
1000
0000
1000
0001
0100
0000
0010
0001
,
1000
0000
1000
0010
0100
0000
0100
0010
1000
0000
0010
0001
1000
0000
1000
0010
,
1000
0000
0010
0001
1000
0000
0010
0000
1000
0000
0010
0000
0001
0000
0010
0000
,
1000
0000
0100
0010
0100
0000
1000
0001
0010
0000
0010
0001
0100
0000
1000
0100
,
1000
0000
0100
0010
0100
0000
0100
0001
0010
0000
0010
0001
0100
0000
0100
0010
,
1000
0000
0100
0001
0100
0000
0010
0100
0010
0000
0100
0001
0100
0000
0010
0100
,
0010
0001
1000
0010
,
0100
0000
0000
0001
0000
0000
1000
0000
0000
0010
0000
0000
0100
0000
0000
0000
,
1001
0000
0000
0000
1000
0001
0000
0010
0000
0001
1000
0100
0000
1000
0000
0010
,
0000
0001
0000
0100
0000
0100
0010
0100
1000
0000
0100
0010
0000
1000
0000
0001
,
0000
0100
0000
0001
0000
1000
0010
0000
1000
0000
0010
0001
0010
0001
1000
0010
,
2000
0100
0010
3010
0002
1000
1000
0010
,
0013
0000
0100
0000
0100
0010
0000
0001
0000
0010
0000
0001
1000
0010
0000
1000
,
0000
0001
0000
0010
0000
0100
0010
0001
0010
0000
1000
0001
0000
0010
0000
0001
,
0000
0100
0000
0001
1000
0000
0100
0000
1000
0000
0100
0000
1000
0001
0010
0100
,
0020
0100
0100
0100
2030
0001
0001
0001
,
3001
1001
0000
1100
0000
1001
0000
0101
,
0000
0101
0000
1010
0000
1010
0000
0110
,
0000
0101
0000
0101
0000
1001
0000
0110
,
0000
0110
0000
1010
0000
1001
0000
1010
,
1000
0010
1000
0010
1000
0001
0100
0001
,
0100
0001
1000
0010
1000
0010
1000
0001
,
0010
0001
0010
0001
0100
0010
0100
0010
,
0100
0001
0010
0001
0010
0001
1000
0010
,
1000
0001
1000
0001
1000
0001
1000
0010
0100
0000
0100
0010
1000
0001
1000
0001
,
1000
0000
0010
0100
0010
0100
1000
0010
1000
0000
1000
0000
0001
0000
1000
0000
,
0001
1000
0010
0100
0010
0100
0010
1000
,
0001
1000
0001
1000
0010
0100
0010
0100
,
0010
0100
0010
0100
0010
0001
1000
0001
1000
0000
1000
0010
0100
0010
0100
0001
,
0100
0000
1000
0100
1000
0001
1000
0100
0010
0000
1000
0000
0001
0000
0010
0000
,
0100
0001
0100
0001
1000
0001
0100
0001
0100
0001
0100
0001
0100
0010
0100
0010
,
1000
0010
1000
0100
1000
0100
0010
0001
0010
0001
0010
0001
0010
0001
0010
0001
,
0010
0000
1000
0010
1000
0000
0100
0001
1000
0000
0100
0010
0100
0000
1000
0100
,
1000
0000
1000
0001
0100
0000
0100
0001
1000
0000
1000
0001
0100
0000
0010
0001
,
1000
0000
1000
0010
0100
0000
0100
0010
1000
0000
0010
0001
1000
0000
1000
0010
,
1000
0000
0010
0001
1000
0000
0010
0000
1000
0000
0010
0000
0001
0000
0010
0000
,
1000
0000
0100
0010
0100
0000
1000
0001
0010
0000
0010
0001
0100
0000
1000
0100
,
1000
0000
0100
0010
0100
0000
0100
0001
0010
0000
0010
0001
0100
0000
0100
0010
,
1000
0000
0100
0001
0100
0000
0010
0100
0010
0000
0100
0001
0100
0000
0010
0100
,
0010
0000
0001
0010
0001
0000
1000
0000
0010
0000
1000
0000
0010
0000
0001
0000
,
0010
0000
1000
0001
0010
0000
0010
0001
1000
0000
1000
0100
1000
0000
0100
0010
,
1000
0000
1000
0001
1000
0000
0100
0010
0100
0000
1000
0100
1000
0000
0010
0001
,
0010
0000
0100
0010
0100
0000
0100
0001
1000
0000
1000
0100
1000
0000
0010
0001
,
0010
0000
1000
0100
1000
0000
1000
0010
0100
0000
0100
0010
1000
0000
1000
0100
,
0010
0000
0010
0100
1000
0000
0100
0001
0100
0000
1000
0010
1000
0000
0100
0010
,
0100
0000
0100
0001
1000
0000
1000
0100
1000
0000
0010
0100
0010
0000
1000
0001
,
1000
0000
0010
0100
1000
0000
1000
0100
0010
0000
0100
0001
1000
0000
1000
0100
,
1000
0000
0100
0010
0100
0000
1000
0001
1000
0000
1000
0010
0100
0000
0010
0001
,
0020
0000
0000
0030
;
