#VERSION:0.83;
#TITLE:Pray;
#ARTIST:Tina Cousins;
#GENRE:Uplifting Trance;
#CREDIT:B. M'Rey;
#MUSIC:Pray.ogg;
#BANNER:Pray-bn.png;
#BACKGROUND:Pray-bg.png;
#CDTITLE:./CDTITLES/BMR Superstars.PNG;
#SAMPLESTART:64.3;
#SAMPLELENGTH:15.5;
#OFFSET:-0.319;
#BPMS:0=134.022;

//--------------- dance-single - B. M'Rey ----------------
#NOTEDATA:;
#STEPSTYPE:dance-single;
#DESCRIPTION:B. M'Rey;
#CREDIT:B. M'Rey;
#DIFFICULTY:Beginner;
#METER:2;
#RADARVALUES:0.083281,0.136745,0.007197,0.05038,0,81,80,1,7,0,0,0.083281,0.136745,0.007197,0.05038,0,81,80,1,7,0,0;
#NOTES:
0000
0000
0000
0000
,
0000
0000
0000
0000
,
0000
0000
0000
0000
,
0000
0000
0000
2000
,
0000
0000
0000
3000
,
0000
0000
0000
0002
,
0000
0000
0000
0003
,
0000
0000
0000
1000
,
0000
0000
0000
0001
,
0000
0000
0000
0010
,
0000
0000
0000
0100
,
0000
0000
0000
0001
,
0000
0000
0000
1000
,
0000
0000
0000
0100
,
0000
0000
0000
0001
,
0000
0000
0000
1000
,
0000
0000
0000
0010
,
0000
0000
0000
0001
,
0000
0000
0000
0010
,
0000
0000
0000
0100
,
0000
0000
0000
1000
,
0000
0000
0000
0001
,
0000
0000
0000
0010
,
0000
0000
0000
0001
,
0000
0000
0000
0100
,
0000
0000
0000
0010
,
0000
0000
0000
1000
,
0000
0000
0000
0001
,
0000
0000
0000
0100
,
0000
0000
0000
0010
,
0000
0000
0000
0001
,
0000
0000
0000
1000
,
0000
0000
0000
0100
,
0000
0000
0000
0010
,
0000
0000
0000
0001
,
0000
0000
0000
1000
,
1000
0000
0000
0010
,
0010
0000
0000
0100
,
0100
0000
0000
0001
,
0001
0000
0000
0010
,
0010
0000
0000
0001
,
0001
0000
0000
1000
,
0000
0000
0000
0100
,
0000
0000
0000
0010
,
0010
0000
0000
1000
,
1000
0000
0000
0001
,
0001
0000
0000
0010
,
0010
0000
0000
0001
,
0001
0000
0000
0100
,
0100
0000
0000
0010
,
0010
0000
0000
2000
,
0000
0000
0000
3001
,
0000
0000
0000
0100
,
0000
0000
0000
0010
,
0000
0000
0000
0001
,
0000
0000
0000
1000
,
0000
0000
0000
0100
,
0000
0000
0000
1000
,
0000
0000
0000
0001
,
0000
0000
0000
0010
,
0000
0000
0000
0001
,
0000
0000
0000
0100
,
0000
0000
0000
0010
,
0000
0000
0000
1000
,
0000
0000
0000
0100
,
0000
0000
0000
1000
,
0000
0000
0000
0001
,
0000
0000
0000
0020
,
0000
0000
0000
0030
,
0000
0000
0000
0002
,
0000
0000
0000
0003
,
0000
0000
0000
2000
,
0000
0000
0000
3000
,
0000
0000
0000
0020
,
0000
0000
0000
0030
,
0000
0000
0000
1001
;

//--------------- dance-single - B. M'Rey ----------------
#NOTEDATA:;
#STEPSTYPE:dance-single;
#DESCRIPTION:B. M'Rey;
#CREDIT:B. M'Rey;
#DIFFICULTY:Easy;
#METER:4;
#RADARVALUES:0.149083,0.27349,0.107956,0.064774,0,145,130,15,9,0,0,0.149083,0.27349,0.107956,0.064774,0,145,130,15,9,0,0;
#NOTES:
0000
0000
0000
0000
,
0000
0000
0000
0000
,
0000
0000
0000
0000
,
0000
0000
0000
2000
,
0000
0000
0000
0000
,
3000
0000
0000
0200
,
0000
0000
0000
0000
,
0000
0000
0300
1000
,
0000
0010
0000
0010
,
0000
0001
0000
0010
,
0000
0100
0000
0001
,
0000
1000
0000
0001
,
0000
0010
0000
1000
,
0000
0100
0000
0001
,
0000
0010
0000
1000
,
0000
0000
0001
0000
,
0100
0000
0100
0000
,
0010
0000
0100
0000
,
0010
0000
1000
0000
,
0010
0000
0001
2000
,
0000
0000
0000
0000
,
0000
3000
0010
0000
,
1000
0000
0010
0000
,
0010
0000
0100
0000
,
0001
0000
1000
0000
,
0010
0000
0001
0000
,
0100
0000
0001
0000
,
0100
0000
1000
0000
,
0010
0000
2002
0000
,
3003
0000
0010
0000
,
0010
0000
0001
0000
,
0001
0000
0010
0000
,
0100
0000
0010
0000
,
1000
0000
0010
0002
,
0010
0000
2003
0100
,
0000
0000
3000
1001
,
0000
1001
0000
1001
,
0000
0100
0100
0110
,
0000
0110
0000
0110
,
0000
0110
0100
0000
,
0100
0000
1000
0000
,
0100
0000
0010
0000
,
0010
0001
0010
0000
,
1000
0001
1000
1001
,
0000
1001
0000
1001
,
0000
0100
0100
0110
,
0000
0110
0000
0110
,
0000
0110
0100
0000
,
0100
0000
1000
0000
,
0100
0000
0010
0000
,
0010
0001
0010
0000
,
1000
0001
1000
0001
,
0010
0000
0001
0000
,
0100
0000
1000
0000
,
0001
0000
0010
0000
,
0100
0000
0010
0000
,
0100
0000
1000
0000
,
0100
0000
0001
0000
,
0100
0000
1000
0000
,
0001
0000
0100
0000
,
1000
0000
0001
0000
,
0010
0000
1000
0000
,
0001
0000
0010
0000
,
1000
0000
0001
0000
,
0100
0000
1000
0000
,
0001
0000
0010
0000
,
1000
0000
0001
0000
,
0100
0000
1000
0002
,
0000
0000
0000
0000
,
0000
0000
0000
0000
,
0000
0000
0000
0000
,
0000
0000
0000
2003
,
0000
0000
0000
0000
,
0000
0000
0000
0000
,
0000
0000
0000
0000
,
0000
0000
0000
3000
;

//--------------- dance-single - B. M'Rey ----------------
#NOTEDATA:;
#STEPSTYPE:dance-single;
#DESCRIPTION:B. M'Rey;
#CREDIT:B. M'Rey;
#DIFFICULTY:Medium;
#METER:7;
#RADARVALUES:0.244701,0.355536,0.064774,0.323869,0,238,229,9,45,0,0,0.244701,0.355536,0.064774,0.323869,0,238,229,9,45,0,0;
#NOTES:
0000
0000
0000
0000
,
0000
0000
0000
0000
,
0000
0000
0000
0000
,
0000
0000
0000
2000
,
0001
0000
0001
0000
,
3001
0000
0010
0000
,
0100
0000
0001
0000
,
0100
0000
0010
1000
,
0100
0010
0100
0010
,
0100
0001
0001
0010
,
0010
0100
0100
0001
,
0001
1000
1000
0001
,
0001
0010
0010
1000
,
1000
0100
0100
0001
,
0001
0010
0010
1001
,
0000
0000
0001
0010
,
0100
1000
0000
0100
0000
0001
0000
0000
,
0000
0000
0100
0100
,
0010
0001
0000
1000
0000
0200
0000
0000
,
0300
0001
0010
2000
,
0000
0000
0002
0000
,
0000
3003
0100
0000
0010
0000
0001
0000
,
1000
0100
0010
0001
,
0010
1000
0100
0001
,
0001
0010
0000
1000
0000
0100
0000
0000
,
0010
0000
0001
1000
,
0100
0010
0000
0001
0000
0010
0000
0000
,
0100
0100
1000
0010
,
0000
0000
2002
0000
,
3003
0100
0010
2000
,
0000
0020
0000
3030
0001
0000
1000
0000
,
0001
0000
1000
0000
0010
0000
1000
0100
,
0000
0001
0000
0010
0000
0000
0100
1000
,
0000
0100
0000
0000
0010
0000
0002
0000
,
2003
3200
0310
1001
,
1001
0000
2002
0000
0000
3003
0100
0000
,
0010
0000
0100
0000
0010
0000
0001
0010
,
0000
0001
0000
0000
0100
0000
0010
0000
,
0100
0000
0010
0000
0100
0001
0000
0000
,
0010
0001
0000
0000
1000
0010
0000
0100
,
0000
0001
0000
1000
0000
0100
0010
0000
,
0100
0010
0000
0001
,
0010
0000
0001
0000
1000
0000
0001
0010
,
0100
0110
0110
0100
,
0010
0000
0001
0000
1000
0000
0010
1000
,
0000
0010
0001
0000
0100
0000
0001
0000
,
0010
0000
0100
0000
0010
0001
0100
0010
,
0000
0100
0000
0000
0000
1000
0001
0010
,
0000
0100
0000
0010
0000
0001
0000
0100
,
0001
1000
0000
0100
,
0010
0100
1000
0100
,
0010
0001
0100
1001
,
0010
0010
0001
0001
,
0100
0100
1000
1000
,
0001
0001
0010
0010
,
0100
0100
0010
0010
,
0100
0100
1000
1000
,
0100
0100
0001
0001
,
0100
0100
1000
1000
,
0001
0010
0100
1001
,
0001
1000
0001
1000
,
0001
0100
0010
0100
,
0010
0100
0001
0010
,
0100
1000
0100
1000
,
0100
0010
0001
0010
,
0001
0010
0100
1000
,
0100
1000
0100
0010
,
0001
0010
0001
0020
,
0000
0000
0000
0000
,
0000
0000
0000
0000
,
0000
0000
0000
0000
,
0000
0000
0000
0200
,
0000
0000
0000
0000
,
0000
0000
0000
0000
,
0000
0000
0000
0000
,
0000
0000
0000
0330
;

//--------------- dance-single - B. M'Rey ----------------
#NOTEDATA:;
#STEPSTYPE:dance-single;
#DESCRIPTION:B. M'Rey;
#CREDIT:B. M'Rey;
#DIFFICULTY:Hard;
#METER:10;
#RADARVALUES:0.416403,0.464932,0.165533,0.129548,0.014394,405,382,23,18,0,0,0.416403,0.464932,0.165533,0.129548,0.014394,405,382,23,18,0,0;
#NOTES:
0000
0000
0000
0000
,
0000
0000
0000
0000
,
0000
0000
0000
0000
,
0000
0000
0000
2000
,
0001
0000
0001
0000
,
3001
0000
0010
0000
,
0100
0000
0001
0000
,
0100
0000
0000
0000
0010
0000
1000
0001
,
0100
0000
0010
0001
0100
0000
0010
1000
,
0100
0000
0001
0010
0001
0000
0010
0100
,
0010
0000
0100
1000
0100
0000
0001
0010
,
0001
0000
1000
0100
1000
0000
0001
0010
,
0001
0000
0010
0100
0010
0000
1000
0100
,
1000
0000
0100
0010
0100
0000
0001
0010
,
0001
0000
0010
0100
0010
0000
1001
0000
,
0000
0000
0001
0010
,
0100
1000
0000
0100
0000
0001
0000
0010
,
0100
0000
0100
1000
0100
1000
0100
0000
,
0010
0001
0000
0100
0000
0010
0000
1000
,
0000
0000
0010
0000
0001
0000
0000
0100
0000
0000
1000
0000
0000
0000
0200
0000
,
0000
0000
0302
0000
,
0000
0000
0003
0000
1000
0000
0000
0100
0000
0000
0001
0000
0000
0000
0010
0000
,
1000
0000
0100
1000
0100
0000
0001
0010
,
0001
0000
0010
0100
0010
1000
0100
0000
,
0001
0010
0000
0100
0000
1000
0000
0100
,
0001
0000
0100
0010
0100
0000
1000
0000
,
0100
0010
0000
0001
0000
0010
0000
1000
,
0100
0000
1000
0000
0100
0000
0000
0001
0000
0000
0010
0000
0000
0000
0200
0000
,
0000
0000
2300
0000
,
3000
0000
0010
0000
0100
0000
0000
1000
0000
0000
0200
0000
0000
0000
0000
0000
,
0000
0320
0000
0000
0000
0000
0100
0000
,
0100
0000
0130
0001
0010
0100
1000
0100
,
0000
0010
0000
0001
0000
0010
0100
0010
,
0000
1000
0000
0100
0010
0100
0002
0000
,
2003
0000
3200
0000
0310
0002
0000
0023
,
0000
0230
0000
0000
0000
0300
1001
0000
,
0110
0000
1100
0000
0011
0000
0001
0010
,
0000
1000
0100
1000
0100
1000
0110
0000
,
0011
0000
1100
0000
0010
0200
0000
1300
,
0100
0001
0000
0010
0100
0010
0001
0010
,
0100
2000
0000
3002
0000
0013
0100
0010
,
0100
2000
0000
3001
0010
0000
1000
0000
,
0010
0000
0001
0000
0110
0000
1000
0001
,
1000
1001
1001
0110
,
0011
0000
1100
0000
1001
0000
0010
0100
,
0000
0001
0100
1000
0100
1000
0110
0000
,
0011
0000
1100
0000
0001
0010
0100
1000
,
0000
0100
0000
0001
0010
0001
0010
0100
,
1000
0200
0000
0302
0000
0013
0000
0100
,
1000
0100
1000
0000
0010
0000
0100
0000
,
1000
0100
1000
0100
0010
0000
0110
0000
,
1100
0000
0011
0000
1100
0000
1001
0100
,
0010
0100
0010
0100
0001
0010
0001
0010
,
0100
0010
0100
0010
1000
0100
1000
0100
,
0001
0010
0001
0100
0010
0100
0010
1000
,
0100
1000
0100
0001
0010
0001
0100
0010
,
0100
1000
0100
0010
1000
0001
1000
0001
,
0100
0010
1000
0100
0001
0100
0010
1000
,
0100
0001
0100
0010
1000
0100
0010
1000
,
0001
0100
0010
0001
0100
0010
1000
0100
,
1000
0000
0001
0010
0001
0000
0010
0100
,
0010
0000
1000
0100
1000
0000
0001
0010
,
0001
0000
0010
0100
0010
0000
1000
0100
,
1000
0000
0001
0010
0001
0000
0100
0010
,
0100
0000
1000
0100
1000
0000
0001
0010
,
0001
0000
0010
0100
0010
0000
1000
0100
,
1000
0000
0001
0010
0001
0000
0100
0010
,
0100
0000
1000
0100
1000
0000
0002
0000
,
0000
0203
0000
0320
,
0000
2030
0000
3200
,
0000
2300
0000
3020
,
0000
0230
0000
0302
,
0000
0023
0000
0000
,
0000
0000
0000
0000
,
0000
0000
0000
0000
,
0000
0000
0000
0130
;

//--------------- dance-single - B. M'Rey ----------------
#NOTEDATA:;
#STEPSTYPE:dance-single;
#DESCRIPTION:B. M'Rey;
#CREDIT:B. M'Rey;
#DIFFICULTY:Challenge;
#METER:14;
#RADARVALUES:0,0,0,0,0;
#NOTES:
0000
0000
0000
0000
,
0000
0000
0000
0000
,
0000
0000
0000
0000
,
0000
0000
0000
0004
,
2000
3200
0323
0032
,
0203
0320
0230
0340
,
2000
3002
0203
0302
,
0203
0000
0000
0000
0302
0000
0000
0000
0233
0000
0000
0000
0301
1000
0001
0000
,
1000
0000
0001
0000
1000
0001
1000
0000
0001
0000
1000
0000
0001
0100
0001
0000
,
0010
0000
0100
0000
0010
1000
0010
0000
0001
0000
1000
0000
0001
1000
0001
0000
,
0100
0000
1000
0000
0100
1000
0100
0000
1000
0000
0100
0000
1000
0010
1000
0000
,
0100
0000
0010
0000
0001
0010
0001
0000
0010
0000
0001
0000
0010
0001
0010
0000
,
0001
0000
0010
0000
0100
1000
0100
0000
1000
0000
0100
0000
1000
0100
1000
0000
,
0100
0000
1000
0000
0100
0010
0100
0000
0010
0000
0100
0000
0001
0010
0001
0000
,
0010
0000
0001
0000
0010
0001
0010
0000
0001
0000
0010
0000
0100
0000
0000
0000
,
0010
0000
0000
0000
0100
0000
0000
0000
0010
0000
0001
0000
0010
0100
0010
0000
,
0001
1000
0001
0000
0001
0100
0010
0000
0010
0100
0001
0000
0001
0100
1000
0000
,
0001
0000
0100
0000
0001
0000
1000
0000
0100
0000
0010
0000
0100
0010
0100
0000
,
0001
0100
0001
0000
0001
0010
0100
0000
0100
0010
0100
0000
0001
0010
1000
0000
,
0100
0000
0010
0000
0100
0000
0000
0010
0000
0000
0100
0000
0001
0000
1000
0000
,
0010
0000
0000
0000
1000
0000
0000
0000
0400
0000
1000
0000
1000
0300
0000
0000
,
0010
0000
0000
0000
0100
0000
0000
0010
0000
0000
0100
0000
0000
1000
0000
0000
,
0010
1000
0100
0010
0100
1000
0010
1000
,
0001
0000
1000
0000
0100
0000
0010
0000
0001
0000
1000
0000
0100
1000
0100
0000
,
0100
0010
0001
0000
0001
1000
0100
0000
0001
0010
0100
0000
0001
0000
1000
0000
,
0100
0000
0000
0000
0100
0000
0010
0000
0001
0000
0000
0000
0100
0010
0001
0000
,
0001
0100
0010
0000
0001
0100
0001
0000
0001
0010
0100
0000
0001
0100
1000
0000
,
0100
0000
0010
0000
0100
0000
0000
0010
0000
0000
1000
0000
0000
0010
0000
0000
,
0100
0010
0100
0000
0040
0100
0130
0000
,
0001
0000
0100
0000
0010
0000
0000
0100
0000
0000
0020
0000
0001
0000
0000
0000
,
0001
0000
0230
0000
0001
0000
0301
0010
,
0100
0000
0100
0010
0100
0010
1001
0010
,
0100
1000
0000
0001
0000
1000
0010
1000
,
0000
0100
0000
0100
0001
1000
0110
0000
,
0100
0000
1000
0000
0001
0000
0000
0000
0001
0000
0010
0000
0110
0000
0000
0100
,
0001
0000
0000
0100
0010
0000
0100
0000
0001
0000
1000
0000
0001
0000
0001
1000
,
0010
0000
0010
0100
0010
0000
0001
1000
0100
0000
0100
0010
0001
0000
0010
0000
,
0001
0000
0010
0000
0001
0000
1000
0000
0010
0000
1000
0000
0010
0000
0010
0100
,
0001
0000
0010
1000
0010
0000
0100
0010
0100
0000
2000
0000
0001
0000
3100
1000
,
0100
0000
0020
0000
0001
0000
0130
1000
0100
0000
0010
1000
0010
0000
0100
0000
,
0010
0000
0100
0000
1000
0000
0001
0000
0010
0000
0100
1000
0100
0000
0010
0000
,
0100
0000
0001
0000
0100
0000
1000
0000
0001
0000
0100
0000
0010
0000
0001
1000
,
0001
0000
0100
1000
0010
0000
0010
1000
0010
0000
0001
0100
0001
0010
0100
0010
,
0001
0000
0001
0000
0110
0000
0000
0000
1010
0000
0000
0000
0100
0000
0001
0100
,
0001
0000
0100
1000
0100
0000
0100
0010
0001
0000
0100
1000
0010
0000
1000
0000
,
0010
0000
1000
0000
0010
0000
0100
0000
0001
0000
1000
0000
0001
0000
0010
1000
,
0100
0000
0100
1000
0001
0000
0001
1000
0010
0000
1000
0000
0010
0000
1000
0000
,
0010
0000
0100
0000
0001
0000
1000
0000
0001
0000
0100
1000
0001
0000
0001
0100
,
0001
1000
0100
0010
0100
0001
0010
1000
,
0001
0000
0010
1000
0010
0000
0010
0100
0001
0000
1000
0000
0001
0100
0010
0000
,
0001
0000
0010
0000
0100
0000
1000
0000
0010
0000
1000
0000
0001
0100
0001
0000
,
0001
0100
0010
0000
0001
0100
0010
0000
0010
1000
0001
0000
1001
0000
0000
0000
,
0001
1000
0001
0000
1000
0000
0001
0000
1000
0001
1000
0000
0001
0000
1000
0000
,
0001
0100
0001
0000
0010
0000
0100
0000
0010
1000
0010
0000
0001
0000
1000
0000
,
0001
1000
0001
0000
0100
0000
1000
0000
0100
1000
0100
0000
1000
0000
0100
0000
,
1000
0010
1000
0000
0100
0000
0010
0000
0001
0010
0001
0000
0010
0000
0001
0000
,
0010
0001
0010
0000
0001
0000
0010
0000
0100
1000
0100
0000
1000
0000
0100
0000
,
1000
0100
1000
0000
0100
0000
1000
0000
0100
0010
0100
0000
0010
0000
0100
0000
,
0001
0010
0001
0000
0010
0000
0001
0000
0010
0001
0010
0000
0001
0000
0010
0000
,
0100
0000
0010
0000
0100
0000
0010
0001
,
0010
0100
0010
0000
0001
1000
0001
0000
0001
0100
0010
0000
0010
0100
0001
0000
,
0001
0100
1000
0000
0001
0000
0100
0000
0001
0000
1000
0000
0100
0000
0010
0000
,
0100
0010
0100
0000
0001
0100
0001
0000
0001
0010
0100
0000
0100
0010
0100
0000
,
0001
0010
1000
0000
0100
0000
0010
0000
0100
0000
0010
0000
0001
0000
1000
0000
,
0001
0010
0001
0000
0010
1000
0010
0000
0001
0100
0010
0000
0010
1000
0100
0000
,
0100
1000
0001
0000
0100
0000
0010
0000
0100
0000
1000
0000
0001
0000
0010
0000
,
0001
0010
0100
1000
0100
1000
0100
0010
,
0001
0010
0001
0100
0010
0100
1001
0000
,
0002
2003
3020
0230
,
0320
0032
0023
2030
,
0000
3020
0000
0230
,
0000
0302
0000
0043
,
0000
2030
0000
3020
,
0000
0230
0000
0302
,
0000
0023
0000
0230
,
0000
0302
0000
1103
;
