#VERSION:0.83;
#TITLE:Paris Latino (Factory Team Remix);
#ARTIST:Bandolero Team;
#GENRE:Eurodance Latino;
#CREDIT:B. M'Rey;
#MUSIC:Paris Latino (Factory Team Remix).ogg;
#BANNER:Paris Latino (Factory Team Remix)-bn.png;
#BACKGROUND:Paris Latino (Factory Team Remix)-bg.png;
#CDTITLE:./CDTITLES/Dancemania X7.PNG;
#SAMPLESTART:43.016;
#SAMPLELENGTH:15;
#OFFSET:-0.076;
#BPMS:0=134.144;

//--------------- dance-single - B. M'Rey ----------------
#NOTEDATA:;
#STEPSTYPE:dance-single;
#DESCRIPTION:B. M'Rey;
#CREDIT:B. M'Rey;
#DIFFICULTY:Beginner;
#METER:4;
#RADARVALUES:0,0,0,0,0;
#NOTES:
0000
0000
0000
0000
,
0000
0000
0000
0000
,
0000
0000
0000
0000
,
0000
0000
0000
0000
,
1000
0000
0000
0000
,
0001
0000
0000
0000
,
0100
0000
0000
0000
,
0010
0000
0000
0000
,
1001
0000
0000
0000
,
0101
0000
0000
0000
,
0010
0000
0000
0000
,
1000
0000
0000
0000
,
0110
0000
0000
0000
,
0101
0000
0000
0000
,
1010
0000
0000
0000
,
0100
0000
0010
0000
,
0001
0000
0010
0000
,
0100
0000
1000
0000
,
0001
0000
0001
0000
,
0100
0000
0010
0000
,
0010
0000
1000
0000
,
0001
0000
0100
0000
,
0010
0000
1000
0000
,
0001
0000
0010
0000
,
1000
0010
0100
0000
,
0000
0000
0001
0000
,
0100
0010
1000
0000
,
0000
0000
1000
0000
,
0010
0000
1000
0000
,
0001
0000
0010
0000
,
0001
0000
0100
0000
,
0010
0000
1000
0000
,
0001
0000
0100
0000
,
0010
0010
0010
0000
,
1000
0000
0001
0000
,
0100
0000
1000
1000
,
0010
0000
0100
0000
,
0001
0010
0001
0000
,
1000
0000
0010
0000
,
0100
0100
1000
0000
,
0101
0000
1010
0000
,
0010
0010
0010
0000
,
1010
0000
0101
0000
,
0100
0100
0100
1001
,
0010
1000
0100
0000
,
0000
0000
0001
0000
,
1000
0010
0100
0000
,
0000
0000
1000
0000
,
0010
0000
0100
0000
,
0001
0000
1000
0000
,
0010
0000
0100
0000
,
0010
0000
0001
0000
,
1000
0000
0000
0000
,
0000
0000
1001
0000
,
0001
0000
0100
0000
,
0010
0000
1000
0000
,
0100
0000
1000
0000
,
0010
0000
0100
0000
,
1001
0000
1000
0000
,
0010
0000
0100
0000
,
0010
0000
0001
0000
,
1000
0000
0001
0000
,
0010
1000
0100
0000
,
0000
0000
0001
0000
,
1000
0010
0100
0000
,
0000
0000
1000
0000
,
0010
0000
0100
0000
,
0001
0000
1000
0000
,
0010
0000
0100
0000
,
1000
0000
0001
0000
,
0001
0100
0010
0000
,
0000
0000
1000
0000
,
0100
0010
0001
0000
,
0000
0000
0001
0000
,
1000
0000
0000
0000
,
0010
0000
0000
0000
,
0100
0000
0000
0000
,
0010
0000
0000
0000
,
0001
1000
0010
0000
,
0000
0000
1001
0000
;

//--------------- dance-single - B. M'Rey ----------------
#NOTEDATA:;
#STEPSTYPE:dance-single;
#DESCRIPTION:B. M'Rey;
#CREDIT:B. M'Rey;
#DIFFICULTY:Easy;
#METER:6;
#RADARVALUES:0,0,0,0,0;
#NOTES:
0000
0000
0000
0000
,
0000
0000
0000
0000
,
0000
0000
0000
0000
,
0000
0000
0000
0000
,
0100
1000
0000
0000
,
0001
0100
0000
0000
,
0001
0010
0000
0000
,
0001
0100
0000
0000
,
0101
0000
0001
0000
,
0110
0000
0100
0000
,
0001
0100
0000
0000
,
0001
0100
0000
0000
,
1100
0000
0010
0000
,
0110
0000
0001
0000
,
0100
0010
0000
0000
,
0001
0100
0000
0000
,
0100
1000
0010
0100
,
0010
0100
0010
1000
,
0100
1000
0100
1000
,
0110
0000
1010
0000
,
0010
1000
0001
0100
,
0010
1000
0100
0010
,
0100
0010
0100
1000
,
0011
0000
0011
0000
,
0001
1000
0010
0100
,
0000
0100
0001
0000
,
0010
0100
0010
0100
,
0000
0100
0001
0000
,
0001
0000
1000
0000
0000
0010
0000
0000
,
0100
0000
1000
0000
0000
0010
0000
0000
,
0100
0000
1000
0000
0000
1000
0000
0000
,
0010
0000
1000
0000
0000
0010
0000
0000
,
0100
0010
0100
1000
,
0001
0010
0001
0100
,
0001
0100
0010
0100
,
0001
0010
0100
0010
,
0100
0010
0001
0100
,
0001
0100
0001
1000
,
0100
0010
0001
1000
,
0001
1000
0010
1000
,
1100
0011
1100
1001
,
0010
0100
0010
1000
,
0110
1001
0110
1010
,
0001
1000
0100
0010
,
0100
0010
0100
1000
,
0000
1000
0001
0000
,
0010
0100
0010
0100
,
0000
0100
0001
0000
,
0001
0000
0010
0000
0000
1000
0000
0000
,
0001
0000
1000
0000
0000
0010
0000
0000
,
0100
0000
0010
0000
0000
1000
0000
0000
,
0001
0000
1000
0000
0000
0010
0000
0000
,
0001
0010
0100
0000
,
0000
0010
0100
0000
,
0010
1000
0010
1000
,
0001
0010
0100
1000
,
0001
0010
0001
0010
,
0001
0100
0010
0100
,
0010
1000
0100
1000
,
0010
0100
0001
0100
,
0001
0100
0010
1000
,
0001
1000
0100
1000
,
0100
0010
0001
0100
,
0000
0010
0100
0000
,
0100
0010
0001
0100
,
0000
1000
0010
0000
,
0010
0000
0100
0000
0000
1000
0000
0000
,
0100
0000
1000
0000
0000
0001
0000
0000
,
0100
0000
0010
0000
0000
0001
0000
0000
,
0010
0000
1000
0000
0000
0100
0000
0000
,
0010
0100
0010
0100
,
0000
0100
0010
0000
,
0001
0100
0001
0010
,
0000
0010
0100
0000
,
0001
0000
1000
0000
0000
0100
0000
0000
,
0010
0000
1000
0000
0000
0100
0000
0000
,
0001
0000
0100
0000
0000
1000
0000
0000
,
0010
0000
0100
0000
0000
0010
0000
0000
,
0001
0100
0010
0000
,
0000
0100
0010
0000
;

//--------------- dance-single - B. M'Rey ----------------
#NOTEDATA:;
#STEPSTYPE:dance-single;
#DESCRIPTION:B. M'Rey;
#CREDIT:B. M'Rey;
#DIFFICULTY:Medium;
#METER:10;
#RADARVALUES:0,0,0,0,0;
#NOTES:
0000
0000
0000
0000
,
0000
0000
0000
0000
,
0000
0000
0000
0000
,
0000
0000
0000
0000
,
0010
1000
0010
1000
,
0100
0010
0001
0010
,
0001
1000
0001
0010
,
0100
0010
0001
0100
,
0001
0010
0100
1000
0000
0010
0000
0100
,
0001
0010
0100
1000
0000
0010
0000
0001
,
0001
0100
0001
0100
,
0001
0010
0100
1000
,
1000
0100
0010
0001
0000
1000
0000
0010
,
1000
0100
0010
0001
0000
1000
0000
0010
,
0001
1000
0100
1000
,
0100
0010
0100
1000
,
0010
1000
0010
0000
0001
0100
0001
0000
,
0010
1000
0100
0000
0100
0010
0100
0000
,
0001
0100
0010
0000
0001
0100
0010
0000
,
0001
0000
0100
0000
0001
0010
0001
0000
,
0100
1000
0010
0000
0001
1000
0100
0000
,
0100
0010
0001
0000
0001
0100
0001
0000
,
0100
0010
0100
0000
0001
0010
0001
0000
,
0010
1000
0001
0010
,
1010
0010
1001
0001
,
0001
1000
0010
0100
0001
0000
0100
0000
,
1001
0010
0110
0001
,
0100
1000
0001
0010
0100
0000
0001
0000
,
0001
0100
0001
0010
0000
0010
0000
0100
,
0010
0100
0010
1000
0000
0010
0000
1000
,
0010
0100
0001
1000
0000
0001
0000
1000
,
0100
0010
0100
0010
0000
1000
0000
0100
,
0010
1000
0001
0000
0010
1000
0001
0000
,
0010
0100
0001
1000
0010
0100
0001
0000
,
0001
1000
0010
0000
0010
0100
0010
0000
,
0001
0010
0100
0000
0100
1000
0001
0000
,
0001
0010
0100
0000
0001
1000
0001
0000
,
0100
1000
0010
1000
0100
0000
0001
0000
,
0100
0010
0001
0000
0001
1000
0100
0000
,
0001
0010
0001
0000
0100
0010
0001
0000
,
1100
0000
0011
0000
1100
0000
0001
0100
,
0001
0100
0010
1000
0001
0010
0100
0000
,
1001
0000
0110
0000
0110
0000
0001
1000
,
0010
0000
0010
0000
0001
0010
0001
0000
,
1010
0100
1001
0100
,
0001
0100
0010
1000
0001
0000
0010
0000
,
1001
0010
0101
0010
,
0001
1000
0010
0100
0010
0000
0001
0000
,
0010
1000
0100
0010
0000
1000
0000
1000
,
0001
0100
0010
0100
0000
0001
0000
1000
,
0010
1000
0010
0100
0000
1000
0000
0010
,
0100
1000
0010
1000
0000
0001
0000
0010
,
1100
0100
1001
0000
,
0000
1000
0010
1000
0010
0000
0000
0000
,
0100
1000
0010
0000
0010
1000
0001
0000
,
0100
0010
0100
0000
0001
0100
0010
0000
,
0010
1000
0010
0000
0001
1000
0001
0000
,
0100
0000
0001
0000
0100
0010
0001
0000
,
0010
1000
0001
0000
0100
0010
0001
0000
,
0001
0100
0010
0000
0010
0100
0010
0000
,
0001
0010
0001
0000
0100
1000
0100
0000
,
0100
0000
0001
0000
0100
1000
0001
0000
,
0101
0001
0110
0010
,
0001
0010
0100
1000
0001
0000
0001
0000
,
1010
0010
1100
0100
,
0001
1000
0100
1000
0010
0000
0100
0000
,
0010
1000
0100
0010
0000
0001
0000
1000
,
0001
1000
0001
0010
0000
1000
0000
0001
,
0100
0010
0001
0100
0000
1000
0000
0010
,
0100
1000
0001
0100
0000
0010
0000
0100
,
1001
0001
1001
0010
,
0010
0100
0001
0100
0010
0000
0100
0000
,
0101
0001
1100
0100
,
0001
0010
0100
1000
0001
0000
0010
0000
,
0010
0100
0001
1000
0000
1000
0000
0000
,
0100
0010
0100
1000
0000
1000
0000
0000
,
0001
1000
0100
1000
0000
1000
0000
0000
,
0001
0010
0100
0010
0000
1000
0000
0000
,
0110
0001
1100
0000
,
0000
0010
0001
1000
0001
0000
0000
0000
;

//--------------- dance-single - B. M'Rey ----------------
#NOTEDATA:;
#STEPSTYPE:dance-single;
#DESCRIPTION:B. M'Rey;
#CREDIT:B. M'Rey;
#DIFFICULTY:Hard;
#METER:12;
#RADARVALUES:0,0,0,0,0;
#NOTES:
0000
0000
0000
0000
,
0000
0000
0000
0000
,
0000
0000
0000
0000
,
0000
0000
0000
0000
,
0100
0000
1000
0001
0010
0000
1000
0100
,
0010
0000
1000
0001
0100
0000
0010
1000
,
0100
0000
0010
1000
0001
0000
1000
0100
,
0001
0000
0100
0010
0001
0000
0100
0000
,
0010
1000
0010
0000
0020
0000
0030
0000
,
0100
0010
0001
0000
0002
0000
0003
0000
,
0010
1000
0100
0000
0010
0000
0100
0000
,
0010
0001
1000
0000
0001
0000
0100
0000
,
0001
0010
0100
0000
0002
0000
0013
0000
,
0001
0010
0001
0000
0020
0000
0031
0000
,
0100
1000
0001
0100
,
0020
0100
0100
0100
,
0031
0010
0100
1000
0100
1000
0001
0010
,
0100
1000
0100
0010
0100
0010
0001
0010
,
0001
0100
0001
1000
0010
0100
0001
0010
,
0001
0010
0001
1000
0100
1000
0010
1000
,
0100
0010
0001
0100
0001
1000
0100
1000
,
0010
0100
0001
0100
0001
1000
0010
1000
,
0010
1000
0001
0010
0001
0010
0001
0100
,
0010
0100
0001
0100
0010
1000
0100
0010
,
0100
1000
0000
0100
0001
0100
0000
1000
0001
0000
0000
0100
0000
0000
0010
0000
,
0100
0000
0010
0000
0001
0000
0100
0000
0010
1000
0000
0000
0010
0000
1000
0000
,
0010
0100
0000
0001
0100
0010
0000
1000
0100
0000
0000
1000
0000
0000
1000
0000
,
0001
0000
1000
0000
0010
0000
0100
0000
0010
1000
0000
0000
0010
0000
0100
0000
,
0001
0000
0010
0001
0000
0100
1000
0000
0000
0000
1010
0000
0000
0000
1001
0000
,
0100
0000
0010
0001
0000
0010
0001
0000
0000
0000
0110
0000
0000
0000
1010
0000
,
0100
0000
1000
0010
0000
0100
0001
0000
0000
0000
1001
0000
0000
0000
0110
0000
,
0100
0000
0010
1000
0000
0010
1000
0000
0000
0000
0101
0000
0000
0000
0101
0000
,
0100
0010
0001
0100
0010
1000
0010
0100
,
0001
0100
0010
0100
0001
1000
0100
0000
,
0001
0100
0010
1000
0010
0100
0010
1000
,
0100
1000
0010
1000
0010
0100
0010
0000
,
0001
0100
0001
1000
0001
1000
0100
0000
,
0001
0010
0100
1000
0001
1000
0100
0000
,
0100
0010
0001
1000
0100
1000
0001
0000
,
0001
0010
0100
1000
0001
0010
0100
0010
,
0001
0010
0100
0000
0100
0010
0001
0000
0010
0100
1000
0000
0100
0000
1000
0001
,
0010
0100
0010
0100
0001
1000
0100
0010
,
0001
0010
0100
0000
0010
0001
1000
0000
0001
1000
0001
0000
0001
0000
0010
0000
,
0100
0000
0010
0000
0100
0000
1000
0000
0001
0000
1000
0001
0010
0000
0000
0000
,
0100
1000
0000
0100
0001
0100
0000
1000
0001
0000
0000
0100
0000
0000
0010
0000
,
0100
0000
0010
0000
0001
0000
0100
0000
0010
1000
0000
0000
0010
0000
1000
0000
,
0010
0100
0000
0001
0100
0010
0000
1000
0100
0000
0000
1000
0000
0000
1000
0000
,
0001
0000
1000
0000
0010
0000
0100
0000
0010
1000
0000
0000
0010
0000
0100
0000
,
0001
0000
0010
0001
0000
0100
1000
0000
0000
0000
1010
0000
0000
0000
1001
0000
,
0100
0000
0010
0001
0000
0010
0001
0000
0000
0000
0110
0000
0000
0000
1010
0000
,
0100
0000
1000
0010
0000
0100
0001
0000
0000
0000
1001
0000
0000
0000
0110
0000
,
0100
0000
0010
1000
0000
0010
1000
0000
0000
0000
0101
0000
0000
0000
0101
0000
,
0100
0001
1000
0100
,
0000
0001
0010
0100
1000
0000
0000
0000
,
0001
0010
0001
1000
0100
0010
0001
0100
,
0010
1000
0100
1000
0010
1000
0001
0010
,
0100
0010
0100
0010
0001
1000
0001
0010
,
0001
0100
0010
0100
0010
0100
0001
1000
,
0001
1000
0001
0100
0010
0100
0001
1000
,
0010
1000
0001
0010
0100
1000
0100
1000
,
0010
1000
0010
0100
0001
1000
0010
0100
,
0010
1000
0100
1000
0001
0010
0100
0010
,
0100
1000
0000
0100
0001
0100
0000
1000
0001
0000
0000
0100
0000
0000
0010
0000
,
0100
0000
0010
0000
0001
0000
0100
0000
0010
1000
0000
0000
0010
0000
1000
0000
,
0010
0100
0000
0001
0100
0010
0000
1000
0100
0000
0000
1000
0000
0000
1000
0000
,
0001
0000
1000
0000
0010
0000
0100
0000
0010
1000
0000
0000
0010
0000
0100
0000
,
0001
0000
0010
0001
0000
0100
1000
0000
1010
0000
0000
0000
1001
0000
0000
0000
,
0100
0000
0010
0001
0000
0010
0001
0000
0000
0000
0110
0000
0000
0000
1010
0000
,
0100
0000
1000
0010
0000
0100
0001
0000
0000
0000
1001
0000
0000
0000
0110
0000
,
0100
0000
0010
1000
0000
0010
1000
0000
0000
0000
0101
0000
0000
0000
0101
0000
,
0010
1000
0000
0010
0001
0010
0000
1000
0001
0000
0000
0010
0000
0000
0100
0000
,
0010
0000
0100
0000
0001
0000
0010
0000
0100
1000
0000
0000
0100
0000
1000
0000
,
0100
0010
0000
0001
0010
0100
0000
1000
0010
0000
0000
1000
0000
0000
1000
0000
,
0001
0000
1000
0000
0100
0000
0010
0000
0100
1000
0000
0000
0100
0000
0010
0000
,
0001
0000
0100
0001
0000
0010
1000
0000
0000
0000
1100
0000
0000
0000
1001
0000
,
0010
0000
0100
0001
0000
0100
0001
0000
0000
0000
0110
0000
0000
0000
1100
0000
,
0010
0000
1000
0100
0000
0010
0001
0000
0000
0000
1001
0000
0000
0000
0110
0000
,
0010
0000
0100
1000
0000
0100
1000
0000
0000
0000
0011
0000
0000
0000
0011
0000
,
0010
1000
0010
0000
,
0000
0001
0010
0100
1000
0000
0000
0000
;

//--------------- dance-single - B. M'Rey ----------------
#NOTEDATA:;
#STEPSTYPE:dance-single;
#DESCRIPTION:B. M'Rey;
#CREDIT:B. M'Rey;
#DIFFICULTY:Challenge;
#METER:13;
#RADARVALUES:0,0,0,0,0;
#NOTES:
0000
0000
0000
0000
,
0000
0000
0000
0000
,
0000
0000
0000
0000
,
0000
0000
0000
0000
,
0001
0010
0100
0000
0100
1000
0010
0000
0001
0000
0100
0000
0010
0000
0001
0000
,
0100
1000
0001
0000
0001
0010
0100
0000
0100
0000
0001
0000
0100
0000
0010
0000
,
0001
0010
0100
0000
0001
0010
0001
0000
0100
0000
0100
0000
0100
0000
0001
0000
,
0010
1000
0100
0000
0100
0010
0001
0000
0010
0000
0100
0000
0100
0000
0100
0000
,
0001
0000
0010
1000
0000
0100
0010
0000
0000
0000
1001
0000
0000
0000
1001
0000
,
0010
0000
0100
1000
0000
0010
0001
0000
0000
0000
0110
0000
0000
0000
0110
0000
,
0010
0100
0010
0000
0001
0010
0100
0000
0010
0000
0001
0000
0100
0000
0010
0000
,
0100
0010
0100
0000
0010
1000
0001
0000
0100
0000
0100
0000
0001
0000
0001
0000
,
0100
0000
0100
0010
0000
1000
0010
0000
0000
0000
0011
0000
0000
0000
0011
0000
,
0001
0000
0001
0010
0000
0010
0001
0000
0000
0000
0101
0000
0000
0000
0101
0000
,
0010
0100
0001
0000
0001
0010
0100
0000
0001
0000
0100
0000
0010
0000
0001
0000
,
1001
1001
0101
1010
1010
0110
0011
0011
,
0100
0000
0010
0000
0001
0000
0100
1000
0000
0010
0000
0010
0100
0000
1000
0000
,
0001
0000
1000
0000
0001
0000
0010
1000
0000
0010
0000
0100
0001
0000
0010
0000
,
0001
0000
0100
0000
0001
0000
0010
0100
0000
1000
0000
0010
0100
0000
0010
0000
,
0100
1000
0001
0000
0100
0010
0001
0000
,
0010
0000
0100
0000
0001
0000
0010
1000
0000
0010
0000
0010
0100
0000
1000
0000
,
0010
0000
0100
0000
0001
0000
0010
1000
0000
0010
0000
0100
0001
0000
0100
0000
,
0001
0000
0010
0000
0100
0000
0100
1000
0000
1000
0000
0010
0001
0000
1000
0000
,
0001
0100
0001
0000
0100
1000
0010
0000
,
0010
0001
0000
0010
1000
0010
0000
0001
1000
0000
0000
0010
0000
0000
0100
0000
,
0010
0000
0100
0000
1000
0000
0010
0000
0100
0001
0000
0000
0100
0000
0001
0000
,
0100
0010
0000
1000
0010
0100
0000
0001
0010
0000
0000
0001
0000
0000
0001
0000
,
1000
0000
0001
0000
0100
0000
0010
0000
0100
0001
0000
0000
0100
0000
0010
0000
,
1000
0000
0100
1000
0000
0010
0001
0000
0000
0000
0101
0000
0000
0000
1001
0000
,
0010
0000
0100
1000
0000
0100
1000
0000
0000
0000
0110
0000
0000
0000
0101
0000
,
0010
0000
0001
0100
0000
0010
1000
0000
0000
0000
1001
0000
0000
0000
0110
0000
,
0010
0000
0100
0001
0000
0100
0001
0000
0000
0000
1010
0000
0000
0000
1010
0000
,
0011
0000
0100
1000
0010
0000
0100
0000
0100
0000
0100
1000
0010
0000
0010
0000
,
0001
0000
0010
1000
0100
0000
0001
0100
0000
0100
0001
0000
0001
0000
0000
0000
,
0100
1000
0100
0010
0001
0000
0001
0010
0000
0010
0100
1000
0001
0000
0001
0000
,
0010
0000
0100
0010
0001
0000
0010
1000
0000
0100
0001
0010
0100
0000
0001
0000
,
0010
0000
0010
0100
0010
0000
0001
0000
0010
0000
0100
0010
0100
0000
0000
0000
,
0010
0000
0100
0010
0100
0000
0100
1000
0000
0100
0010
1000
0001
0000
0001
0000
,
0100
0000
0010
0100
0001
0000
0100
0000
0001
0000
0001
0010
0001
0000
0010
0000
,
0010
0100
0010
0100
0001
0010
0001
1000
0100
1000
0100
0010
0001
0000
0010
0000
,
0010
1000
0001
0100
0001
0100
0001
0010
0100
1000
0100
0010
0001
0000
1000
0010
,
0100
0000
0001
0100
0010
0000
1000
0000
0010
0000
0100
1000
0010
0000
0100
0000
,
0001
0100
0010
1000
0100
1000
0001
0010
0100
0010
0001
0000
1000
0010
0100
0001
,
0010
0000
0100
0000
1000
0000
0001
0000
0010
0000
0001
0010
0001
0000
0000
0000
,
0100
1000
0000
0100
0001
0100
0000
1000
0001
0000
0000
0100
0000
0000
0010
0000
,
0100
0000
0010
0000
0001
0000
0100
0000
0010
1000
0000
0000
0010
0000
1000
0000
,
0010
0100
0000
0001
0100
0010
0000
1000
0100
0000
0000
1000
0000
0000
1000
0000
,
0001
0000
1000
0000
0010
0000
0100
0000
0010
1000
0000
0000
0010
0000
0100
0000
,
0001
0000
0010
0001
0000
0100
1000
0000
0000
0000
1010
0000
0000
0000
1001
0000
,
0100
0000
0010
0001
0000
0010
0001
0000
0000
0000
0110
0000
0000
0000
1010
0000
,
0100
0000
1000
0010
0000
0100
0001
0000
0000
0000
1001
0000
0000
0000
0110
0000
,
0100
0000
0010
1000
0000
0010
1000
0000
0000
0000
0101
0000
0000
0000
0101
0000
,
0100
1000
0000
0100
0001
0100
0000
1000
0001
0000
0000
0100
0000
0000
0000
0000
,
0000
0000
0010
0000
0001
0000
0100
0000
0010
1000
0000
0000
0000
0000
0000
0000
,
0100
0000
0010
0000
0001
0000
0100
1000
0000
0010
0000
0010
0100
0000
1000
0000
,
0001
0000
1000
0000
0001
0000
0010
1000
0000
0010
0000
0100
0001
0000
0010
0000
,
0001
0000
0100
0000
0001
0000
0010
0100
0000
1000
0000
0010
0100
0000
0010
0000
,
0100
1000
0001
0000
0100
0010
0001
0000
,
0010
0000
0100
0000
0001
0000
0010
1000
0000
0010
0000
0010
0100
0000
1000
0000
,
0010
0000
0100
0000
0001
0000
0010
1000
0000
0010
0000
0100
0001
0000
0100
0000
,
0001
0000
0010
0000
0100
0000
0100
1000
0000
1000
0000
0010
0001
0000
1000
0000
,
0001
0100
0001
0000
0100
1000
0010
0000
,
0010
0001
0000
0010
1000
0010
0000
0001
1000
0000
0000
0010
0000
0000
0100
0000
,
0010
0000
0100
0000
1000
0000
0010
0000
0100
0001
0000
0000
0100
0000
0001
0000
,
0100
0010
0000
1000
0010
0100
0000
0001
0010
0000
0000
0001
0000
0000
0001
0000
,
1000
0000
0001
0000
0100
0000
0010
0000
0100
0001
0000
0000
0100
0000
0010
0000
,
1000
0000
0100
1000
0000
0010
0001
0000
0101
0000
0000
0000
1001
0000
0000
0000
,
0010
0000
0100
1000
0000
0100
1000
0000
0000
0000
0110
0000
0000
0000
0101
0000
,
0010
0000
0001
0100
0000
0010
1000
0000
0000
0000
1001
0000
0000
0000
0110
0000
,
0010
0000
0100
0001
0000
0100
0001
0000
0000
0000
1010
0000
0000
0000
1010
0000
,
0100
0001
0000
0100
1000
0100
0000
0001
1000
0000
0000
0100
0000
0000
0010
0000
,
0100
0000
0010
0000
1000
0000
0100
0000
0010
0001
0000
0000
0010
0000
0001
0000
,
0010
0100
0000
1000
0100
0010
0000
0001
0100
0000
0000
0001
0000
0000
0001
0000
,
1000
0000
0001
0000
0010
0000
0100
0000
0010
0001
0000
0000
0010
0000
0100
0000
,
1000
0000
0010
1000
0000
0100
0001
0000
0000
0000
0011
0000
0000
0000
1001
0000
,
0100
0000
0010
1000
0000
0010
1000
0000
0000
0000
0110
0000
0000
0000
0011
0000
,
0100
0000
0001
0010
0000
0100
1000
0000
0000
0000
1001
0000
0000
0000
0110
0000
,
0100
0000
0010
0001
0000
0010
0001
0000
0000
0000
1100
0000
0000
0000
1100
0000
,
0010
0001
0000
0010
1000
0010
0000
0001
1000
0000
0000
0010
0000
0000
0000
0000
,
0000
0000
0100
0000
1000
0000
0010
0000
0100
0001
0000
0000
0000
0000
0000
0000
;
