#TITLE:No Control;
#ARTIST:Manuel;
#GENRE:Eurobeat;
#CREDIT:B. M'Rey;
#MUSIC:No Control.ogg;
#BANNER:No Control-bn.png;
#BACKGROUND:No Control-bg.png;
#CDTITLE:./CDTITLES/Dancemania Presents Natsu Monogatari 2007.PNG;
#SAMPLESTART:38.925;
#SAMPLELENGTH:12;
#OFFSET:-0.097;
#BPMS:0=147.960;

//--------------- dance-single - B. M'Rey ----------------
#NOTES:
     dance-single:
     B. M'Rey:
     Beginner:
     1:
     0.135068,0.147074,0,0.042021,0,90,90,0,4,0,0,0.135068,0.147074,0,0.042021,0,90,90,0,4,0,0:
0000
0000
0000
0000
,
0000
0000
0000
0000
,
0000
0000
0000
0000
,
0000
0000
0000
0000
,
2000
0000
0000
0000
,
3001
0000
0100
0000
,
0020
0000
0000
0000
,
2030
0000
0000
0000
,
3001
0000
1000
0000
,
0010
0000
0100
0000
,
0001
0000
0010
0000
,
0001
0000
0100
0000
,
1000
0000
0010
0000
,
0100
0000
0001
0000
,
1000
0000
0010
0000
,
0100
0000
0001
0000
,
0010
0000
0100
0000
,
1000
0000
0001
0000
,
0010
0000
0100
0000
,
0001
0000
1000
0000
,
0001
0000
0010
0000
,
0100
0000
0010
0000
,
1000
0000
0001
0000
,
0010
0000
0000
0000
,
1000
0000
0001
0000
,
0010
0000
0001
0000
,
0100
0000
0010
0000
,
1000
0000
0100
0000
,
1000
0000
0001
0000
,
0010
0000
0001
0000
,
0100
0000
0010
0000
,
1000
0000
0010
0000
,
0100
0000
0001
0000
,
0010
0000
0001
0000
,
0100
0000
1000
0000
,
0100
0000
1000
0000
,
0010
0000
0100
0000
,
0001
0000
0010
0000
,
0100
0000
1000
0000
,
0100
0000
1000
0000
,
0010
0000
0000
0000
,
0010
0000
0100
0000
,
0001
0000
0000
0000
,
1000
0000
0100
0000
,
0001
0000
0000
0000
,
0010
0000
0100
0000
,
0001
0000
0000
0000
,
1000
0000
0000
0000
,
0100
0000
0000
0000
,
0010
0000
0100
0000
,
0001
0000
0000
0000
,
0001
0000
0100
0000
,
0010
0000
0000
0000
,
0100
0000
1000
0000
,
0010
0000
0000
0000
,
0200
0000
0000
0000
,
0300
0000
0000
0000
;

//--------------- dance-single - B. M'Rey ----------------
#NOTES:
     dance-single:
     B. M'Rey:
     Easy:
     4:
     0.286645,0.382393,0.189095,0.021011,0,191,173,18,2,0,0,0.286645,0.382393,0.189095,0.021011,0,191,173,18,2,0,0:
0000
0000
0000
0000
,
0000
0000
0000
0000
,
0000
0000
0000
0000
,
0000
0000
0000
0000
,
1000
0000
0001
0000
,
1000
0100
0010
0001
,
0010
0000
0100
0000
,
0001
0010
0000
0000
,
0100
1000
0001
0010
,
0001
0010
0100
0010
,
1000
0000
0000
0000
,
0001
0000
0000
0000
,
0100
0010
1000
0100
,
0001
0010
0100
1000
,
0100
0010
0110
0110
,
0001
1000
0001
1000
,
0001
1000
0001
0100
,
0010
0100
0010
0100
,
0001
0010
0100
1000
,
0100
0010
0001
0010
,
0100
1000
0010
0100
,
0001
0010
0100
0001
,
1000
0010
0100
0002
,
0000
0000
0000
0000
0000
0003
0000
0000
,
1000
0001
0010
0100
,
0110
0110
0110
0110
,
1000
0010
0001
0010
,
0100
0010
1000
0100
,
0001
1000
0010
0100
,
1001
1001
1001
1001
,
0001
0010
0100
0001
,
1000
0100
0010
0001
,
1000
0001
0010
0100
,
0110
0110
0110
0110
,
1000
0010
0001
0010
,
0100
0010
1000
0100
,
0001
1000
0010
0100
,
1001
1001
1001
1001
,
0001
0010
0100
0001
,
1000
0100
0010
0001
,
1000
0000
0001
0000
,
1000
0100
0010
0001
,
0010
0000
0100
0000
,
0001
0010
0100
1000
,
1000
0000
0001
0000
,
1000
0100
0010
0001
,
0010
0000
0100
0000
,
0001
0010
0100
0000
,
1000
0000
0001
0000
,
1000
0100
0010
0001
,
0010
0000
0100
0000
,
0001
0010
0100
1000
,
1000
0000
0001
0000
,
1000
0100
0010
0001
,
0010
0000
0100
0000
,
0001
0020
0000
0000
,
0030
0000
0000
0000
;

//--------------- dance-single - B. M'Rey ----------------
#NOTES:
     dance-single:
     B. M'Rey:
     Medium:
     7:
     0.426215,0.500053,0.241622,0.084042,0.015758,284,261,23,8,0,0,0.426215,0.500053,0.241622,0.084042,0.015758,284,261,23,8,0,0:
0000
0000
0000
0000
,
0000
0000
0000
0000
,
0000
0000
0000
0000
,
0000
0000
0000
0000
,
1000
0001
0010
0100
,
1000
0100
1000
0100
1000
0100
1000
0100
,
1000
0100
0001
0010
,
0110
0000
0000
1001
0000
0000
0011
0000
0000
0000
0000
0000
0000
0000
0000
0000
,
1000
0001
0010
0100
,
1000
0100
0010
0000
0001
0000
0010
2000
,
0000
0000
0000
3002
0000
0000
0000
0203
,
0000
0000
0000
0310
0000
0001
1000
0000
,
0100
0001
0010
1000
,
0100
0001
0010
0100
1000
0100
0000
0010
,
0100
0000
1000
0000
0001
1000
0000
0000
,
0100
0010
0100
0010
0000
0010
0100
0010
,
0000
1000
0100
1000
0000
0001
0010
0001
,
0000
0100
0010
0100
0000
1000
0001
2000
,
0000
0000
0000
3010
0001
0010
0100
1000
,
0000
1000
0000
0100
0000
0000
0000
0000
,
0001
0000
0000
1000
0000
0100
0000
0010
,
0001
0000
0100
0010
0000
1000
0100
0001
,
0010
0000
0000
0100
0000
0000
0000
1000
,
0000
0000
0000
0001
0000
0000
0000
0000
,
1000
0100
0010
0000
0001
0010
0100
0000
,
1000
0001
1000
0001
1000
0001
1000
0000
,
1000
0100
0010
0000
0001
0000
0200
0000
,
0000
0000
0000
0000
0000
0310
0001
0010
,
0100
1000
0100
0000
0010
0100
0010
0000
,
1001
1001
1001
1001
,
0001
0010
0100
0010
1000
0100
0001
0010
,
0100
1001
0101
0011
,
1000
0100
0010
0000
0001
0010
0100
0000
,
1000
0001
1000
0001
1000
0001
1000
0000
,
1000
0100
0010
0000
0001
0000
0200
0000
,
0000
0000
0000
0000
0000
0310
0001
0010
,
0100
1000
0100
0000
0010
0100
0010
0000
,
1001
1001
1001
1001
,
0001
0010
0100
0010
1000
0100
0001
0010
,
0100
1001
0101
0011
,
1000
0001
0010
0100
,
1000
0100
1000
0100
1000
0100
1000
0100
,
1000
0100
0001
0010
,
0100
0010
1000
0001
0010
0100
0010
0001
,
0100
0010
1000
0001
,
0100
0001
0100
0001
0100
0001
0100
0001
,
0100
0001
0010
1000
,
1001
0000
0000
0110
0000
0000
1010
0000
0000
0000
0000
0000
0000
0000
0000
0000
,
1000
0001
0010
0100
,
1000
0100
1000
0100
1000
0100
1000
0100
,
1000
0100
0001
0010
,
0100
0010
1000
0001
0010
0100
0010
0001
,
0100
0010
1000
0001
,
0100
0001
0100
0001
0100
0001
0100
0001
,
0100
0001
0010
1000
,
1001
0000
0000
0110
0000
0000
2002
0000
0000
0000
0000
0000
0000
0000
0000
0000
,
3003
0000
0000
0000
;

//--------------- dance-single - B. M'Rey ----------------
#NOTES:
     dance-single:
     B. M'Rey:
     Hard:
     9:
     0.588297,0.73373,0.094548,0.105053,0.330917,392,383,9,10,0,0,0.588297,0.73373,0.094548,0.105053,0.330917,392,383,9,10,0,0:
0000
0000
0000
0000
,
0000
0000
0000
0000
,
0000
0000
0000
0000
,
0000
0000
0000
0000
,
1000
0010
0001
0010
0100
0010
1000
0100
,
0001
1000
0001
1000
0001
1000
0001
1000
0001
0000
0010
0000
0100
0000
1000
0000
,
0010
0000
0000
0001
0000
0000
1000
0000
0000
0100
0000
0001
0010
0000
0100
0000
,
1001
0000
0000
1001
0000
0000
1001
0000
0000
0000
0000
0000
0000
0000
0000
0000
,
1000
0010
0001
0100
0010
1000
0100
1000
,
0010
0001
0010
0100
0010
1000
0100
0002
,
0000
0000
0000
0203
0000
0000
0000
2300
,
0000
0000
0000
3002
0000
2003
3200
0000
,
0301
0010
0001
0100
0010
1000
0100
0010
,
0001
0010
0100
0010
1000
0100
0001
0010
,
0100
0000
0000
0000
1000
0000
0000
0000
0001
1000
0001
0000
0000
0000
0000
0000
,
0100
0001
0100
0001
0000
1000
0100
0010
,
0000
0001
0010
0100
0000
1000
0100
0010
,
0000
0001
0010
0100
0000
1000
0100
0020
,
0000
0000
0000
0030
0001
0010
0001
1000
,
0000
0001
0000
0010
0000
0100
1000
0000
,
0100
0000
0000
0001
0000
1000
0000
0100
,
0001
0000
0010
0100
0000
1000
0000
0200
,
0000
0000
0000
0302
0000
0000
0000
2003
,
0000
0000
0000
3001
0000
1000
0100
0001
,
0010
0000
1000
0000
0100
0000
0010
0001
0010
0000
0100
1000
0100
0000
0001
0000
,
1000
0100
1000
0100
1000
0100
1000
0100
0010
0001
0010
0001
0010
0000
1000
0000
,
0001
1000
0010
0100
0001
0010
0100
1000
,
0100
0000
0001
0000
1000
0010
0100
0001
,
0010
1000
0100
0000
0001
0100
1000
0000
,
0100
0000
0100
0001
0100
0000
0100
0000
1000
0000
0010
0100
0010
0000
0000
0000
,
0001
1000
0100
0010
1000
0001
0010
0100
,
1000
0100
1001
0000
1100
0000
0011
0000
,
0010
0000
1000
0000
0100
0000
0010
0001
0010
0000
0100
1000
0100
0000
0001
0000
,
1000
0100
1000
0100
1000
0100
1000
0100
0010
0001
0010
0001
0010
0000
1000
0000
,
0001
1000
0010
0100
0001
0010
0100
1000
,
0100
0000
0001
0000
1000
0010
0100
0001
,
0010
1000
0100
0000
0001
0100
1000
0000
,
0100
0010
0100
0000
0001
0000
0100
0000
1000
0000
0010
0100
0010
0000
0000
0000
,
0001
1000
0100
0010
1000
0001
0010
0100
,
1000
0100
0001
0010
1001
0000
0110
0000
,
1100
0010
0001
0010
0100
0010
1000
0100
,
0001
1000
0001
1000
0001
1000
0001
1000
0001
0000
0010
0000
0100
0000
1000
0000
,
0010
0000
0000
0001
0000
0000
1000
0000
0000
0100
0000
0001
0010
0000
0100
0000
,
1000
0000
0100
0000
0010
0000
0001
0000
0010
0000
0000
0100
0000
0000
1000
0000
,
0010
0001
0100
0001
1000
0001
0010
1000
,
0100
0010
0100
0010
0100
0010
0100
0010
0100
0000
0001
0000
1000
0000
0010
0000
,
0001
0000
0000
0100
0000
0000
0010
0000
0000
1000
0000
0100
0001
0000
1000
0000
,
0110
0000
0000
0110
0000
0000
0110
0000
0000
0000
0010
0100
0010
0000
0010
0000
,
1000
0010
0001
0010
0100
0010
1000
0100
,
0001
1000
0001
1000
0001
1000
0001
1000
0001
0000
0010
0000
0100
0000
1000
0000
,
0010
0000
0000
0001
0000
0000
1000
0000
0000
0100
0000
0001
0010
0000
0100
0000
,
1000
0000
0100
0000
0010
0000
0001
0000
0010
0000
0000
0100
0000
0000
1000
0000
,
0010
0001
0100
0001
1000
0001
0010
1000
,
0100
0010
0100
0010
0100
0010
0100
0010
0100
0000
0001
0000
1000
0000
0010
0000
,
0001
0000
0000
0100
0000
0000
0010
0000
0000
1000
0000
0100
0001
0000
1000
0000
,
0110
0000
0000
0110
0000
0000
0110
0000
0000
0000
0010
0100
0010
0000
0100
0000
;
