#VERSION:0.83;
#TITLE:Nirvana;
#ARTIST:Viva;
#GENRE:Eurodance;
#CREDIT:B. M'Rey;
#MUSIC:Nirvana.ogg;
#BANNER:Nirvana-bn.png;
#BACKGROUND:Nirvana-bg.png;
#CDTITLE:./CDTITLES/BMR Superstars.PNG;
#SAMPLESTART:40.944;
#SAMPLELENGTH:15;
#OFFSET:-0.194;
#BPMS:0=142.803;

//--------------- dance-single - B. M'Rey ----------------
#NOTEDATA:;
#STEPSTYPE:dance-single;
#DESCRIPTION:B. M'Rey;
#CREDIT:B. M'Rey;
#DIFFICULTY:Beginner;
#METER:2;
#RADARVALUES:0.076379,0.087216,0,0,0,80,80,0,0,0,0,0.076379,0.087216,0,0,0,80,80,0,0,0,0;
#NOTES:
0000
0000
0000
0000
,
0000
0000
0000
0000
,
0000
0000
0000
0000
,
0000
0000
0000
0000
,
0000
0000
0000
0000
,
0000
0000
0000
0000
,
0000
0000
0000
0000
,
0000
0000
0000
0000
,
1000
0000
0000
0000
,
0001
0000
0000
0000
,
1000
0000
0000
0000
,
0100
0000
0000
0000
,
0001
0000
0000
0000
,
0100
0000
0000
0000
,
0010
0000
0000
0000
,
0001
0000
0000
0000
,
1000
0000
0000
0000
,
0001
0000
0000
0000
,
0010
0000
0000
0000
,
0100
0000
0000
0000
,
0001
0000
0000
0000
,
1000
0000
0000
0000
,
0010
0000
0000
0000
,
0100
0000
0000
0000
,
0001
0000
0000
0000
,
1000
0000
0000
0000
,
0100
0000
0000
0000
,
1000
0000
0000
0000
,
0001
0000
0000
0000
,
0100
0000
0000
0000
,
0010
0000
0000
0000
,
0001
0000
0000
0000
,
1000
0000
0000
0000
,
0100
0000
0000
0000
,
1000
0000
0000
0000
,
0010
0000
0000
0000
,
0100
0000
0000
0000
,
0001
0000
0000
0000
,
0010
0000
0000
0000
,
0001
0000
0000
0000
,
1000
0000
0000
0000
,
0010
0000
0000
0000
,
0100
0000
0000
0000
,
0001
0000
0000
0000
,
0010
0000
0000
0000
,
0001
0000
0000
0000
,
1000
0000
0000
0000
,
0100
0000
0000
0000
,
1000
0000
0000
0000
,
0010
0000
0000
0000
,
0100
0000
0000
0000
,
0001
0000
0000
0000
,
0100
0000
0000
0000
,
0010
0000
0000
0000
,
0001
0000
0000
0000
,
1000
0000
0000
0000
,
0100
0000
0000
0000
,
1000
0000
0000
0000
,
0001
0000
0000
0000
,
0100
0000
0000
0000
,
0010
0000
0000
0000
,
1000
0000
0000
0000
,
0001
0000
0000
0000
,
0100
0000
0000
0000
,
0010
0000
0000
0000
,
0001
0000
0000
0000
,
1000
0000
0000
0000
,
0100
0000
0000
0000
,
0001
0000
0000
0000
,
0010
0000
0000
0000
,
0001
0000
0000
0000
,
1000
0000
0000
0000
,
0100
0000
0000
0000
,
1000
0000
0000
0000
,
0010
0000
0000
0000
,
0100
0000
0000
0000
,
0001
0000
0000
0000
,
0010
0000
0000
0000
,
0001
0000
0000
0000
,
1000
0000
0000
0000
,
0010
0000
0000
0000
,
0100
0000
0000
0000
,
0001
0000
0000
0000
,
1000
0000
0000
0000
,
0010
0000
0000
0000
,
0100
0000
0000
0000
,
0001
0000
0000
0000
,
1000
0000
0000
0000
;

//--------------- dance-single - B. M'Rey ----------------
#NOTEDATA:;
#STEPSTYPE:dance-single;
#DESCRIPTION:B. M'Rey;
#CREDIT:B. M'Rey;
#DIFFICULTY:Easy;
#METER:6;
#RADARVALUES:0.145121,0.174431,0.006683,0.053466,0,152,151,1,8,0,0,0.145121,0.174431,0.006683,0.053466,0,152,151,1,8,0,0;
#NOTES:
0000
0000
0000
0000
,
0000
0000
0000
0000
,
0000
0000
0000
0000
,
0000
0000
0000
0000
,
0000
0000
0000
0000
,
0000
0000
0000
0000
,
0000
0000
0000
0000
,
0000
0000
0000
0000
,
0000
0010
0100
0001
,
0100
0001
1000
0010
,
1000
0001
1000
0010
,
0100
0001
1000
0100
,
0010
0100
0010
0001
,
0100
0010
1000
0001
,
0100
0010
1000
0010
,
0100
0002
0000
0000
,
0000
0003
1000
0100
,
0000
0010
0000
0001
,
1000
0100
0000
0010
,
0000
0001
0000
0010
,
0000
0110
0100
0001
,
0000
0010
1000
0010
,
0100
0000
0100
0001
,
0010
0000
0100
0000
,
1000
0100
1000
0001
,
0010
0001
0010
0100
,
1000
0001
1000
0100
,
0010
0001
0010
0100
,
1000
0100
1000
0001
,
0100
0001
0010
0100
,
1000
0100
0010
0100
,
0010
0002
0000
0000
,
0000
1003
0010
0100
,
0000
0100
0010
0001
,
0000
0001
0010
0100
,
0010
0100
0000
0001
,
0000
0001
1000
0010
,
0000
0001
0100
0010
,
0000
0100
1000
0001
,
0000
0100
0010
0100
,
0000
0002
0000
0000
,
0103
0000
0020
0000
0000
0000
0000
0031
,
0000
0000
0200
0000
0000
0000
0000
0301
,
0000
0200
0000
1300
,
0010
0002
0000
0000
,
0003
0000
0020
0000
0000
0000
0000
1030
,
0000
0000
0001
0000
0000
0010
0000
0000
,
0100
0020
0000
0000
,
0000
0031
1000
0010
,
0000
0001
1000
0100
,
0000
0100
1000
0010
,
0100
0001
0000
0001
,
0000
0100
0010
0100
,
0000
0001
0010
0100
,
0000
0001
0010
0100
,
0000
0100
0010
0100
,
0000
0002
0000
0000
,
0000
0023
0000
0000
,
0000
0230
0000
0000
,
0000
2300
0000
0000
,
0000
3002
0000
0000
,
0000
0203
0000
0000
,
0000
0320
0000
0000
,
0000
2030
0000
0000
,
0000
3010
0100
0001
,
0000
0001
0100
0010
,
0000
0001
0100
0010
,
0000
0010
0100
0001
,
0000
0010
0100
0001
,
0000
0010
0100
0001
,
0000
0100
1000
0100
,
0000
0100
0010
0001
,
0000
0100
1000
0001
,
0010
0001
0010
0100
,
1000
0001
1000
0100
,
0010
0001
0010
0100
,
1000
0100
1000
0001
,
0100
0001
0010
0100
,
1000
0100
0010
0100
,
0010
0002
0000
0000
,
0000
1003
1000
0001
,
0010
0100
0010
0100
,
0010
0001
0100
0001
,
1000
0100
0010
0100
,
0010
0001
0010
0100
,
1000
0001
0100
0010
,
0100
0001
1000
0010
,
1000
0020
0000
0000
,
0000
0030
0000
0000
;

//--------------- dance-single - B. M'Rey ----------------
#NOTEDATA:;
#STEPSTYPE:dance-single;
#DESCRIPTION:B. M'Rey;
#CREDIT:B. M'Rey;
#DIFFICULTY:Medium;
#METER:9;
#RADARVALUES:0.271147,0.382279,0.046782,0.220545,0,284,277,7,33,0,0,0.271147,0.382279,0.046782,0.220545,0,284,277,7,33,0,0;
#NOTES:
0000
0000
0000
0000
,
0000
0000
0000
0000
,
0000
0000
0000
0000
,
0000
0000
0000
0000
,
0000
0000
0000
0000
,
0000
0000
0000
0000
,
0000
0000
0000
0000
,
0000
2002
0000
0000
,
3003
1000
0010
0100
,
0001
0100
0010
0000
1000
0000
0010
0000
,
0010
0100
1000
0000
0001
0000
0010
0000
,
0100
0010
1000
0000
0010
0000
0100
0000
,
1000
0001
0010
0000
0001
0000
1000
0000
,
0010
1000
0001
0000
0100
0000
0010
0000
,
1000
0010
0100
0000
0001
0000
0010
0000
,
1000
0100
0002
0000
0000
0000
0000
0000
,
0000
1003
0001
0100
,
1000
0001
0010
0100
,
0110
0110
0001
1000
,
0100
0001
0001
0100
,
0001
0110
1000
1000
,
0010
0001
1000
0100
,
0001
0110
0110
0000
1000
0000
0001
0000
,
0010
1000
0001
0010
,
1000
0000
0100
0010
0001
0000
1000
0100
,
0010
0100
0001
0010
,
0001
0010
1000
0000
0010
1000
0100
0000
,
0001
0010
1000
0000
0010
1000
0100
0000
,
0001
0000
0010
1000
0001
0000
1000
0000
,
0100
0001
1000
0000
0001
0000
0010
1000
,
0001
0000
0100
0001
0010
0000
1000
0100
,
0010
0110
0001
1000
,
0010
0000
1000
0001
0010
0100
0001
0000
,
0010
0000
1000
0001
0010
0100
0010
0000
,
0001
0000
0010
1000
0001
0010
0100
0001
,
0100
2000
0000
0000
0001
3000
0000
0000
,
0010
0000
1000
0001
0010
0100
0001
0000
,
0010
0000
0100
1000
0010
0100
0010
0000
,
1000
0000
0001
0010
0001
0100
1000
0000
,
0001
0000
2000
0000
0000
0000
0000
3000
,
0000
0020
0001
0001
,
2030
0000
3200
0000
0010
0000
0000
0301
,
0010
0001
2000
0000
0010
0000
3010
0100
,
0010
0002
0010
2013
,
3002
0203
0010
0010
,
2300
0000
3002
0000
0010
0000
0010
0203
,
0000
0000
0320
0000
0000
2030
0000
0000
,
3002
0203
0000
0000
,
0000
0000
0301
0010
0100
0001
1000
0000
,
0001
0000
0100
0001
0010
1000
0100
0000
,
0100
0000
0001
0010
0001
0100
1000
0001
,
0010
0100
0001
1000
0010
0000
0100
0000
,
1000
0000
0100
0001
0010
0001
0100
0000
,
0001
0000
0010
1000
0010
0100
0010
0000
,
0001
0000
0010
1000
0001
0010
0100
0000
,
0001
2000
0000
0000
,
0000
3020
0000
0000
,
0000
0032
0000
0000
,
0000
0203
0000
0000
,
0000
0302
0000
0000
,
0000
2003
0000
0000
,
0000
3020
0000
0000
,
0000
0230
0000
0000
,
0000
0302
0000
0000
,
0000
1003
0001
0010
,
0100
0001
0100
1000
,
0010
0100
0001
0100
,
0010
0001
1000
0100
,
0010
0000
0100
0001
1000
0000
0100
0001
,
0010
0000
0001
1000
0100
0000
0010
0001
,
0100
0000
1000
0010
0100
0000
1000
0010
,
0001
0000
0010
1000
0100
0000
0010
1000
,
0001
0010
0100
0000
0100
0010
0001
0000
,
1000
0100
0010
0000
0100
0000
0001
0000
,
0010
0000
0001
0010
1000
0000
0010
1000
,
0100
0000
0001
0010
1000
0000
0010
1000
,
0100
0000
0001
0000
0010
1000
0001
0000
,
1000
0000
0100
0001
1000
0000
0001
0000
,
0010
1000
0001
0000
0100
0001
0010
0000
,
1000
0100
0010
0000
0100
0010
0001
0000
,
1000
0010
1000
0010
,
0100
1000
0001
0000
0100
0000
0010
0000
,
1000
0010
0100
0000
0001
0000
0100
0000
,
0010
1000
0100
0000
1000
0000
0010
0000
,
0001
0010
0100
0000
0001
0000
0100
0000
,
1000
0010
0100
0000
1000
0000
0010
0000
,
0010
0100
0001
0000
0100
0000
0001
0000
,
1000
0010
0220
0000
0000
0000
0000
0000
,
0000
0330
0000
0000
;

//--------------- dance-single - B. M'Rey ----------------
#NOTEDATA:;
#STEPSTYPE:dance-single;
#DESCRIPTION:B. M'Rey;
#CREDIT:B. M'Rey;
#DIFFICULTY:Hard;
#METER:12;
#RADARVALUES:0.496466,0.764603,0.421041,0.374259,0.10359,520,457,63,56,0,0,0.496466,0.764603,0.421041,0.374259,0.10359,520,457,63,56,0,0;
#NOTES:
0000
0000
0000
0000
,
0000
0000
0000
0000
,
0000
0000
0000
0000
,
0000
0000
0000
0000
,
0000
0000
0000
0000
,
0000
0000
0000
0000
,
0000
0000
0000
0000
,
0000
1010
1010
1010
,
2020
3030
0000
0000
0000
0000
0000
0000
0000
0000
0000
0000
0000
0000
0000
0000
0000
0000
0000
0000
0000
0000
0000
0000
0000
0000
0000
0000
0000
0000
0000
0000
0000
0000
0000
0000
0000
0000
0000
0000
0000
0000
0000
0000
0000
0000
0000
0000
0001
0000
0000
0000
0000
0000
0000
0000
0000
0000
0000
0000
0010
0000
0000
0000
0000
0000
0000
0000
0000
0000
0000
0000
0000
0000
0000
0000
0000
0000
0000
0000
0000
0000
0000
0000
0100
0000
0000
0000
0000
0000
0000
0000
0000
0000
0000
0000
0000
0000
0000
0000
0000
0000
0000
0000
0000
0000
0000
0000
0000
0000
0000
0000
0000
0000
0000
0000
0000
0000
0000
0000
1000
0000
0000
0000
0000
0000
0000
0000
0000
0000
0000
0000
0000
0000
0000
0000
0000
0000
0000
0000
0000
0000
0000
0000
0010
0000
0000
0000
0000
0000
0000
0000
0000
0000
0000
0000
0000
0000
0000
0000
0000
0000
0000
0000
0000
0000
0000
0000
0100
0000
0000
0000
0000
0000
0000
0000
0000
0000
0000
0000
0000
0000
0000
0000
0000
0000
0000
0000
0000
0000
0000
0000
,
0001
0000
1000
0000
0010
0001
0000
0100
0000
0000
0010
0000
0001
0000
1000
0000
,
0010
0000
0100
0000
1000
0100
0000
0001
0000
0000
0100
0000
0010
0000
1000
0000
,
0100
0000
0001
0000
0100
0010
0000
1000
0000
0000
0010
0000
0100
0000
1000
0000
,
0010
0000
0100
0000
0001
0010
0000
0100
0000
0000
0001
0000
0010
0000
0001
0000
,
1000
0000
0010
0000
1000
0100
0000
0010
0000
0000
0100
0000
0001
0000
0010
0000
,
1000
0000
0100
0000
0001
0010
0000
0100
0000
0000
0001
0000
0010
0000
0001
0000
,
0100
0000
0010
0000
1000
0001
0000
0100
0000
0000
0010
0000
0001
0000
1000
0000
,
0010
0001
0110
0000
0002
0000
2003
0000
,
3010
0100
0000
0001
0010
1000
0000
0100
,
0010
2000
0000
0000
3001
0000
0100
0000
,
0010
0100
1000
0001
0020
0000
0000
0000
,
0030
0000
1000
0001
0010
0200
0000
2300
,
0000
0000
0000
0000
3010
0100
0001
0010
,
1000
0000
0000
0010
0100
0001
0010
1000
,
0100
0010
0001
0010
1000
0100
1000
0010
,
1000
0000
0100
0001
0010
0000
0000
0000
0002
0000
0000
0000
2003
0000
0000
0000
,
3010
0100
1000
0001
0010
1000
0000
0100
,
0010
2000
0000
0000
3001
0000
0100
0000
,
0010
0100
1000
0001
0020
0000
0000
0000
,
0030
0000
1000
0001
0010
0200
0000
2300
,
0000
0000
0000
0000
3010
0100
0001
0010
,
1000
0000
0000
0010
0100
0001
0010
1000
,
0100
0010
4004
0000
0000
0000
0000
0000
,
0000
0000
3003
0010
0100
0001
0100
1001
,
1001
1001
1001
0010
0100
0001
0010
0110
,
0110
0110
0110
0001
1000
0100
1000
0010
,
0100
0001
1001
0110
0000
1000
0000
0011
,
0110
1100
0101
0010
1000
0100
0001
0110
,
1010
0101
0110
1000
0100
1000
0010
1001
,
0101
1010
0001
0010
0100
0001
0100
1010
,
0110
0000
0101
0000
0010
0000
0010
1000
0010
0000
0001
0000
0100
0000
0110
0000
,
0110
0110
0120
0000
0000
0000
0000
0000
,
2030
0000
3002
0000
0000
0000
0000
0023
,
0000
0230
0000
0000
2300
0000
0000
0000
0000
0000
0000
0000
0000
0000
3002
0000
,
0000
0023
0000
0000
0032
0000
0000
0000
0000
0000
0000
0000
0203
0000
0000
0000
,
2300
3020
0000
0000
,
0230
0000
0302
0000
0000
0000
0000
2003
,
0000
3020
0000
0000
0230
0000
0000
0302
0000
0000
0203
0000
0000
0000
0000
0000
,
2300
3002
0000
0000
,
0000
0000
1003
0010
0100
0001
0100
1001
,
1001
1001
1001
0010
0100
0001
0010
0110
,
0110
0110
0110
0001
1000
0100
1000
0010
,
0100
0001
1001
0110
0000
1000
0000
0011
,
0110
1100
0101
0010
1000
0100
0001
0110
,
1010
0101
0110
1000
0100
1000
0010
1001
,
0101
1010
0001
0010
0100
0001
0100
1010
,
0110
0000
0101
0000
0010
0000
0010
1000
0010
0000
0001
0000
0100
0000
0000
0000
,
0001
0100
0000
2000
0000
0000
0000
0000
,
3100
0001
0000
2000
0000
0000
0000
0000
,
0010
3001
0000
0200
0000
0000
0000
0000
,
0310
0100
0000
0002
0000
0000
0000
0000
,
0103
1000
0000
0002
0000
0000
0000
0000
,
0103
0010
0000
2000
0000
0000
0000
0000
,
3001
0010
0000
2000
0000
0000
0000
0000
,
3010
0400
0000
0000
0000
0000
0000
0000
,
0000
0302
0000
0000
0100
0000
2003
0000
,
3010
0100
0000
0001
0010
1000
0000
0100
,
0010
2000
0000
0000
3001
0000
0100
0000
,
0010
0100
1000
0001
0020
0000
0000
0000
,
0030
0000
1000
0001
0010
0200
0000
2300
,
0000
0000
0000
0000
3010
0100
0001
0010
,
1000
0000
0000
0010
0100
0001
0010
1000
,
0100
0010
0001
0010
1000
0100
1000
0010
,
1000
0000
0100
0001
0010
0000
0000
0000
0002
0000
0000
0000
2003
0000
0000
0000
,
3010
0100
1000
0001
0010
1000
0000
0100
,
0010
2000
0000
0000
3001
0000
0100
0000
,
0010
0100
1000
0001
0020
0000
0000
0000
,
0030
0000
1000
0001
0010
0200
0000
2300
,
0000
0000
0000
0000
3010
0100
0001
0010
,
1000
0000
0000
0010
0100
0001
0010
1000
,
0100
0010
0100
1000
0100
0010
0001
0100
,
0010
0000
1000
0000
0001
0000
0000
0100
0000
0000
1000
0000
0010
0000
0100
0000
,
0001
0000
1000
0000
0010
0000
0000
0100
0000
0000
0010
0000
0001
0000
1000
0000
,
0010
0000
0100
0000
1000
0000
0000
0001
0000
0000
0100
0000
0010
0000
1000
0000
,
0100
0000
0001
0000
0100
0000
0000
1000
0000
0000
0010
0000
0100
0000
1000
0000
,
0010
0000
0100
0000
0001
0000
0000
0100
0000
0000
0001
0000
0010
0000
0001
0000
,
1000
0000
0010
0000
1000
0000
0000
0010
0000
0000
0100
0000
0001
0000
0010
0000
,
1000
0000
0100
0000
0001
0000
0000
0100
0000
0000
0001
0000
0010
0000
0001
0000
,
0100
0010
1001
0000
1001
0000
1001
0000
,
1001
0000
0000
0000
0000
0000
0000
0000
0000
0000
0000
0000
0000
0000
0000
0000
0000
0000
0000
0000
0000
0000
0000
0000
0000
0000
0000
0000
0000
0000
0000
0000
0000
0000
0000
0000
0000
0000
0000
0000
0000
0000
0000
0000
0000
0000
0000
0000
0220
0330
0000
0000
0000
0000
0000
0000
0000
0000
0000
0000
0000
0000
0000
0000
0000
0000
0000
0000
0000
0000
0000
0000
0000
0000
0000
0000
0000
0000
0000
0000
0000
0000
0000
0000
0000
0000
0000
0000
0000
0000
0000
0000
0000
0000
0000
0000
0000
0000
0000
0000
0000
0000
0000
0000
0000
0000
0000
0000
0000
0000
0000
0000
0000
0000
0000
0000
0000
0000
0000
0000
0000
0000
0000
0000
0000
0000
0000
0000
0000
0000
0000
0000
0000
0000
0000
0000
0000
0000
0000
0000
0000
0000
0000
0000
0000
0000
0000
0000
0000
0000
0000
0000
0000
0000
0000
0000
0000
0000
0000
0000
0000
0000
0000
0000
0000
0000
0000
0000
0000
0000
0000
0000
0000
0000
0000
0000
0000
0000
0000
0000
0000
0000
0000
0000
0000
0000
0000
0000
0000
0000
0000
0000
;
