#TITLE:Never Gonna Make;
#SUBTITLE:(Factory Team Dance Mix);
#ARTIST:Morgana;
#GENRE:Eurodance;
#CREDIT:B. M'Rey;
#MUSIC:Never Gonna Make (Factory Team Dance Mix).ogg;
#BANNER:Never Gonna Make (Factory Team Dance Mix)-bn.png;
#BACKGROUND:Never Gonna Make (Factory Team Dance Mix)-bg.png;
#CDTITLE:./CDTITLES/DANCEMANIA Delux 5.PNG;
#SAMPLESTART:42.398;
#SAMPLELENGTH:12;
#OFFSET:-0.073;
#BPMS:0=136;

//--------------- dance-single - B. M'Rey ----------------
#NOTES:
     dance-single:
     B. M'Rey:
     Beginner:
     1:
     0,0,0,0,0:
0000
0000
0000
0000
,
0000
0000
0000
0000
,
0000
0000
0000
0000
,
0000
0000
0000
0000
,
1000
0000
0010
0000
,
0100
0000
0001
0000
,
0010
0000
0001
0000
,
0100
0000
0000
0000
,
0001
0000
1000
0000
,
0010
0000
0000
0000
,
0100
0000
0010
0000
,
0001
0000
0000
0000
,
1000
0000
0010
0000
,
0100
0000
0000
0000
,
0001
0000
1000
0000
,
0010
0000
0000
0000
,
0100
0000
0001
0000
,
1000
0000
0000
0000
,
0010
0000
0100
0000
,
0010
0000
0000
0000
,
0001
0000
1000
0000
,
0010
0000
0000
0000
,
0110
0000
0000
0000
,
0101
0000
0000
0000
,
1000
0000
0010
0000
,
0100
0000
0001
0001
,
0001
0000
0010
0000
,
0100
0000
1000
0000
,
0010
0000
0100
0000
,
0010
0000
1000
1000
,
1000
0000
0010
0000
,
0100
0000
0001
0000
,
0010
0000
0100
0001
,
0000
0000
0000
0010
,
0000
0000
1000
0000
,
0001
0000
0000
0000
,
0001
0000
1000
0000
,
0010
0000
0100
0100
,
0110
0000
0000
0000
,
0001
0000
0000
0000
,
1000
0000
0000
0000
,
0010
0000
0000
0000
,
0100
0000
0000
0000
,
0010
0000
0000
0000
,
0001
0000
0000
0000
,
1000
0000
0000
0000
,
0010
0000
1000
0000
,
0001
0000
0010
0000
,
0001
0000
0100
0000
,
0010
0000
1000
0000
,
0001
0000
0010
0000
,
0100
0000
0010
0000
,
1000
0000
0001
0000
,
0010
0000
0001
0000
,
0100
0000
0000
0000
,
0000
0000
0000
0000
,
1000
0000
0000
0000
,
0000
0000
0000
0000
,
0001
0000
0000
0000
,
0000
0000
0000
0000
,
0010
0000
0000
0000
,
0000
0000
0000
0000
,
0100
0000
1000
0000
,
0001
0000
0000
0000
,
0010
0000
1000
0000
,
0100
0000
0000
0000
,
0001
0000
0010
0000
,
0100
0000
2000
0000
,
0000
0000
0000
0000
,
3000
0000
0000
0000
;

//--------------- dance-single - B. M'Rey ----------------
#NOTES:
     dance-single:
     B. M'Rey:
     Easy:
     3:
     0,0,0,0,0:
0000
0000
0000
0000
,
0000
0000
0000
0000
,
0000
0000
0000
0000
,
0000
0000
0000
0000
,
0001
0000
1000
0000
,
0010
0000
0100
0000
,
0001
0000
1000
0001
,
1000
0000
0010
0000
,
0001
1000
0010
0100
,
0000
0001
0000
0100
,
0010
1000
0100
0001
,
0010
0000
1000
0000
,
0100
0001
0010
1000
,
0010
0000
0100
0000
,
0001
0010
0001
0100
,
0010
0000
1000
0000
,
0001
1000
0010
0100
,
0001
0000
0000
0010
,
0100
0000
0001
0000
,
1000
0000
0000
0010
,
0100
0000
0010
1000
,
0001
0000
0100
0000
,
0001
0010
0001
0000
,
1000
0100
1001
0000
,
0010
1000
0100
0000
,
0001
0000
0010
0001
,
0100
0000
0010
0000
,
1000
0100
0001
0000
,
0010
1000
0100
0000
,
0001
0000
0010
0100
,
0001
0000
1000
0000
,
0010
0100
0001
0000
,
1000
0010
0100
0000
,
0001
0000
0010
0100
,
0010
0000
1000
0000
,
0010
0000
0100
0000
,
0001
0010
0001
0000
,
1000
0100
1000
0000
,
0010
0000
0000
0000
,
0100
0000
0000
0000
,
0001
0000
0000
0000
,
1000
0000
0000
0000
,
0100
0000
0000
0000
,
0010
0000
0000
0000
,
0001
0000
0000
0000
,
1000
0000
0000
0000
,
0001
0010
0001
0000
,
0100
0010
1000
0000
,
0100
0000
0001
0000
,
0010
0000
1000
0000
,
0010
0100
0010
0000
,
1000
0100
1000
0000
,
0001
0010
0001
0000
,
0100
0000
0010
0000
,
1000
0100
1000
0000
,
0001
0010
0001
0000
,
0100
0010
0100
0000
,
1000
0100
1000
0000
,
0001
0010
0001
0000
,
0100
0010
0100
0000
,
1000
0010
0100
0000
,
0001
1000
0010
0000
,
0100
0000
0010
0000
,
1000
0000
0000
0000
,
0001
0000
0010
0000
,
0100
0000
0000
0000
,
0001
0000
1000
0000
,
0100
0000
0010
0000
,
0001
0000
0000
0000
;

//--------------- dance-single - B. M'Rey ----------------
#NOTES:
     dance-single:
     B. M'Rey:
     Medium:
     6:
     0,0,0,0,0:
0000
0000
0000
0000
,
0000
0000
0000
0000
,
0000
0000
0000
0000
,
0000
0000
0000
0000
,
0001
1000
0001
1000
,
0100
1000
0100
0010
,
0100
0010
0001
0100
,
0001
0010
0001
1000
,
0010
0100
0010
0000
0001
0000
0001
0010
,
0000
0100
0000
1000
0000
0100
0001
0000
,
0010
0100
0001
0000
1000
0000
0001
0010
,
0000
0001
0000
0100
0000
1000
0001
0000
,
0100
0010
0100
0000
1000
0000
0001
0010
,
0000
0100
0000
0010
0000
1000
0010
0000
,
0001
0000
0010
0000
0100
0000
0010
0100
,
0001
0100
0010
0001
,
0001
0100
0000
0001
0000
1000
0000
0010
,
0000
1000
0000
0010
0000
0010
0100
1000
,
0010
1000
0010
2000
0000
0000
3001
2000
,
0000
0010
0000
3010
0000
0100
0001
0010
,
0001
0000
0001
0100
0000
1000
0000
0100
,
0000
0010
0100
0010
0000
1000
0000
0001
,
0000
1000
0010
0000
0110
0000
0001
0100
,
0000
1000
0010
0000
0110
0000
0110
0000
,
0100
1000
0100
1000
0001
0000
0001
0010
,
0000
1000
0100
1000
0100
0000
0001
0010
,
0000
1000
0100
0000
0001
0000
1000
0000
,
0010
0100
0010
1000
0000
0001
0000
0110
,
0000
0010
0100
0010
0001
0000
0001
1000
,
0000
0010
0100
0010
0100
0000
0001
0100
,
0000
0100
0010
0000
0001
0000
0010
0000
,
0001
0100
0010
0100
0000
1001
0000
0010
,
0000
0010
0100
0000
0100
0000
0010
2000
,
0000
0001
0000
3001
0000
1000
0001
1000
,
0000
0100
0000
0220
0000
0330
0010
2000
,
0000
0100
0000
3100
0000
0010
0100
0010
,
0100
0000
0010
1000
0010
0000
0001
0100
,
0000
0010
0001
0000
0100
0000
0100
1000
,
0002
0000
1000
0000
,
0013
0000
0100
0000
,
0010
0000
1000
0001
,
1000
0000
0010
0100
,
0001
0000
0010
0000
,
1000
0000
0010
0000
,
0100
0000
0001
1000
,
0010
0000
0100
0000
,
0010
0100
0010
0100
,
0010
1000
0100
0010
,
0001
0100
0001
0010
,
0100
1000
0001
0100
,
0001
0010
0100
1000
,
0001
0010
0100
1000
,
0010
1000
0010
0100
,
0010
0100
0001
1000
,
0001
0000
1000
0000
0001
0010
0100
0000
,
0001
0000
0100
0000
0010
0100
1000
0000
,
0100
0000
0010
0000
0001
1000
0010
0000
,
0001
0000
0100
0000
0001
0100
0010
0000
,
0100
0000
0010
0000
0100
0001
1000
0000
,
0100
0000
0010
0000
0001
1000
0100
0000
,
0001
0000
0100
0000
0001
0010
1000
0000
,
0100
0000
1000
0000
0100
0001
0100
0000
,
0010
0000
1000
0000
,
0001
0000
0000
0000
,
0010
0000
0100
0000
,
0001
0000
0000
0000
,
1000
0000
0100
0000
,
0010
0000
0001
0000
,
2002
0000
0000
0000
,
3003
0000
0000
0000
;

//--------------- dance-single - B. M'Rey ----------------
#NOTES:
     dance-single:
     B. M'Rey:
     Hard:
     9:
     0,0,0,0,0:
0000
0000
0000
0000
,
0000
0000
0000
0000
,
0000
0000
0000
0000
,
0000
0000
0000
0000
,
0010
0000
1000
0001
0000
0001
0100
0000
0001
0000
0100
0010
0000
0010
0100
0000
,
0001
0000
0010
0001
0000
0001
0100
0000
0010
0000
1000
0100
0000
0100
1000
0000
,
0010
0000
1000
0010
0000
0010
0100
0000
0010
0000
0000
0100
0000
0000
0100
0000
,
0001
0000
0010
0100
0000
0100
0010
0000
0001
0000
0010
0001
0000
0001
0100
0000
,
0010
0100
0010
0100
0001
0010
0001
1000
,
0010
0000
1000
0000
0001
0000
1000
0000
0001
0000
0010
0001
0010
0000
0100
0000
,
0010
1000
0001
0010
0100
1000
0001
0100
,
0010
0000
0100
0000
0010
0000
0100
0000
0001
0000
1000
0100
1000
0000
1000
0000
,
0010
0100
0010
0100
0001
1000
0001
0010
,
0100
0000
0010
0000
0001
0000
0100
0000
0010
0000
0100
0001
0100
0000
0010
0000
,
0001
0100
0001
0010
0100
1000
0010
1000
,
0010
0000
0001
0000
0010
1000
0100
0000
,
0100
1000
0001
0100
0010
1000
0100
1100
,
0000
1001
0000
0010
0000
1000
0001
0100
,
0001
1000
0010
0200
0000
1300
0100
2000
,
0000
3001
0000
0100
0000
0100
0010
1000
,
0100
0000
0100
1000
0000
0101
0000
1001
,
0000
0000
0100
1000
0000
1001
0000
0010
,
0100
0010
0001
0010
0100
1000
0000
0100
,
0000
0010
0001
0010
0110
0000
1100
0000
,
0001
1000
0010
1000
0010
1000
0001
0100
,
0001
1000
0001
0100
0010
1000
0100
1000
,
0010
1000
0010
0100
0010
0100
0001
1000
,
0001
0010
0001
0010
0100
0010
0100
1000
,
0100
1000
0010
1000
0010
0100
0010
0100
,
0001
0100
0001
1000
0001
1000
0010
0100
,
0010
0100
0001
0100
0001
1000
0100
1000
,
0100
1000
0001
0010
0001
0010
0000
1000
,
0010
1000
0010
1000
0001
0100
0001
0100
,
0001
0000
0100
0000
0001
1000
0010
0100
,
0000
1000
0000
0200
0000
0000
0310
0100
,
0000
0010
0000
0001
0000
1000
0100
1000
,
0100
1000
0010
0100
0010
0100
0010
1000
,
0001
0010
0001
0010
0001
0100
0010
0100
,
0001
1000
0100
0010
,
0001
0010
0001
0010
,
0100
1000
0001
1000
,
0100
0000
1000
0000
0100
0000
0010
0001
,
0100
0010
0001
0010
,
0001
1000
0001
1000
,
0010
1000
0010
0100
,
0010
0100
1001
0000
,
0010
0000
0100
0010
0000
0010
1000
0000
0010
0000
0100
0010
0000
0010
1000
0000
,
0001
0000
1000
0010
0000
0010
0100
0000
0010
0000
1000
0001
0000
0001
0100
0000
,
0010
0000
0100
0010
0000
0010
1000
0000
0010
0000
0000
0001
0000
0000
0100
0000
,
0010
0000
1000
0100
0000
0100
1000
0000
0001
0000
1000
0010
0000
0010
0100
0000
,
0110
0000
0100
0010
0000
0010
1000
0000
0100
0000
0010
0100
0000
0100
1000
0000
,
0001
0000
0100
0010
0000
0010
1000
0000
0100
0000
1000
0100
0000
0100
1000
0000
,
0010
0000
0100
0010
0000
0010
1000
0000
0001
0000
0000
0010
0000
0000
1000
0000
,
0100
0000
0010
0001
0000
0001
0010
0000
0001
0000
1000
0100
0000
0100
0010
0000
,
0100
0000
0010
0001
0010
0000
0100
0000
0010
0000
0100
0001
0100
0000
1000
0000
,
0010
0000
0100
0010
0100
0000
1000
0000
0010
0000
1000
0100
1000
0000
0010
0000
,
0100
0000
1000
0100
1000
0000
0010
0000
0001
0000
0010
0001
0010
0000
0010
0000
,
0100
0000
1000
0100
1000
0000
1000
0000
0100
0000
0010
0001
0010
0000
1000
0000
,
0100
0000
1000
0001
1000
0000
0010
0000
0100
0000
0010
0001
0010
0000
0010
0000
,
0001
0000
1000
0100
1000
0000
0010
0000
0001
0000
0010
0100
0010
0000
0010
0000
,
0001
0000
1000
0100
1000
0000
1000
0000
0010
0000
1000
0100
1000
0000
0010
0000
,
0100
0000
1000
0100
1000
0000
0010
0000
0001
0000
1000
0001
1000
0000
1000
0000
,
0000
1000
0001
0000
0010
0000
0100
0020
,
0000
0000
0030
0000
0000
0010
0001
0010
,
0000
0100
0000
0200
0000
0000
1300
0020
,
0000
0000
0000
0030
0000
0010
0001
0100
,
0010
1000
0001
0010
0100
0000
0100
1000
,
0000
1000
0100
0000
0001
0000
0100
0020
,
0000
0000
0000
0000
,
0030
0000
0000
0000
;

//--------------- dance-single - B. M'Rey ----------------
#NOTES:
     dance-single:
     B. M'Rey:
     Challenge:
     11:
     0,0,0,0,0:
0000
0000
0000
0000
,
0000
0000
0000
0000
,
0000
0000
0000
0000
,
0000
0000
0000
0000
,
0100
0010
0100
1000
0100
0000
0010
0000
0001
1000
0100
0010
0100
0000
0001
0000
,
0010
1000
0010
1000
0001
0000
0100
0000
0001
1000
0100
0010
0100
0000
1000
0000
,
0001
0010
0100
1000
0010
0000
1000
0000
0100
0000
0100
0010
0000
0010
0001
0000
,
0100
0010
0100
0010
0001
0000
1000
0000
0100
1000
0010
1000
0001
0000
0100
0000
,
0001
0000
0100
0010
0100
0000
0100
1000
0001
0000
0001
0100
0010
0000
0001
0100
,
0001
0000
0001
1000
0010
0000
0001
0010
0001
0000
0010
0000
0100
0000
0010
0000
,
0001
0000
0100
1000
0001
0000
0100
1000
0100
0000
0100
0010
0001
0000
0100
1000
,
0100
0000
0010
1000
0010
0000
0001
0000
0100
0000
0010
1000
0010
0000
0100
0000
,
0001
0000
0010
1000
0100
0000
0100
1000
0001
0000
0100
0010
0100
0000
0010
0100
,
0001
0000
0010
1000
0100
0000
0100
1000
0001
0000
0100
0000
0001
0000
0010
0000
,
0001
0000
1000
0001
0100
0000
0001
0010
0100
0000
0100
1000
0010
0000
0100
1000
,
0010
0000
0001
1000
0100
1000
0001
1000
0010
0100
0001
0010
0100
1000
0100
0010
,
0001
0000
0100
1000
0100
0000
0001
0010
0100
0000
0001
0100
0001
0000
0001
0010
,
0100
0000
0100
1000
0100
0000
0010
0100
0001
0000
0001
1000
0100
0000
0001
0100
,
0010
0000
0001
1000
0010
0000
0001
0010
0100
0000
0001
1000
0100
0000
0001
0010
,
0100
0000
0001
0100
0010
0000
0001
0010
0100
0000
0001
0100
0010
0000
0001
1000
,
0010
0000
0001
0010
0001
0000
0010
1000
0001
0000
0001
0100
0010
0000
0001
0100
,
0010
0000
0100
1000
0001
0000
0001
0100
0010
0000
0010
1000
0100
0000
0001
0010
,
0100
0010
0001
1000
0100
0000
0010
0100
0001
0000
0010
0000
0100
0000
0001
0100
,
0010
0001
0100
1000
0010
0000
0001
0000
0110
0000
0000
0000
0011
0000
0000
0000
,
0001
0000
1000
0010
0001
0000
1000
0100
0001
0000
0010
0000
0100
0000
0010
0000
,
0100
0000
0010
0000
0001
0000
1000
0010
0001
0000
1000
0001
0010
0000
1000
0000
,
0010
0000
0100
0010
0000
0010
0100
0000
0001
0000
0100
0001
0000
0001
1000
0000
,
0001
0000
1000
0000
0010
0000
1000
0000
0010
0100
0010
0100
0010
0000
0100
0000
,
0001
0000
0100
0001
0010
0000
1000
0100
0010
0000
1000
0001
0010
0000
0100
0000
,
0001
0000
0100
0000
0001
0000
0100
0001
0010
0000
1000
0100
0010
0000
1000
0001
,
0010
0000
0100
0001
0000
0001
0100
0000
0001
0000
0100
0010
0000
0010
1000
0000
,
0010
0000
1000
0000
0010
0000
0100
0001
0100
0001
0100
0000
0001
0000
1000
0000
,
0001
0000
1000
0010
0100
0000
1000
0001
0100
0000
0010
1000
0100
0000
0010
0000
,
0001
0000
0010
1000
0001
0000
1000
0010
0001
0000
1000
0001
0100
0000
1000
0000
,
0100
0000
0010
0000
0100
0000
0010
1000
0001
0000
0010
0100
0001
0000
1000
0010
,
0100
0000
1000
0001
0100
0000
1000
0010
0001
0000
0010
0000
0001
0000
0010
0000
,
0001
1000
0001
1000
0010
0000
1000
0000
0010
1000
0010
1000
0001
0000
0100
0000
,
0001
0100
0001
0100
0010
0000
0100
0000
0010
1000
0010
1000
0010
0000
1000
0000
,
0100
0000
0001
1000
0000
0010
0100
1000
0010
0000
0010
1000
0000
1000
0001
0100
,
0001
0000
0010
0100
0000
1000
0001
1000
0100
0000
0001
0100
0000
1000
0001
0100
,
0001
0000
0001
0010
0000
0000
0001
0000
0010
0000
0010
1000
0000
1000
0100
1000
,
0010
0000
0010
1000
0000
1000
0100
1000
0010
0000
0001
1000
0000
0010
0100
1000
,
0010
0000
0010
0100
0000
0010
0001
0010
0001
0000
0100
0010
0000
0010
0100
0010
,
0100
0000
0010
0100
0000
1000
0100
0010
0001
0000
0100
0010
0000
0010
0001
1000
,
0100
0000
0100
0010
0000
1000
0010
0100
0010
0000
0010
1000
0000
1000
0001
0000
,
0010
0000
0100
0010
0000
0100
0001
0100
0010
0000
0010
1000
0100
0000
0001
0000
,
0001
0010
0001
0010
0001
1000
0010
0100
0010
0100
0010
1000
0100
1000
0100
1000
,
0001
0100
0001
1000
0001
1000
0010
1000
0010
0100
0001
0100
0001
0010
0001
0010
,
0100
1000
0100
1000
0100
0010
0001
0100
0001
1000
0001
0010
0100
0010
0100
0010
,
0001
0100
0001
0100
0001
1000
0010
1000
0010
1000
0001
0010
0001
0010
0001
1000
,
0100
1000
0001
1000
0100
0010
0100
0010
0100
1000
0001
1000
0100
1000
0100
0010
,
0100
1000
0001
1000
0001
0100
0001
0100
0010
0100
0001
1000
0001
0010
0001
1000
,
0010
1000
0010
1000
0001
0010
0001
0010
0001
0100
0010
1000
0010
1000
0100
1000
,
0100
0010
0100
0010
0001
0010
0001
0100
0001
0100
0010
0100
0010
1000
0010
1000
,
0100
0000
0100
0010
0001
0000
0100
1000
0010
0000
0100
0010
0001
0000
0010
1000
,
0100
0000
0010
1000
0010
0000
0001
0100
0001
0000
0100
1000
0010
0000
0001
0010
,
0100
0000
0001
0100
0001
0000
0001
1000
0010
0000
0100
1000
0010
0000
0010
0100
,
0010
0000
0100
1000
0010
0000
0100
0010
0100
0000
0001
0010
0001
0000
0001
1000
,
0100
0000
0001
0100
0001
0000
0010
0100
0010
0000
0010
1000
0100
0000
0001
0010
,
0100
0000
0001
1000
0100
0000
0100
1000
0010
0000
0010
0100
0010
0000
0100
0010
,
0100
0000
0001
0100
0001
0000
0001
0100
0010
0000
0001
0100
0001
0000
0001
0100
,
0010
0000
0001
0100
0010
0000
0010
1000
0001
0000
0001
1000
0100
0000
0001
0000
,
0100
0010
0100
0010
0001
0000
0100
2000
,
0000
3020
0000
0030
0000
0010
0100
1000
,
0000
0010
0000
2002
0000
0000
3103
0020
,
0000
0000
0000
1030
0000
0100
0001
1000
,
0010
1000
0100
1000
0010
0000
0001
0100
,
0000
1000
0100
0010
0100
0000
0100
2000
,
0000
0000
0000
0000
,
3000
0000
0000
0000
;
