#TITLE:Moonlight Sonata;
#SUBTITLE:(Hard Trance Remix);
#ARTIST:Beethoven;
#GENRE:Hard Trance;
#CREDIT:B. M'Rey;
#MUSIC:Moonlight Sonata (Hard Trance Remix).ogg;
#BANNER:Moonlight Sonata (Hard Trance Remix)-bn.png;
#BACKGROUND:Moonlight Sonata (Hard Trance Remix)-bg.png;
#CDTITLE:./CDTITLES/BMR Superstars.PNG;
#SAMPLESTART:72.226;
#SAMPLELENGTH:12;
#OFFSET:-0.226;
#BPMS:0=160;

//--------------- dance-single - B. M'Rey ----------------
#NOTES:
     dance-single:
     B. M'Rey:
     Beginner:
     2:
     0.04,0.267,0.005,0.005,0.057:
0000
0000
0000
0000
,
0000
0000
0000
0000
,
0000
0000
0000
0000
,
0000
0000
0000
0000
,
0000
0000
0000
0000
,
0000
0000
0000
0000
,
0000
0000
0000
0000
,
0000
0000
0000
0000
,
0000
0000
0000
0000
,
0000
0000
0000
0000
,
0000
0000
0000
0000
,
0000
0000
0000
0000
,
0000
0000
0000
0000
,
0000
0000
0000
0000
,
0000
0000
0000
0000
,
0000
0000
0000
0000
,
0002
0000
0000
0000
,
0000
0000
0000
0000
,
0000
0000
0000
0000
,
0000
0000
0003
0000
,
0200
0000
0000
0000
,
0000
0000
0000
0000
,
0000
0000
0000
0000
,
0300
0000
0020
0000
,
0000
0000
0000
0000
,
0000
0000
0030
0000
,
0002
0000
0000
0000
,
0000
0003
0000
0000
0000
0000
0000
0000
,
2000
0000
0000
0000
,
0000
0000
3000
0000
,
0002
0000
0000
0000
,
0003
0000
0000
0000
,
0100
0000
0001
0000
,
1000
0000
0100
0000
,
0010
0000
1000
0000
,
0100
0000
0010
0000
,
0100
0000
0001
0000
,
1000
0000
0010
0000
,
1000
0000
0001
0000
,
1000
0000
0100
0000
,
0010
0000
1000
0000
,
0100
0000
0010
0000
,
1000
0000
0100
0000
,
1000
0000
0001
0000
,
0100
0000
0000
0010
,
0000
0000
1000
0000
,
0000
0000
0000
0000
,
0002
0000
0000
0000
,
0103
0000
1000
0000
,
0010
0000
0100
0000
,
1000
0000
0100
0000
,
0100
0000
1000
0000
,
0010
0000
1000
0000
,
0010
0000
1000
0000
,
0001
0000
1000
0000
,
0100
0000
0001
0000
,
1000
0000
0100
0000
,
0010
0000
0001
0000
,
1000
0000
0100
0000
,
0010
0000
0001
0000
,
1000
0000
0010
0000
,
0010
0000
1000
0000
,
1000
0000
0100
0000
,
0100
0000
0010
0000
,
0001
0000
0100
0000
,
1000
0000
0010
0000
,
1000
0000
0001
0000
,
0100
0000
0010
0000
,
0001
0000
1000
0000
,
0001
0000
0100
0000
,
0010
0000
1000
0000
,
0001
0000
0100
0000
,
1000
0000
0100
0000
,
0010
0000
0001
0000
,
0100
0000
1000
0000
,
0010
0000
1000
0000
,
0100
0000
0000
0001
,
0000
0000
0010
0000
,
0001
0000
0000
0000
,
0002
0000
0000
0000
,
0023
0000
0000
0000
,
0000
0000
0000
0000
,
0000
0000
0000
0000
,
0230
0000
0000
0000
,
0000
0000
0000
0000
,
0000
0000
0000
0000
,
0320
0000
0000
0000
,
0000
0000
0230
0000
,
0000
0000
0000
0000
,
0302
0000
0000
0000
,
0000
0000
0203
0000
,
0000
0000
0000
0000
,
0000
0000
0000
0000
,
0000
0000
0000
0000
,
0300
0000
0000
0000
;

//--------------- dance-single - B. M'Rey ----------------
#NOTES:
     dance-single:
     B. M'Rey:
     Easy:
     3:
     0.04,0.267,0.005,0.005,0.057:
0000
0000
0000
0000
,
0000
0000
0000
0000
,
0000
0000
0000
0000
,
0000
0000
0000
0000
,
0000
0000
0000
0000
,
0000
0000
0000
0000
,
0000
0000
0000
0000
,
0000
0000
0000
0000
,
0000
0000
0000
0000
,
0000
0000
0000
0000
,
0000
0000
0000
0000
,
0000
0000
0000
0000
,
0000
0000
0000
0000
,
0000
0000
0000
0000
,
0000
0000
0000
0000
,
0000
0000
0000
0000
,
2000
0000
0000
0000
,
0000
0000
0000
0000
,
0000
0000
0000
0000
,
0000
0000
3020
0000
,
0230
0000
0000
0000
,
0000
0000
0000
0000
,
0000
0000
0000
0000
,
2300
0000
3020
0000
,
0230
0000
0000
0000
,
0000
0000
0320
0000
,
2030
0000
0000
0000
,
0020
3000
0000
0000
0000
0000
0000
0000
,
0032
0000
0000
0000
,
0000
0000
0203
0000
,
2300
0000
0000
0000
,
3020
0000
0000
0000
,
1030
0001
1000
0000
,
1000
0100
0000
0100
,
0010
0100
1000
0000
,
1000
0010
0000
0010
,
0100
0010
0100
0000
,
1000
0001
0000
0100
,
1000
0100
0010
0000
,
0010
0001
0000
0100
,
1000
0100
1000
0000
,
1000
0001
0000
0001
,
0100
0010
0100
0000
,
1000
0010
0000
0001
,
1000
1000
0000
0100
,
0100
0000
0001
1000
,
0100
0010
1000
0100
,
2000
0000
0000
0000
,
3100
0001
0100
0001
,
0010
0001
0010
0001
,
1000
0100
1000
0100
,
1000
0100
1000
0100
,
1000
0010
1000
0010
,
0100
0001
0100
0001
,
1000
0001
1000
0001
,
1000
0001
1000
0001
,
0010
0100
0010
0100
,
0010
0001
1000
0001
,
1000
0001
1000
0100
,
0010
0001
0010
0100
,
0010
0100
0010
0100
,
0010
0100
0010
0001
,
1000
0001
1000
0010
,
1000
0010
1000
0010
,
1000
0010
1000
0100
,
0010
0100
0010
0100
,
0010
0100
0010
0100
,
1000
0100
1000
0001
,
0010
0001
0010
0001
,
0010
0100
0010
0100
,
0010
0001
0100
0001
,
0100
0001
0100
0001
,
0100
0001
0010
0001
,
0010
0100
0010
0100
,
0010
0100
0010
0100
,
1000
0100
0010
1000
,
0100
0100
0000
1000
,
1000
0000
0010
0010
,
1000
0010
1000
0100
,
2000
0000
0000
0000
,
3020
0000
0000
0000
,
0000
0000
0000
0000
,
0000
2030
0000
3010
,
0200
0000
0000
0000
,
0000
0000
0000
0000
,
0000
2300
0000
3100
,
0020
0000
0000
0000
,
0000
0000
0230
0000
,
0000
0000
0000
0000
,
2300
0000
0000
0000
,
0000
0000
3200
0000
,
0000
0000
0000
0000
,
0020
0000
0000
0000
,
0000
0000
0000
0000
,
0330
0000
0000
0000
;

//--------------- dance-single - B. M'Rey ----------------
#NOTES:
     dance-single:
     B. M'Rey:
     Medium:
     6:
     0.04,0.267,0.005,0.005,0.057:
0000
0000
0000
0000
,
0000
0000
0000
0000
,
0000
0000
0000
0000
,
0000
0000
0100
0000
,
0001
0000
0000
0000
,
0000
0000
0000
0000
,
0000
0000
0000
0000
,
0000
0000
0010
0100
,
0001
0000
0000
0000
,
0000
0000
0000
0000
,
0010
0000
0000
0000
,
0000
0000
0000
0000
,
0001
0000
0000
0000
,
0000
0000
0000
0000
,
0100
0000
0000
0000
,
0010
0000
0000
0000
,
0002
0000
0000
0000
,
0000
0000
0000
0000
,
0000
0000
0000
0000
,
0000
0000
0203
0000
,
0320
0000
0000
0000
,
0000
0000
0000
0000
,
0000
0000
0000
0000
,
0032
0000
0203
0000
,
0320
0000
0000
0000
,
0000
0000
0230
0000
,
0302
0000
0000
0000
,
0200
0003
0000
0000
0000
0000
0000
0000
,
2300
0000
0000
0000
,
0000
0000
3020
0000
,
0032
0000
0000
0000
,
0203
0000
0000
0000
,
0301
1000
0001
1000
,
0001
0010
0100
0010
,
0100
0010
0001
1000
,
0001
0100
0001
0100
,
0010
0100
0010
1000
,
0001
1000
0001
0010
,
0001
0010
0100
1000
,
0100
1000
0100
0010
,
0001
0010
0001
1000
,
0001
1000
0010
1000
,
0010
0100
0010
0100
,
0001
0100
0001
1000
,
1001
0101
0000
1010
,
0110
0000
1001
0110
,
0010
0100
0001
0010
,
0001
1000
0001
1000
0001
0100
0010
0100
,
0001
1000
0001
0100
0001
0000
0001
0010
,
0001
0010
0001
0000
0100
0010
0100
0000
,
0100
1000
0100
1000
0001
0000
0001
1000
,
0001
0100
0001
0000
0001
0000
0100
0000
,
0100
0010
0100
0010
0100
0000
0100
0010
,
0001
0010
0001
0000
0001
1000
0001
0000
,
0001
1000
0001
0100
0010
0000
0010
0100
,
0001
1000
0100
1000
,
0001
0100
0001
0100
0001
0000
0001
0100
,
0010
0100
0010
0000
0010
1000
0010
0000
,
0010
1000
0010
0100
0001
0000
0001
0100
,
0001
0100
0001
0000
0010
0100
0010
0000
,
0010
1000
0001
1000
0001
0000
0001
1000
,
0001
1000
0100
0000
0100
0010
0100
0000
,
0100
0010
0100
1000
0100
0000
0010
1000
,
0010
1000
0010
0000
0001
1000
0010
0000
,
0010
0100
0010
0100
0001
0000
0001
0010
,
0001
1000
0001
0000
0001
1000
0001
0000
,
0100
1000
0010
1000
0010
0000
0010
0100
,
0010
0100
0010
0000
0010
1000
0001
0000
,
0001
1000
0001
1000
0100
0000
0100
1000
,
0100
1000
0100
0000
0001
0010
0001
0000
,
0001
0010
0001
0010
0001
0000
0001
0100
,
0010
0100
0010
0100
,
0010
0100
0010
1000
0001
0000
0001
1000
,
0010
1000
0010
0000
0010
0100
0010
0000
,
0010
0100
0010
0100
0001
0000
0001
1000
,
0001
1000
0001
0000
0001
0010
0001
0000
,
0110
0110
0000
0011
,
0011
0000
0110
1100
,
0001
0100
0001
0010
,
0001
1000
0010
1000
0010
1000
0010
1000
,
0200
0000
0000
0000
,
0000
0000
0000
0000
,
0000
0302
0000
0103
,
0020
0000
0000
0000
,
0000
0000
0000
0000
,
0000
0032
0000
0013
,
0200
0000
0000
0000
,
0000
0000
0320
0000
,
0000
0000
0000
0000
,
0032
0000
0000
0000
,
0000
0000
0023
0000
,
0000
0000
0000
0000
,
0200
0000
0000
0000
,
0000
0000
0000
0000
,
0330
0000
0000
0000
;

//--------------- dance-single - B. M'Rey ----------------
#NOTES:
     dance-single:
     B. M'Rey:
     Hard:
     9:
     0.04,0.267,0.005,0.005,0.057:
1000
0001
1000
0100
,
0010
0100
0010
0001
,
1000
0001
1000
0010
,
0100
0001
0010
0100
,
1000
0100
1000
0010
,
0100
0001
0010
0100
,
0010
0001
0100
0001
,
0010
0001
0100
0010
,
1000
0100
1000
0010
,
0100
0001
1000
0010
,
0100
0001
0010
0100
,
0010
0001
0100
0010
,
1000
0010
0100
0010
,
0100
0001
0010
0100
,
0010
0001
0100
0010
,
1000
0100
0010
0001
,
2000
0000
0000
0000
,
0000
0000
0000
0000
,
0000
0000
0000
0000
,
0000
0000
3020
0000
,
0230
0000
0000
0000
,
0000
0000
0000
0000
,
0000
0000
0000
0000
,
2300
0000
3010
0100
,
0200
0000
0000
0000
,
0000
0000
0320
0000
,
2030
0000
0000
0000
,
0020
3000
0000
2030
0000
0000
3200
0000
,
0302
0000
0000
0000
,
0000
0000
0203
0000
,
2300
0000
0000
0000
,
3020
0000
0000
0000
,
1030
0100
1000
0010
1000
0000
0010
0001
,
0100
0010
1000
0000
0010
0001
0100
0000
,
0100
0010
1000
0010
0100
0000
0100
0010
,
1000
0010
0100
0000
0010
0100
0010
0001
,
0100
0010
0100
0010
0100
0000
0010
0001
,
0100
0010
1000
0000
0010
0001
0010
0000
,
0100
0010
1000
0100
1000
0000
0010
0001
,
0100
0010
1000
0010
,
0100
0001
0010
0100
1000
0000
0100
0010
,
1000
0100
0010
0000
0100
0010
0100
0000
,
1000
0100
0010
0100
1000
0000
0100
0001
,
0010
0001
0100
0000
0100
0001
0010
0100
,
1001
1010
0000
0101
,
0110
0000
1001
0110
,
0100
0010
1000
0100
,
1000
0000
0010
0000
1000
0000
0100
0000
1000
0100
0010
0001
1000
0010
0100
0001
,
0100
0001
0100
0010
0100
0010
1000
0001
,
0100
0010
1000
0001
0010
0100
1000
0001
,
0010
0100
1000
0001
0100
0010
0100
0010
,
1000
0100
1000
0100
0010
0100
1000
0001
,
0010
0001
0100
0010
1000
0100
1000
0010
,
0100
0001
0010
0001
0010
0100
1000
0100
,
1000
0100
0010
0001
0100
0010
0100
0001
,
0100
0001
0010
0100
0010
0001
0100
0010
,
1000
0100
0010
0001
0100
0010
0100
0001
,
0010
0001
0100
0001
0100
0010
0100
0010
,
1000
0001
1000
0100
0010
0100
1000
0001
,
0010
0001
0100
0001
0010
0100
1000
0001
,
0010
0100
1000
0010
0100
0010
0100
0001
,
0100
0001
0010
0100
1000
0010
1000
0001
,
0010
0100
1000
0001
0010
0001
0100
0010
,
0100
0001
0010
0100
1000
0001
0100
0001
,
1001
0100
0010
0001
0100
0001
1000
0001
,
0100
0010
0100
0010
0100
0001
0010
0100
,
1000
0001
0010
0100
1000
0010
0100
0001
,
0100
0010
0100
0001
1000
0100
0010
0001
,
0010
0100
1000
0010
1000
0010
0100
0001
,
0010
0001
1000
0010
1000
0100
0010
0001
,
1000
0001
0010
0100
1000
0100
1000
0010
,
0100
0001
1000
0100
0010
0001
0100
0010
,
0100
0010
1000
0010
1000
0001
0010
0100
,
1000
0001
0010
0100
1000
0100
1000
0010
,
0100
0001
0010
0001
0100
0001
0010
0100
,
1000
0010
0100
0010
1000
0001
0010
0100
,
0110
0110
0000
1100
,
1100
0000
0110
0011
,
1000
0010
1000
0100
,
0100
0000
0010
0000
1000
0000
0100
0000
1000
0001
1000
0010
1000
0001
0010
0001
,
0020
2030
3002
2003
,
3020
0230
0320
2030
,
3020
2030
0000
3200
,
0320
2030
3020
0230
,
2300
3020
2030
3020
,
0230
2300
0000
3200
,
0320
0230
2300
3200
,
0320
2030
3200
0000
,
2300
3020
2030
3002
,
2003
0000
3200
2300
,
3020
2030
3200
0000
,
0000
0000
0000
0000
,
0020
0000
0000
0000
,
0000
0000
0000
0000
,
0330
0000
0000
0000
;

//--------------- dance-single - B. M'Rey ----------------
#NOTES:
     dance-single:
     B. M'Rey:
     Challenge:
     13:
     0.04,0.267,0.005,0.005,0.057:
0001
1000
0001
0010
,
0100
0010
0100
1000
,
0001
1000
0001
0100
,
0010
1000
0100
0010
,
0001
0010
0001
0100
,
0010
1000
0100
0010
,
0100
1000
0010
1000
,
0100
1000
0010
0100
,
0001
0010
0001
0100
,
0010
1000
0001
0100
,
0010
1000
0100
0010
,
0100
1000
0010
0100
,
0001
0100
0010
0100
,
0010
1000
0100
0010
,
0100
1000
0010
0100
,
0001
0010
0100
1000
,
0002
00M0
0M00
M000
0M00
00M0
M000
0M00
,
M000
M000
00M0
0M00
M000
M000
00M0
0M00
,
M000
00M0
M000
0M00
00M0
M000
M000
0M00
,
00M0
M000
00M0
M000
0203
M000
000M
00M0
,
0320
M000
000M
0M00
000M
0M00
M000
M000
,
0M00
M000
000M
0M00
000M
M000
000M
0M00
,
000M
M000
0M00
000M
0M00
M000
0M00
0M00
,
0032
0M00
M000
00M0
0103
M000
0010
0M00
,
0020
0M00
000M
000M
0M00
M000
0M00
M000
,
0M00
M000
000M
M000
0230
M000
00M0
M000
,
0302
M000
0M00
00M0
0M00
M000
0M00
00M0
,
M200
0003
000M
03M2
0000
M000
0023
000M
,
2030
0M00
00M0
0M00
000M
00M0
000M
0M00
,
000M
00M0
0M00
000M
3020
0M00
M000
0M00
,
0032
00M0
M000
0M00
00M0
M000
0M00
00M0
,
0203
M000
000M
00M0
000M
M000
000M
00M0
,
0301
0010
0001
0100
0001
0000
0100
1000
,
0010
0100
0001
0000
0100
1000
0010
0000
,
0010
0100
0001
0100
0010
0000
0010
0100
,
0001
0100
0010
0000
0100
0010
0100
1000
,
0010
0100
0010
0100
0010
0000
0100
1000
,
0010
0100
0001
0000
0100
1000
0100
0000
,
0010
0100
0001
0010
0001
0000
0100
1000
,
0010
0100
0001
0100
,
0010
1000
0100
0010
0001
0000
0010
0100
,
0001
0010
0100
0000
0010
0100
0010
0000
,
0001
0010
0100
0010
0001
0000
0010
1000
,
0100
1000
0010
0000
0010
1000
0100
0010
,
1001
0101
MMMM
1010
,
0110
MMMM
1001
0110
,
0010
0100
0001
0010
,
0001
0000
0100
0000
0001
0000
0010
0000
0001
0010
0100
1000
0001
0100
0010
1000
,
0001
1000
0001
1000
0001
1000
0001
0010
0001
0010
0100
0010
0100
0010
0100
1000
,
0100
1000
0100
1000
0001
1000
0001
1000
0001
0010
0001
0010
0001
0100
0010
0100
,
0010
0100
0010
0100
0010
0100
0010
1000
0001
1000
0100
1000
0100
1000
0100
1000
,
0001
0010
0001
0010
0001
0010
0001
0010
0001
0100
0010
0100
0010
0100
0010
0100
,
0010
0100
0001
1000
0001
1000
0010
1000
0010
1000
0010
1000
0001
0010
0001
0010
,
0001
0010
0001
0010
0001
0010
0100
1000
0001
1000
0001
1000
0001
0010
0001
0010
,
0001
0010
0100
0010
0100
1000
0001
1000
0001
1000
0001
0100
0001
0100
0001
0100
,
0010
0100
0010
0100
0010
1000
0010
0100
0010
0100
0001
0100
0010
0100
0010
0100
,
0010
1000
0010
1000
0010
1000
0100
1000
0100
1000
0100
0010
0100
0010
0100
0010
,
0001
0010
0001
0010
0001
1000
0001
0010
0001
1000
0100
1000
0100
1000
0100
1000
,
0100
0010
0100
0010
0001
0010
0001
0010
0001
0010
0100
1000
0100
0010
0100
0010
,
0001
0010
0001
0010
0001
0010
0001
1000
0001
1000
0100
1000
0100
1000
0001
1000
,
0001
0010
0001
0010
0001
1000
0001
1000
0010
1000
0010
1000
0010
1000
0100
0010
,
0100
0010
0100
0010
0100
0010
0100
0010
0001
0100
0001
0100
0010
0100
0010
0100
,
0010
0100
0010
1000
0010
1000
0001
1000
0001
0010
0001
0010
0001
0010
0001
0010
,
0100
0010
0100
1000
0100
1000
0100
1000
0100
0010
0001
0010
0001
0010
0001
0010
,
0001
0010
0001
0100
0010
0100
0001
0100
0001
0100
0001
1000
0001
1000
0001
1000
,
0100
1000
0100
1000
0001
0010
0001
0010
0001
0010
0100
0010
0100
0010
0100
1000
,
0100
1000
0001
1000
0001
0100
0001
0100
0001
0100
0001
0100
0010
0100
0010
1000
,
0010
0100
0010
0100
0010
0100
0001
0100
0010
0100
0010
1000
0010
0100
0010
0100
,
0010
0100
0001
0100
0001
0100
0001
0010
0001
0010
0001
0010
0100
0010
0100
0010
,
0001
1000
0001
1000
0001
1000
0001
0100
0001
0100
0010
0100
0010
0100
0010
0100
,
0010
1000
0010
1000
0001
1000
0010
0100
0010
0100
0010
0100
0010
0100
0010
0100
,
0001
1000
0001
0010
0001
1000
0001
1000
0001
1000
0010
1000
0010
1000
0010
0100
,
0010
0100
0010
0100
0001
0100
0001
1000
0001
1000
0001
1000
0001
1000
0010
1000
,
0010
0100
0010
0100
0010
0100
0010
0100
0001
1000
0001
0010
0001
1000
0001
0100
,
0001
0100
0010
0100
0010
0100
0010
0100
0010
1000
0010
1000
0100
1000
0100
1000
,
0010
1000
0010
0100
0010
0100
0010
0100
0010
0100
0001
0100
0010
1000
0010
1000
,
0110
0110
MMMM
0011
,
0011
MMMM
0110
1100
,
0001
0100
0001
0010
,
0010
0000
0100
0000
0001
0000
0010
0000
0001
1000
0001
0100
0001
1000
0100
1000
,
0200
M000
0302
0M00
2003
00M0
3002
00M0
,
0203
M000
0320
M000
0230
M000
0302
00M0
,
0203
M000
0302
0M00
0000
0M00
0023
M000
,
0230
00M0
0302
M000
0203
M000
0320
0M00
,
0032
00M0
0203
M000
0302
M000
0203
M000
,
0320
0M00
0032
00M0
0000
0M00
0023
M000
,
0230
00M0
0320
M000
0032
0M00
0023
M000
,
0230
00M0
0302
M000
0023
M000
0000
0M00
,
0032
M000
0203
00M0
0302
0M00
2003
00M0
,
3002
0M00
0000
0M00
0023
M000
0032
00M0
,
0203
M000
0302
00M0
0023
0000
0000
0000
,
0000
0000
0000
0000
,
0200
0000
0000
0000
,
0000
0000
0000
0000
,
0330
0000
0000
0000
;
