#TITLE:Living In America;
#ARTIST:Rose & John;
#GENRE:Happy Hardcore;
#CREDIT:B. M'Rey;
#MUSIC:Living In America.ogg;
#BANNER:Living In America-bn.png;
#BACKGROUND:Living In America-bg.png;
#CDTITLE:./CDTITLES/DANCEMANIA SPEED 8.PNG;
#SAMPLESTART:30.150;
#SAMPLELENGTH:12;
#OFFSET:-0.041;
#BPMS:0=169;

//--------------- dance-single - B. M'Rey ----------------
#NOTES:
     dance-single:
     B. M'Rey:
     Beginner:
     2:
     0,0,0,0,0:
0000
0000
0000
0000
,
0000
0000
0000
0000
,
0000
0000
0000
0000
,
0000
0000
0000
0000
,
0000
1001
0000
0000
,
0000
1000
0000
1000
,
0000
0001
0000
0001
,
0000
0200
0000
0300
,
0000
0001
0000
0001
,
0000
1000
0000
1000
,
0000
0010
0000
0010
,
0000
0200
0000
0300
,
0000
0001
0000
1000
,
0000
0010
0000
0000
,
0000
0000
0100
0000
,
0001
0010
0000
0000
,
0000
0000
1000
0000
,
0001
0100
0000
0000
,
0000
0000
0010
0000
,
0100
0001
0000
0000
,
0000
1001
0000
0000
,
0000
1000
0000
1000
,
0000
0001
0000
0001
,
0000
0100
0000
0100
,
0000
0010
0000
0010
,
0000
0100
0000
0100
,
0000
0001
0000
0001
,
0000
1000
0000
1000
,
0000
1001
0000
0000
,
0000
0010
0000
0100
,
0000
0000
0000
0001
,
1000
0010
0000
0100
,
0000
0000
0000
0001
,
1000
0010
0000
0100
,
0000
0000
0000
0110
,
0000
1000
0000
0001
,
0000
0100
0000
0010
,
0000
1000
0001
0100
,
0000
0000
0010
0000
,
0000
0001
0100
0010
,
0000
1000
0000
0010
,
0000
0100
0010
0100
,
0000
0001
0000
1000
,
0000
0010
0100
0010
,
0000
0001
0000
1001
,
0000
1000
0000
1000
,
0000
0010
0000
0010
,
0000
0200
0000
0300
,
0000
0010
0000
0001
,
0000
0100
0000
0010
,
0000
1000
0000
0010
,
0000
0200
0000
0300
,
0000
0001
0000
0200
,
0000
0310
0000
1000
,
0000
0001
0000
0010
,
0000
0002
0000
0003
,
0000
0010
0000
1000
,
0000
0001
0000
0010
,
0000
0001
0000
0100
,
0000
0020
0000
0030
,
0000
0001
0000
1000
;

//--------------- dance-single - B. M'Rey ----------------
#NOTES:
     dance-single:
     B. M'Rey:
     Easy:
     5:
     0.273356,0.34947,0.045832,0.068748,0,167,163,4,6,0,0,0.273356,0.34947,0.045832,0.068748,0,167,163,4,6,0,0:
0000
0000
0000
0000
,
0000
0000
0000
0000
,
0000
0000
0000
0000
,
0000
0000
0000
0000
,
0000
0000
0000
0000
,
0000
0100
1000
0100
,
1000
0100
0010
0001
,
0010
0020
0000
0130
,
0000
0001
1000
0001
,
1000
0001
0100
0010
,
0100
0010
0100
0001
,
1000
0002
0000
1003
,
0000
0000
0001
0000
1000
0000
0001
1000
,
0001
0001
0000
1000
,
0000
0010
0000
0100
,
0000
0001
0000
0010
,
0000
0001
0000
0100
,
0000
0010
0000
1000
,
0000
0100
0000
1000
,
0000
0100
0000
0010
,
0000
0100
0000
0001
,
0000
0100
1000
0001
,
0010
0001
0010
0001
,
1000
0100
1000
0001
,
0100
0010
1000
0010
,
0100
0010
0000
0001
,
0000
0100
0000
0000
0001
0000
1000
0000
,
0001
0100
0010
1000
,
0010
0100
0000
1000
,
0000
0100
1000
0100
,
1000
0100
0010
0001
,
0010
0001
0010
0100
,
1000
0100
1000
0100
,
0010
0001
0010
0001
,
0010
0100
1000
1100
,
1001
0001
1000
0100
,
0010
0100
0010
0100
,
1000
0110
1000
0001
,
0100
0001
0100
0010
,
0100
0010
1000
0001
,
1000
0010
1000
0010
,
0100
0010
0100
0001
,
0100
0001
1000
1001
,
1001
0010
0100
0010
,
0100
0010
1000
0110
,
0000
0001
1000
0001
,
1000
0001
0100
0010
,
0100
0020
0000
0031
,
0000
0001
1000
0001
,
0100
0010
0100
0010
,
0100
0001
1000
0100
,
1000
0002
0000
0103
,
0000
0000
0100
0000
1000
0000
0100
1000
,
0100
0001
0100
0001
,
0100
0001
1000
0100
,
1000
0020
0000
0130
,
0000
0010
0100
0001
,
1000
0001
1000
0010
,
1000
0010
0100
0010
,
0100
0002
0000
0103
,
0000
0000
0001
0000
0010
0000
0100
0001
,
0010
0000
0000
0000
;

//--------------- dance-single - B. M'Rey ----------------
#NOTES:
     dance-single:
     B. M'Rey:
     Medium:
     7:
     0.476327,0.524205,0.504154,0.378115,0,291,247,44,33,0,0,0.476327,0.524205,0.504154,0.378115,0,291,247,44,33,0,0:
0000
0000
0000
0000
,
0000
0000
0000
0000
,
0000
0000
0000
0000
,
0000
0000
0000
0000
,
0000
0000
0000
0000
,
0000
0001
1000
0001
1000
0000
0100
0010
,
0100
0000
0001
0010
0001
0000
1000
0100
,
1000
0020
0000
0230
,
0000
0301
0010
0001
0020
0000
0230
0000
,
2300
0000
3100
0010
0100
0000
0001
0010
,
0001
0000
1000
0010
1000
0000
0010
0100
,
0010
0002
0000
0203
,
0000
0310
0001
0010
0200
0000
0302
1000
,
1003
0010
1000
0100
,
0001
0000
0010
0000
0100
0000
0001
0010
,
1000
0100
0010
1000
,
0001
0000
0010
0000
0100
0000
0010
0100
,
1000
0100
0001
0010
,
0100
0000
0010
0000
1000
0001
0100
0000
,
0001
0010
0100
1000
,
0010
0110
0000
0000
,
0000
1001
1001
0110
,
0110
0000
0010
0000
0100
0010
0001
0000
,
0010
1001
1001
0110
,
0110
0000
0100
0000
0010
0000
1000
0001
,
0100
0002
0000
0203
,
0000
0310
0000
0000
0001
0000
0010
0000
,
0100
0000
1000
0000
0010
0000
0100
1000
,
0000
0001
0010
0000
0100
0000
0010
0000
,
1000
1010
1010
1100
,
1100
0000
0100
0000
1000
0000
0001
0010
,
0100
0101
0101
1001
,
1001
0000
0100
0000
0010
0001
0100
0000
,
1000
0110
0110
1001
,
1001
0001
1000
0001
,
0100
0110
0110
0011
,
0011
0000
0001
0000
0010
1000
0100
0000
,
1000
1100
1100
1001
,
1001
0000
0010
0000
0100
0000
0010
0100
,
1000
1001
1001
0110
,
0110
0000
0010
0000
1000
0001
0100
0000
,
1000
1010
1010
0110
,
0110
0000
0001
0100
1000
0000
0001
0000
,
0010
0110
0110
0101
,
0101
0000
0001
0010
1000
0000
0100
0000
,
0001
0000
0001
1000
0001
0000
0010
0100
,
0010
0000
1000
0100
1000
0000
0001
0010
,
0001
0200
0000
0320
,
0000
1030
0100
1000
0200
0000
0320
0000
,
0032
0000
0013
0100
0010
0000
1000
0100
,
1000
0000
0001
0100
0001
0000
0100
0010
,
0100
2000
0000
3020
,
0000
0130
1000
0100
0020
0000
2030
0001
,
3001
0001
1000
0001
1000
0000
0100
0010
,
0100
0000
0001
0010
0001
0000
1000
0100
,
1000
0020
0000
0230
,
0000
0301
0010
0001
0020
0000
0230
0000
,
2300
0000
3100
0010
0100
0000
0001
0010
,
0001
0000
1000
0010
1000
0000
0010
0100
,
0010
0002
0000
0203
,
0000
0310
0001
0010
0200
0000
0302
1000
,
1003
0000
0000
0000
;

//--------------- dance-single - B. M'Rey ----------------
#NOTES:
     dance-single:
     B. M'Rey:
     Hard:
     9:
     0.612186,0.629046,0.355199,0.171871,0,374,343,31,15,0,0,0.612186,0.629046,0.355199,0.171871,0,374,343,31,15,0,0:
0000
0000
0000
0000
,
0000
0000
0000
0000
,
0000
0000
0000
0000
,
0000
0000
0000
0000
,
0000
1001
0000
0000
,
0000
0001
1000
0001
1000
0010
0100
0010
,
0001
0000
0010
1000
0100
1000
0001
0010
,
0100
1000
0200
0000
0000
0301
0020
0000
,
0030
0100
1000
0010
0100
0001
0010
0100
,
1000
0100
0001
0010
0100
0010
1000
0100
,
0001
0000
0010
0100
0010
1000
0001
0100
,
0010
1000
0200
0000
0000
0301
0020
0000
,
0030
0100
1000
0001
0100
0010
0100
1001
,
0110
0000
0001
0000
1000
0000
0010
0100
,
0000
0001
0000
1000
0100
1000
0100
0010
,
0001
0000
0010
0000
1000
0000
0100
0010
,
0000
0001
0000
0010
0100
0010
0100
0010
,
0100
0000
1000
0000
0001
0000
0100
0010
,
0000
1000
0000
0001
0010
0001
0010
0001
,
0010
0000
1000
0000
0100
0000
0010
0001
,
0000
0100
0000
0010
0100
0010
0001
0000
,
1000
0000
0110
0000
0110
0000
0010
0100
,
0000
0001
0000
1000
0001
1000
0001
1000
,
0001
0000
1001
0000
1001
0000
0001
1000
,
0000
0100
0000
0001
0010
0001
0010
0001
,
0010
2000
0000
3200
,
0000
0320
0000
0031
0010
0001
0010
0100
,
1000
0000
0100
0010
0001
0000
0010
0100
,
1000
0000
0100
0010
0100
0010
0110
0000
,
0110
0000
0001
1000
0001
1000
0001
0000
,
0010
0100
0000
0000
1100
0000
0110
0000
,
0011
0000
0010
1000
0010
1000
0010
1000
,
0010
1000
0000
0100
0010
0100
0110
0000
,
1001
0000
0001
1000
0001
1000
0001
0000
,
0010
0100
0000
0010
0100
0000
0110
0000
,
0110
0000
0010
1000
0010
1000
0010
1000
,
0010
1000
0000
0100
0010
0100
1001
0000
,
1001
0000
0001
1000
0001
1000
0001
0000
,
0010
0100
0000
0000
1100
0000
0110
0000
,
0011
0000
0010
1000
0010
1000
0010
1000
,
0010
1000
0000
0100
0010
0100
0110
0000
,
1001
0000
0001
1000
0001
1000
0001
0000
,
0010
0100
0000
0010
0100
0000
0110
0000
,
0110
0000
0010
1000
0010
1000
0010
1000
,
0010
1000
0000
0100
0010
0100
1001
0000
,
1001
0001
1000
0001
1000
0010
0100
0010
,
0001
0000
0010
1000
0100
1000
0001
0010
,
0100
1000
0200
0000
0000
0301
0020
0000
,
0030
0100
1000
0010
0100
0001
0010
0100
,
1000
0100
0001
0010
0100
0010
1000
0100
,
0001
0000
0010
0100
0010
1000
0001
0100
,
0010
1000
0200
0000
0000
0301
0020
0000
,
0030
0100
1000
0001
0100
0010
0100
1001
,
1001
0010
0100
0010
0100
1000
0001
1000
,
0010
0000
1000
0100
0001
0100
0010
1000
,
0001
0100
0002
0000
0000
0013
2000
0000
,
3000
0001
0100
1000
0001
0010
1000
0001
,
0100
0001
0010
1000
0001
1000
0100
0001
,
0010
0000
1000
0001
1000
0100
0010
0001
,
1000
0100
0002
0000
0000
0013
2000
0000
,
3000
0001
0100
0010
0001
1000
0001
0110
,
1001
0000
0000
0000
;

//--------------- dance-single - B. M'Rey ----------------
#NOTES:
     dance-single:
     B. M'Rey:
     Challenge:
     10:
     0.829889,0.803781,0.148954,0.137496,0.601547,507,494,13,12,0,0,0.829889,0.803781,0.148954,0.137496,0.601547,507,494,13,12,0,0:
0000
0000
0000
0000
,
0000
0000
0000
0000
,
0000
0000
0000
0000
,
0000
0000
0000
0000
,
0000
1001
0000
0000
,
0000
0000
1000
0100
1000
0000
0001
0000
0010
0100
0010
0100
0010
0000
1000
0000
,
0001
0000
0000
0010
0100
0000
1000
0000
0100
0000
0000
0010
0001
0000
0000
0100
,
1000
0100
1000
0100
2000
0000
0000
0000
3000
0000
0001
0010
0002
0000
0000
0000
,
0003
0000
1000
0100
1000
0000
0100
0000
0001
0010
0001
0010
0001
0000
0100
0000
,
1000
0100
1000
0100
1000
0000
0001
0000
0010
0100
0010
0100
0010
0000
1000
0000
,
0100
0000
0000
0001
0010
0000
0100
0000
1000
0000
0000
0100
0010
0000
0000
1000
,
0001
1000
0001
1000
0002
0000
0000
0000
0003
0000
0010
0100
0020
0000
0000
0000
,
0030
0000
1000
0100
1000
0000
0100
0000
0001
0010
0001
0010
0001
0000
1000
0000
,
0100
0000
1000
0001
0010
0100
0001
0010
,
0100
0000
0001
0000
1000
0000
0010
0000
0100
0000
0001
0000
1000
0000
0001
1000
,
0001
1000
0001
0000
0010
0000
0100
0000
0001
0000
1000
0000
0010
0000
0100
0000
,
0001
0000
1000
0000
0100
0000
0001
0000
0010
0000
0100
0000
0001
0000
1000
0001
,
1000
0001
1000
0001
1000
0000
0100
0000
0001
0000
0010
0000
1000
0000
0100
0000
,
1000
0000
0001
0000
0010
0000
0100
0000
0010
0000
1000
0000
0100
0000
0010
0100
,
0010
0100
0010
0100
0010
0000
0001
0000
0010
0000
0001
0000
1000
0000
0100
0000
,
1000
0000
0010
0000
0100
0000
0000
0000
0000
0000
0001
1000
0001
0000
0100
0010
,
0100
0000
0001
0010
0001
0000
0001
0000
1000
0000
0100
0000
1000
0000
0001
0000
,
0010
0000
0100
0000
0010
0000
0001
0000
1000
0000
0010
0000
0001
0000
0100
0010
,
0100
0010
0100
0010
0100
0000
0001
0000
0010
0000
1000
0000
0100
0000
0001
0000
,
0010
0000
0001
0000
0100
0000
0010
0000
1000
0000
0100
0000
0010
0000
0001
1000
,
0001
1000
0001
1000
0001
0000
0010
0000
1000
0000
0001
0000
0010
0000
0001
0000
,
0100
0000
0010
0000
1000
0000
0100
0000
1000
0000
0010
0000
0001
0000
0010
0100
,
0010
0100
0010
0100
0010
0000
0001
0000
0010
0000
0001
0000
1000
0000
0100
0000
,
0010
0000
0100
0000
1000
0000
0001
0000
1000
0000
0001
0000
1000
0001
1000
0001
,
1000
0001
1000
0001
1000
0000
0100
0000
0001
0000
0010
0000
1000
0000
0100
0000
,
1000
0001
0010
1000
0100
0001
0110
0000
,
1001
0000
0010
0100
0001
0010
1000
0100
,
0010
0000
1000
0000
0001
0000
0010
0000
0100
0000
0001
0000
0010
0000
1000
0001
,
1000
0001
1000
0001
1000
0000
0010
0000
0100
0000
0001
0000
0010
0000
1000
0000
,
0100
0001
0010
0100
1000
0000
0110
0000
,
0110
0000
1000
0001
0010
0100
0001
1000
,
0010
0100
0000
1000
0001
0010
0101
0000
,
0101
0000
1000
0100
0001
0010
1000
0100
,
1000
0001
0010
1000
0100
0001
0110
0000
,
1001
0000
0010
0100
0001
0010
1000
0100
,
0010
0000
1000
0000
0001
0000
0010
0000
0100
0000
0001
0000
0010
0000
1000
0001
,
1000
0001
1000
0001
1000
0000
0010
0000
0100
0000
0001
0000
0010
0000
1000
0000
,
0100
0001
0010
0100
1000
0000
0110
0000
,
0110
0000
1000
0001
0010
0100
0001
1000
,
0010
0100
0000
1000
0001
0010
0101
0000
,
0101
0000
1000
0100
1000
0000
0001
0000
0010
0100
0010
0100
0010
0000
1000
0000
,
0001
0000
0000
0010
0100
0000
1000
0000
0100
0000
0000
0010
0001
0000
0000
0100
,
1000
0100
1000
0100
2000
0000
0000
0000
3000
0000
0001
0010
0002
0000
0000
0000
,
0003
0000
1000
0100
1000
0000
0100
0000
0001
0010
0001
0010
0001
0000
0100
0000
,
1000
0100
1000
0100
1000
0000
0001
0000
0010
0100
0010
0100
0010
0000
1000
0000
,
0100
0000
0000
0001
0010
0000
0100
0000
1000
0000
0000
0100
0010
0000
0000
1000
,
0001
1000
0001
1000
0002
0000
0000
0000
0003
0000
0010
0100
0020
0000
0000
0000
,
0030
0000
1000
0100
1000
0000
0100
0000
0001
0010
0001
0010
0001
0000
1000
0000
,
0100
0000
0100
0001
0100
0000
0010
0000
1000
0001
1000
0001
1000
0000
0100
0000
,
0010
0000
0000
1000
0001
0000
0100
0000
0001
0000
0000
1000
0010
0000
0000
0001
,
0100
0001
0100
0001
0200
0000
0000
0000
0300
0000
0010
1000
0020
0000
0000
0000
,
0030
0000
0100
0001
0100
0000
0001
0000
0010
1000
0010
1000
0010
0000
0001
0000
,
0100
0001
0100
0001
0100
0000
0010
0000
1000
0001
1000
0001
1000
0000
0100
0000
,
0001
0000
0000
0010
1000
0000
0001
0000
0100
0000
0000
0001
1000
0000
0000
0100
,
0010
0100
0010
0100
0020
0000
0000
0000
0030
0000
1000
0001
2000
0000
0000
0000
,
3000
0000
0100
0001
0100
0000
0001
0000
0010
1000
0010
1000
0010
0000
0100
0000
,
0001
0000
0000
0000
;
