#TITLE:Light The Way;
#SUBTITLE:(Craig's Higher Forces Extended Mix);
#ARTIST:Craig Connelly ft. Kat Marsh;
#GENRE:Vocal Trance;
#CREDIT:B. M'Rey;
#MUSIC:Light The Way (Craig's Higher Forces Extended Mix).ogg;
#BANNER:Light The Way (Craig's Higher Forces Extended Mix)-bn.png;
#BACKGROUND:Light The Way (Craig's Higher Forces Extended Mix)-bg.png;
#CDTITLE:./CDTITLES/BMR Superstars.PNG;
#SAMPLESTART:292.7;
#SAMPLELENGTH:12;
#OFFSET:-0.052;
#BPMS:0=138;

//--------------- dance-single - B. M'Rey ----------------
#NOTES:
     dance-single:
     B. M'Rey:
     Beginner:
     2:
     0.147894,0.279538,0.044341,0.225558,0,537,514,23,117,0,0,0.147894,0.279538,0.044341,0.225558,0,537,514,23,117,0,0:
0000
0000
0000
0000
,
0000
0000
0000
0000
,
0000
0000
0000
0000
,
0000
0000
0000
0000
,
0000
1000
0000
0010
,
0000
0001
0000
1000
,
0000
1000
0000
0001
,
0000
0100
0000
0010
,
0000
0100
0000
0010
,
0000
0100
0000
0010
,
0000
0010
0000
0100
,
0000
0100
0000
0010
,
0000
0010
0000
0010
,
0000
0010
0000
0010
,
0000
0010
0000
0001
,
0000
0010
0000
0010
,
0000
1000
0000
0010
,
0000
0001
0000
0010
,
0000
0100
0000
0010
,
0000
0010
0000
0010
,
0000
0001
0000
0010
,
0000
0010
0000
1000
,
0000
0010
0000
0010
,
0000
0100
0000
1000
,
0000
0100
0000
1000
,
0000
0100
0000
0010
,
0000
0100
0000
0100
,
0000
0100
0000
0001
,
0000
1010
0000
0110
,
0000
0110
0000
0110
,
0000
1000
0000
0001
,
0000
0001
0000
0100
,
0000
0100
0000
1000
,
0000
0100
0000
0100
,
0000
0010
0000
0010
,
0000
1000
0000
1000
,
0000
0010
0000
0100
,
0000
0001
0000
0100
,
0000
0010
0000
0100
,
0000
0100
0000
0100
,
0000
0100
0000
0100
,
0000
0100
0000
0001
,
0000
0001
0000
0100
,
0000
0100
0000
0001
,
0000
0100
0000
0100
,
0000
0010
0000
0100
,
0000
0010
0000
1000
,
0000
0100
0200
0000
,
0000
0000
2300
3000
0000
0000
0020
0030
,
0000
0000
0200
0300
0000
0000
0002
0003
,
0000
0000
2000
3000
0000
0000
0020
0030
,
0000
0000
0200
0300
0000
0000
0002
0003
,
0000
0000
0200
0300
0000
0000
0200
0300
,
0000
0000
0020
0030
0000
0000
0020
0030
,
0000
0000
0002
0003
0000
0000
2000
3000
,
0000
0000
0020
0030
0000
0000
2000
3000
,
0000
0000
0020
0030
0000
0000
0020
0030
,
0000
0000
0020
0030
0000
0000
0020
0030
,
0000
0000
0200
0300
0000
0000
0020
0030
,
0000
0000
0020
0030
0000
0000
0002
0003
,
0000
0000
0002
0003
0000
0000
0020
0030
,
0000
0000
0002
0003
0000
0000
0002
0003
,
0000
1000
0000
0010
,
0000
0000
0000
0000
0010
0000
0000
0000
0400
0000
0000
0000
0000
0300
0000
0000
,
0000
0000
2000
3000
0000
0000
0020
0030
,
0000
0000
0200
0300
0000
0000
0002
0003
,
0000
0000
2000
3000
0000
0000
0020
0030
,
0000
0000
0200
0300
0000
0000
0002
0003
,
0000
0000
0200
0300
0000
0000
0200
0300
,
0000
0000
0020
0030
0000
0000
0020
0030
,
0000
0000
0002
0003
0000
0000
2000
3000
,
0000
0000
0020
0030
0000
0000
2000
3000
,
0000
0000
0020
0030
0000
0000
0020
0030
,
0000
0000
0020
0030
0000
0000
0020
0030
,
0000
0000
0200
0300
0000
0000
0020
0030
,
0000
0000
0020
0030
0000
0000
0002
0003
,
0000
0000
0002
0003
0000
0000
0020
0030
,
0000
0000
0002
0003
0000
0000
0002
0003
,
0000
0000
2000
3000
0000
0000
0020
0030
,
0000
0000
2000
3000
0000
0000
0200
0300
,
0000
0010
0000
0100
,
0000
0010
0000
0100
,
0000
0100
0000
0010
,
0000
0010
0000
0100
,
0000
0100
0000
0010
,
0000
1000
0000
0100
,
0000
0010
0000
0100
,
0000
0100
0000
1000
,
0000
0100
0000
0100
,
0000
1000
0000
0010
,
0000
0010
0000
0100
,
0000
0100
0000
0010
,
0000
0001
0000
0001
,
0000
0100
0000
0001
,
0000
0100
0000
0100
,
0000
0100
0000
0100
,
0000
0001
0000
0100
,
0000
0001
0000
0001
,
0000
0010
0000
0001
,
0000
0001
0000
0010
,
0000
1010
0000
0110
,
0000
0110
0000
0110
,
0000
1000
0000
0001
,
0000
0001
0000
0100
,
0000
0010
0000
0010
,
0000
0010
0000
0100
,
0000
0001
0000
1000
,
0000
0010
0000
0010
,
0000
1000
0000
0100
,
0000
0010
0000
0001
,
0000
0100
0000
0010
,
0000
0100
0000
0010
,
0000
0100
0000
1000
,
0000
0100
0000
0100
,
0000
0010
0000
0010
,
0000
1000
0000
1000
,
0000
0010
0000
0100
,
0000
0001
0000
0100
,
0000
0010
0000
0100
,
0000
0100
0000
0100
,
0000
0010
0000
0100
,
0000
0010
0000
0100
,
0000
0100
0000
0010
,
0000
0010
0000
0100
,
0000
0100
0000
0010
,
0000
1000
0000
0100
,
0000
0010
0000
0100
,
0000
0100
0000
1000
,
0000
0100
0000
0100
,
0000
1000
0000
0010
,
0000
0010
0000
0100
,
0000
0100
0000
0010
,
0000
0001
0000
0001
,
0000
0100
0000
0001
,
0000
0100
0000
0100
,
0000
0100
0000
0100
,
0000
0001
0000
0100
,
0000
0001
0000
0001
,
0000
0010
0000
0001
,
0000
0001
0000
0010
,
0000
1000
0000
0010
,
0000
0100
0000
0001
,
0000
1000
0000
0100
,
0000
0100
0000
0010
,
0000
0010
0000
0010
,
0000
0010
0000
0010
,
0000
1000
0000
0010
,
0000
1000
0000
0010
,
0000
1010
0000
0110
,
0000
0110
0000
0110
,
0000
1000
0000
0001
,
0000
0001
0000
0100
,
0000
0020
0000
0000
,
0000
0000
0000
0000
,
0000
0000
0000
0000
,
0000
0000
0000
0000
,
0000
0000
0000
0000
,
0000
0000
0000
0000
,
0000
0000
0000
0000
,
0000
0000
0000
0000
,
0000
0000
2030
3000
0000
0000
0020
0030
,
0000
0000
0200
0300
0000
0000
0002
0003
,
0000
0000
2000
3000
0000
0000
0020
0030
,
0000
0000
0200
0300
0000
0000
0002
0003
,
0000
0000
0200
0300
0000
0000
0200
0300
,
0000
0000
0020
0030
0000
0000
0020
0030
,
0000
0000
0002
0003
0000
0000
2000
3000
,
0000
0000
0020
0030
0000
0000
2000
3000
,
0000
2000
0000
0000
,
0000
3020
0000
0000
,
0032
0023
0000
0000
,
0000
0230
0000
0000
,
0302
0000
0000
0000
,
0000
0023
0000
0000
,
0032
0000
0000
0000
,
0000
0203
0302
0000
,
0000
0203
0000
0000
,
0000
2300
0000
0000
,
3020
0032
0000
0000
,
0000
2003
0000
0000
,
3200
0000
0000
0000
,
0000
0320
0000
0000
,
0230
0000
0000
0000
,
0000
0302
0000
0000
,
0000
1003
0000
0000
,
0000
1000
0000
0010
,
0000
0100
0000
0000
,
0000
0001
0000
0000
,
0000
0100
0000
0000
,
0000
0010
0000
0000
,
0100
0010
0000
0000
,
0000
1000
0000
0000
,
0000
1000
0000
0000
,
0000
0100
0000
0000
,
0000
0010
0000
0000
,
0000
0010
0000
0000
,
0000
0010
0000
0000
,
0000
0010
0000
0000
,
0000
0010
0000
0000
,
0000
1000
0000
0000
,
0000
1010
0000
0110
,
0000
0110
0000
0110
,
0000
1100
0000
0110
,
0000
0110
0000
0110
,
0000
1000
0000
0001
,
0000
0001
0000
0100
,
0000
0100
0000
1000
,
0000
0100
0000
0100
,
0000
0010
0000
0010
,
0000
1000
0000
1000
,
0000
0010
0000
0100
,
0000
0001
0000
0100
,
0000
0010
0000
0100
,
0000
0100
0000
0100
,
0000
0100
0000
0100
,
0000
0100
0000
0001
,
0000
0001
0000
0100
,
0000
0100
0000
0001
,
0000
0100
0000
0100
,
0000
0010
0000
0100
,
0000
0010
0000
1000
,
0000
0100
0000
1000
,
0000
0100
0000
0100
,
0000
0100
0000
1000
,
0000
1000
0000
0010
,
0000
1000
0000
1000
,
0000
1000
0000
0100
,
0000
1000
0000
1000
,
0000
1000
0000
0001
,
0000
0010
0000
1000
,
0000
0100
0000
0100
,
0000
0001
0000
1000
,
0000
0010
0000
1000
,
0000
0001
0000
0010
,
0000
0100
0000
0001
,
0000
0001
0000
1000
,
0000
0010
0000
0110
,
0000
0110
0000
0110
,
0000
1000
0000
0001
,
0000
0001
0000
0100
,
0000
0002
0000
0000
,
0000
2003
0000
0000
,
0000
3020
0000
0000
,
0032
0023
0000
0000
,
0000
0230
0000
0000
,
0302
0000
0000
0000
,
0000
0023
0000
0000
,
0032
0000
0000
0000
,
0000
0203
0302
0000
,
0000
0203
0000
0000
,
0000
2300
0000
0000
,
3020
0032
0000
0000
,
0000
2003
0000
0000
,
3200
0000
0000
0000
,
0000
0320
0000
0000
,
0230
0000
0000
0000
,
0000
0301
0000
1000
,
0000
0010
0000
1000
,
0000
0010
0000
0100
,
0000
0001
0000
0100
,
0000
0010
0000
0100
,
0000
0100
0000
0100
,
0000
0100
0000
0100
,
0000
0100
0000
0001
,
0000
0001
0000
0100
,
0000
0100
0000
0001
,
0000
0100
0000
0100
,
0000
0010
0000
0100
,
0000
0010
0000
1000
,
0000
0100
0000
1000
,
0000
0100
0000
0100
,
0000
0100
0000
1000
,
0000
1000
0000
0010
,
0000
0001
0000
0010
,
0000
0100
0000
0010
,
0000
0010
0000
0010
,
0000
0001
0000
0010
,
0000
0010
0000
1000
,
0000
0010
0000
0010
,
0000
0100
0000
1000
,
0000
0100
0000
1000
,
0000
0100
0000
0010
,
0000
0100
0000
0100
,
0000
0100
0000
0001
,
0000
1000
0000
0010
,
0000
0001
0000
0010
,
0000
0100
0000
0010
,
0000
0010
0000
0010
,
0000
0200
0000
0000
,
0000
0000
0000
0000
,
0000
0300
0000
0000
;

//--------------- dance-single - B. M'Rey ----------------
#NOTES:
     dance-single:
     B. M'Rey:
     Easy:
     4:
     0.286699,0.503168,0.092537,0.372075,0.000964,1041,993,48,193,0,1,0.286699,0.503168,0.092537,0.372075,0.000964,1041,993,48,193,0,1:
0000
0000
0000
0000
,
0000
0000
0000
0000
,
0000
0000
0000
0000
,
0000
0000
0000
0000
,
0000
0001
1000
0001
,
1000
0010
1000
0010
,
0100
0010
0100
0001
,
0100
0001
0010
0100
,
0010
0100
0010
0001
,
1000
0001
1000
0001
,
0010
0100
0010
0100
,
0010
0001
1000
0001
,
1000
0010
1000
0010
,
0100
0001
0100
0001
,
0100
0010
1000
0010
,
0100
0010
1000
0100
,
1000
0100
1000
0010
,
0100
0001
1000
0010
,
1000
0100
1000
0001
,
0010
0001
0010
0100
,
0010
0100
1000
0100
,
1000
0001
1000
0001
,
0010
0001
0010
0100
,
1000
0100
1000
0100
,
0010
0001
0010
0001
,
0010
0100
1000
0100
,
0010
0001
0010
0001
,
0010
0100
1000
0100
,
1000
1001
1001
0011
,
0110
0101
0101
0011
,
1100
2000
0000
0000
,
0000
0200
0000
0000
,
0000
3301
1000
0001
,
1000
0001
0010
0100
,
0010
0100
0010
0001
,
1000
0010
1000
0010
,
1000
0001
0010
0001
,
0010
0001
1000
0100
,
1000
0100
1000
0001
,
0100
0010
1000
0010
,
0100
0010
0100
0001
,
0010
0001
0010
0001
,
1000
0010
1000
0010
,
1000
0001
0010
0001
,
0010
0100
0010
0100
,
1000
0100
1000
0001
,
1000
0001
0010
0001
,
0100
0000
0010
0000
0200
0000
0000
0002
,
0000
1303
0010
0100
,
0010
0100
0010
0001
,
0100
0001
0100
0001
,
0010
0100
0010
0100
,
0010
0001
1000
0001
,
0100
0001
0100
0010
,
0100
0010
1000
0010
,
1000
0100
0010
0100
,
1000
0100
1000
0001
,
0100
0001
0100
0001
,
1000
0100
1000
0100
,
1000
0010
0100
0010
,
0100
0010
1000
0001
,
1000
0010
1000
0010
,
0100
0010
0100
0001
,
0100
0000
0001
0000
2000
0000
0000
0020
,
0000
3031
1000
0001
,
0100
0001
0100
0001
,
0010
0100
0010
0100
,
0010
0001
1000
0001
,
1000
0001
0100
0010
,
0100
0010
0100
0001
,
0010
0001
0010
0001
,
1000
0010
1000
0010
,
1000
0000
0100
0000
0000
0010
0000
0000
,
0010
0000
0000
0100
0000
0000
0001
0000
,
0000
0100
0001
0000
0000
1000
0000
0000
,
1000
0000
0000
0100
0000
0000
0100
0000
,
0000
0010
0100
0000
0000
0010
0000
0000
,
0010
0000
0000
0001
0000
0000
0001
0000
,
0000
0100
0010
0000
0000
0100
0000
0000
,
1000
0000
0000
0010
0000
0000
0001
0000
,
0000
1000
0001
0000
0100
0000
0001
0000
,
1000
0010
1000
0010
,
1000
0100
0010
0100
,
0010
0100
1000
0001
,
0010
0001
0010
0001
,
1000
0100
1000
0001
,
1000
0010
0100
0010
,
0100
0010
1000
0100
,
1000
0000
1000
0010
,
0100
0010
0100
0010
,
1000
0001
1000
0001
,
1000
0010
0100
0001
,
0100
0010
0100
0010
,
1000
0010
1000
0001
,
0010
0001
0010
0001
,
1000
0100
1000
0100
,
1000
0001
0100
0001
,
0100
0001
1000
0010
,
0100
0010
0100
0001
,
0010
0001
1000
0001
,
0100
1010
1010
0110
,
1001
1001
0011
0110
,
1100
1100
0101
0110
,
0110
0011
0110
0110
,
1001
0001
1000
0001
,
1000
0001
0010
0100
,
0010
0100
0010
0001
,
0100
0001
1000
0100
,
1000
0100
0010
0100
,
0010
0001
0010
0001
,
1000
0001
0010
0100
,
0010
0000
0100
0000
0010
0000
0000
1000
,
0000
0000
0001
0000
0100
0000
0001
0010
,
0100
0000
0010
0000
0100
0000
0010
0100
,
1000
0000
0010
0000
1000
0000
0001
0010
,
0100
0000
0001
0000
0100
0000
0001
1000
,
0010
0000
0100
0000
1000
0000
0100
0001
,
1000
0000
0100
0000
0010
0000
0001
1000
,
0010
0000
0001
0000
0010
0000
0100
0001
,
1000
0000
0100
0000
1000
0000
0000
0100
,
0000
0001
0010
0001
,
0010
0100
1000
0100
,
1000
0010
1000
0010
,
0100
0010
1000
0001
,
0010
0001
0010
0001
,
1000
0010
1000
0010
,
1000
0001
0100
0001
,
0100
0001
0010
0100
,
0010
0100
1000
0100
,
1000
0001
1000
0001
,
0100
0001
0100
0010
,
0100
0010
1000
0010
,
1000
0001
0100
0001
,
0100
0001
1000
0010
,
1000
0010
1000
0100
,
0010
0100
0010
0100
,
1000
0010
1000
0010
,
1000
0100
0010
0100
,
1000
0100
1000
0001
,
1000
0010
0100
0010
,
0100
0001
0100
0001
,
1000
0001
1000
0010
,
1000
0010
0100
0010
,
1000
0100
1000
0100
,
1000
0001
0010
0001
,
0010
0001
0100
0010
,
0100
0010
0100
0001
,
1000
0001
1000
0001
,
0100
1001
0011
0011
,
0110
1100
1100
1010
,
0110
1010
1001
1001
,
0110
0110
1100
1001
,
0101
0020
0000
0000
,
0000
0000
0000
0000
,
0000
0000
0000
0000
,
0000
0000
0000
0000
,
0000
0000
0000
0000
,
0000
0000
0000
0000
,
0000
0000
0000
0000
,
0000
0000
0000
0000
,
0000
0031
1000
0001
,
0100
0001
0100
0010
,
0100
0010
1000
0001
,
1000
0001
1000
0100
,
0010
0001
0010
0001
,
0010
0100
1000
0100
,
1000
0100
0010
0001
,
0100
0001
0100
0001
,
1000
2000
0000
0000
,
0000
3020
0000
0000
,
0032
0023
0000
0000
,
0000
0230
0000
0000
,
0302
0000
0000
0000
,
0000
0023
0000
0000
,
0032
0000
0000
0000
,
0000
0203
0302
0000
,
0000
0203
0000
0000
,
0000
2300
0000
0000
,
3020
0032
0000
0000
,
0000
2003
0000
0000
,
3200
0000
0000
0000
,
0000
0320
0000
0000
,
0230
0000
0000
0000
,
0000
0302
0000
0000
,
0000
1003
0010
0000
,
0010
1000
0010
0000
,
0010
0100
0001
0000
,
0010
0001
0100
0000
,
0001
0100
0010
0000
,
0001
0010
0010
0000
,
0100
0010
0001
0000
,
0100
1000
0001
0000
,
0001
1000
0001
1000
,
0100
1000
0100
0010
,
0100
0010
0001
0010
,
0001
0100
0001
1000
,
0010
1000
0010
1000
,
0100
0010
0100
1000
,
0100
1000
0001
1000
,
0001
0100
0001
0100
,
0010
1001
1010
1010
,
0011
1001
1001
1100
,
0110
0011
0011
1100
,
1100
0110
0011
0011
,
1100
1100
0110
1001
,
1001
1010
0110
0110
,
1001
1001
0110
0110
,
1100
1001
1001
0110
,
0110
0001
1000
0001
,
1000
0001
0100
0010
,
0100
0010
0100
0001
,
1000
0001
1000
0100
,
1000
0100
0010
0001
,
0010
0001
0010
0100
,
1000
0100
1000
0100
,
0010
0001
0010
0001
,
0010
0100
1000
0010
,
1000
0010
0100
0010
,
0100
0001
0100
0001
,
1000
0001
1000
0010
,
1000
0010
0100
0010
,
0100
0001
0100
0001
,
1000
0100
0010
0100
,
1000
0100
1000
0001
,
1000
0100
0010
0100
,
0010
0100
1000
0010
,
1000
0010
1000
0100
,
0010
0100
0010
0100
,
1000
0001
0010
0001
,
0010
0001
1000
0010
,
0100
0010
0100
0010
,
1000
0001
1000
0001
,
0100
0001
0100
0010
,
1000
0010
1000
0010
,
0100
0001
0010
0001
,
1000
0001
0100
0010
,
0100
0010
1000
0001
,
1000
0001
1000
0100
,
0010
0100
0010
0100
,
1000
0010
1000
0010
,
1000
0002
0000
0000
,
0000
2003
0000
0000
,
0002
3023
0000
0000
,
0000
0230
0000
0000
,
0302
0000
0000
0000
,
0000
0023
0000
0000
,
0032
0000
0000
0000
,
0000
0203
0302
0000
,
0000
0203
0000
0000
,
0000
2300
0000
0000
,
3020
0032
0000
0000
,
0000
2003
0000
0000
,
3200
0000
0000
0000
,
0000
0320
0000
0000
,
0230
0000
0000
0000
,
0000
0302
0000
0000
,
0000
0013
1000
0100
,
1000
0100
1000
0010
,
0100
0001
0100
0001
,
0100
0010
1000
0010
,
1000
0010
0100
0001
,
0100
0001
0010
0001
,
0010
0100
0010
0100
,
1000
0100
1000
0001
,
0100
0001
0010
0100
,
0010
0100
0010
0001
,
1000
0001
1000
0001
,
0100
0010
0100
0010
,
0100
0001
1000
0010
,
1000
0010
1000
0001
,
0010
0001
1000
0001
,
1000
0100
0000
0100
,
0010
0001
0010
0100
,
1000
0000
1000
0001
,
1000
0000
0010
0001
,
0010
0000
0010
0100
,
1000
0000
1000
0100
,
1000
0000
0100
0010
,
0100
0000
1000
0001
,
1000
0000
1000
0010
,
0100
0000
0100
0001
,
0100
0000
1000
0100
,
1000
0000
1000
0010
,
0100
0000
0100
0001
,
0100
0000
1000
0010
,
1000
0000
0100
0001
,
0010
0000
1000
0010
,
1000
0000
0100
0010
,
1000
0020
0000
0000
,
0000
0000
0000
0000
,
0000
0030
0000
0000
;

//--------------- dance-single - B. M'Rey ----------------
#NOTES:
     dance-single:
     B. M'Rey:
     Medium:
     7:
     0,0,0,0,0:
0000
0000
0000
0000
,
0000
0000
0000
0000
,
0000
0000
0000
0000
,
0000
0000
0000
0000
,
0000
0100
1000
0001
,
1000
0100
1000
0100
,
0010
0100
0010
0001
,
0010
0001
1000
0010
,
1000
0000
0010
0000
1000
0000
0001
1000
,
0010
0000
0001
0000
0010
0000
0001
1000
,
0100
0000
0010
0000
0100
0000
0001
1000
,
0100
0000
0001
0000
0010
0000
0001
1000
,
0010
0000
0100
0000
0010
0000
0100
0001
,
1000
0000
0100
0000
1000
0000
0010
0001
,
1000
0000
0010
0000
0100
0000
0010
0001
,
0100
0000
0001
0000
0100
0000
0001
0100
,
1000
0000
0001
0000
0100
0000
0001
1000
,
0001
1000
0001
0000
0010
0000
0010
0100
,
0001
1000
0100
0000
0100
0000
0100
1000
,
0001
1000
0001
0000
0100
0000
0100
0010
,
0100
1000
0010
0000
0001
0000
0001
1000
,
0100
0010
0001
0000
0001
0000
0100
1000
,
0100
1000
0010
0000
0010
0000
0001
0010
,
0100
0010
0100
0000
0001
0000
0001
0100
,
0010
0100
0001
0000
0001
0000
0100
0010
,
0001
1000
0001
0000
0001
0000
0010
0100
,
0010
0100
0001
0000
0100
0000
0001
1000
,
0100
1000
0100
0000
0001
0100
0010
0000
,
0001
0010
0110
0000
1001
0000
0110
0000
,
0110
0101
1010
0101
,
1010
0000
0001
1000
0001
0100
0010
1000
,
0100
0010
0001
0100
0001
1000
0010
0100
,
0010
0000
0100
1000
0001
0100
0001
0100
,
0001
1000
0100
1000
0100
1000
0001
0010
,
0001
0100
0001
0100
0010
0100
0010
1000
,
0010
1000
0100
1000
0100
0010
0100
0010
,
0001
1000
0001
0010
0001
0010
0100
0010
,
0100
1000
0100
1000
0010
1000
0010
0100
,
0010
0100
0001
0100
0001
1000
0100
1000
,
0100
1000
0010
0100
0010
0100
0010
1000
,
0100
1000
0100
0010
0100
0010
0001
0010
,
0001
0100
0001
0100
0010
1000
0010
1000
,
0010
0100
0001
0100
0010
0100
0010
1000
,
0010
0100
0001
0100
0001
0100
0010
1000
,
0010
0100
0010
0100
0001
0100
0001
1000
,
0001
0100
0010
0100
0001
0100
0001
1000
,
0001
0100
0010
1000
0010
1000
0010
0100
,
0001
0100
0001
0100
0010
0000
0001
0000
,
0010
0000
0100
1000
0010
0000
0010
1000
,
0100
0000
0100
0010
0100
0000
0010
0100
,
0001
0000
0001
1000
0001
0000
0100
0010
,
0100
0000
0001
0100
0010
0000
0001
0100
,
0001
0000
0100
0010
0100
0000
0010
0100
,
0001
0000
0100
1000
0010
0000
0001
0100
,
0001
0000
0010
0100
0001
0000
0010
0100
,
0001
0000
0010
1000
0001
0000
0100
0000
,
0100
0000
0100
0010
0001
0000
0001
0100
,
0010
0000
0010
1000
0001
0000
0001
1000
,
0100
0000
0100
0010
0001
0000
0001
1000
,
0100
0000
0001
0100
0001
0000
0100
0010
,
0100
0000
0010
0100
0001
0000
0100
0010
,
0001
0000
0100
1000
0010
0000
0010
0100
,
0001
0000
0001
1000
0100
0000
0001
1000
,
0001
1000
0100
1000
0010
0100
0001
0010
,
0001
0100
0001
0000
0010
0000
0100
0000
,
0010
0100
1000
0100
,
1000
0010
0100
0001
,
1000
0001
1000
0001
,
0010
0100
0010
0001
,
0010
0001
0100
0001
,
0100
0010
0100
0010
,
1000
0100
0010
0100
,
0010
0000
0100
0000
0000
0010
0000
0000
,
1000
0000
0000
0010
0000
0000
0100
0000
,
0000
0001
0010
0000
0000
0100
0000
0000
,
0010
0000
0000
0100
0000
0000
0001
0000
,
0000
1000
0100
0000
0000
0010
0000
0000
,
1000
0000
0000
0100
0000
0000
0010
0000
,
0000
0001
0010
0000
0000
0001
0000
0000
,
0010
0000
0000
1000
0000
0000
0010
0000
,
0000
0010
0100
0010
,
1000
0000
0100
0010
1000
0000
0100
0000
,
1000
0010
0001
0000
0100
0000
0001
0000
,
0100
0000
0001
0010
1000
0000
0010
0100
,
1000
0010
0100
0010
,
0100
0001
0100
0010
,
1000
0100
0010
0000
0100
0000
0010
0000
,
0100
0010
0001
0000
0100
0000
0001
0000
,
0200
0301
0010
0100
,
0010
0000
0001
0100
1000
0000
0001
0000
,
1000
0100
0010
0000
1000
0000
0010
0000
,
0100
0000
0010
0001
0100
0000
0001
1000
,
0100
0001
0010
0001
,
1000
0100
1000
0001
,
1000
0100
0001
0000
0010
0000
0100
0000
,
1000
0001
0100
0000
1000
0000
0100
0000
,
0010
1000
0001
0000
1000
0000
0100
0000
,
1000
0100
1000
0001
,
0010
1000
0100
0000
0010
0000
0100
0000
,
0010
0001
0100
0010
,
0100
0110
0101
1001
,
1100
0011
0101
1010
,
0110
0000
0001
1000
0100
1000
0010
0100
,
0001
0010
0001
0100
0001
1000
0100
0010
,
0100
0000
0101
0000
0010
0100
0001
0000
,
0001
1000
1001
0000
0100
0010
0100
0000
,
0100
1000
1001
0000
0010
1000
0010
0000
,
0010
1000
0011
0000
0001
0010
0001
0000
,
0010
0100
1010
0000
0010
1000
0100
0000
,
0100
0010
0110
0000
0001
0010
0001
0000
,
0001
0100
0110
0000
0010
1000
0010
0000
,
0001
1000
0101
0000
0001
0000
0000
0100
,
0000
0000
0001
0100
0001
1000
0010
1000
,
0100
1000
0001
0010
0100
0010
0100
0010
,
0001
0100
0001
0100
0001
1000
0010
1000
,
0001
1000
0100
0010
0100
0010
0100
1000
,
0010
1000
0010
1000
0001
0100
0001
1000
,
0001
1000
0010
1000
0010
0100
0010
0100
,
0001
0100
0001
0010
0001
0010
0100
0010
,
0100
1000
0100
1000
0002
0000
0000
0203
,
0000
0301
0100
0001
,
0100
0000
0010
1000
0100
0000
0010
0000
,
1000
0010
0001
0000
0100
0000
0001
0000
,
0100
0000
0010
0001
0100
0000
0010
0100
,
1000
0000
0010
0000
1000
0100
0001
0000
,
1000
0001
0100
0001
,
0100
0001
0010
0000
0100
0000
0010
0000
,
1000
0100
0010
0000
1000
0000
0001
0000
,
2000
3001
0010
0001
,
0010
0200
0310
0100
,
2000
3100
1000
0001
,
1000
0000
0001
0100
0010
0000
0001
1000
,
0010
0100
0010
0100
,
1000
0100
1000
0001
,
1000
0010
0001
0000
0010
0000
0001
0000
,
0010
1000
0100
0000
0010
0000
0100
0000
,
1000
0100
1000
0010
,
1000
0001
0100
0001
,
0100
0010
0001
0000
1000
0000
0100
0000
,
1000
0010
1000
0010
,
0100
0010
0100
0001
,
0100
0001
1000
0100
,
1000
0100
1000
0001
,
0100
0000
0001
1000
0010
0000
0001
0000
,
0010
1000
0100
0000
0010
0000
0100
0000
,
1000
0100
1000
0010
,
1000
0001
0010
0000
0100
0000
0010
0000
,
0100
0001
0100
0001
,
1000
1001
1001
0110
,
0110
1100
1001
1001
,
0110
0000
0100
0010
0100
1000
0001
1000
,
0001
1000
0010
0100
0010
0100
0010
1000
,
0001
1000
0020
0000
0000
0000
0000
0000
,
0000
0000
0000
0000
,
0000
0000
0000
0000
,
0000
0000
0000
0000
,
0000
0000
0000
0000
,
0000
0000
0000
0000
,
0000
0000
0000
0000
,
0000
0000
0000
0000
,
0000
1030
0100
0001
,
0100
0001
1000
0001
,
1000
0010
1000
0010
,
0100
0010
0100
0001
,
0100
0010
1000
0010
,
0100
0010
0100
0001
,
0100
0010
1000
0010
,
0100
0001
0100
0010
,
0100
0020
0000
0000
,
0000
0032
0000
0000
,
0203
0302
0000
0000
,
0000
0000
0023
0000
0000
2030
0000
0000
,
3200
0000
0000
2300
0000
0000
0000
0000
,
0000
0000
3002
0000
0000
0203
0000
0000
,
0320
0000
0000
2030
0000
0000
0000
3100
,
0000
0002
0000
0000
,
0000
0203
0000
0000
,
0000
0320
0000
0000
,
1030
0002
0000
0000
,
0000
0000
0203
0000
0000
2300
0000
0000
,
3020
0000
0000
0230
0000
0000
0000
0000
,
0000
0000
0302
0000
0000
2003
0000
0000
,
3020
0000
0000
0230
0000
0000
0000
0000
,
0000
0302
0000
0000
,
0000
0013
0000
0010
,
1000
0001
0000
0001
,
1000
0001
0000
0010
,
1000
0010
0000
0010
,
0100
0001
0000
0001
,
0010
0001
0000
0100
,
1000
0100
0000
0100
,
0010
0001
0000
0001
,
0010
0100
0000
0100
,
1000
0100
0000
0001
,
0010
0001
0000
0100
,
1000
0100
0000
0001
,
0010
0001
0000
0100
,
1000
0100
0000
0100
,
0010
0001
0000
0001
,
0010
0100
0000
0100
,
1000
0110
0110
1100
,
0110
0011
0110
1001
,
0110
0011
0110
0101
,
0110
1010
1100
1001
,
0110
0000
0001
0010
0001
1000
0010
0100
,
0010
1000
0100
0010
0001
0010
0100
1000
,
0001
0100
0010
0100
0001
0010
0001
0100
,
0010
0100
0001
0000
1000
0000
0010
0000
,
0100
0000
0001
1000
0001
0000
0100
1000
,
0100
0010
0100
0010
0001
0000
0100
1000
,
0010
1000
0010
1000
0100
0000
0100
0010
,
0100
1000
0001
1000
0010
0000
0010
0100
,
0010
0100
0001
0100
0001
0000
0001
0010
,
0100
0010
0100
1000
0001
0000
0100
1000
,
0100
0010
0100
0010
0001
0000
0001
1000
,
0001
0000
0010
1000
0010
0000
0010
0000
,
0001
0000
0001
1000
0100
0000
0100
1000
,
0001
0000
0001
0010
0001
0100
0010
0100
,
0010
1000
0010
1000
0001
0000
0010
0100
,
0010
0000
0010
1000
0001
1000
0001
1000
,
0100
0010
0100
0010
0001
0000
0001
0100
,
0010
0000
0010
0100
0001
1000
0010
1000
,
0010
0100
0010
0100
0001
0000
0001
0010
,
0001
0000
0100
0010
0100
0000
0100
1000
,
0000
1000
0010
0100
0010
0000
0001
0100
,
0001
0000
0001
1000
0100
1000
0100
0010
,
0100
0010
0001
0010
0001
0000
0001
0100
,
0010
0000
0010
1000
0010
0100
0001
0100
,
0001
0100
0010
1000
0010
0000
0010
0100
,
0001
0000
0001
0100
0010
1000
0100
1000
,
0010
1000
0010
0100
0010
0000
0001
1000
,
0010
0000
0010
1000
0001
0100
0001
0100
,
0001
1000
0010
1000
0010
0000
0100
0010
,
0001
0000
0001
0010
0100
1000
0100
1000
,
0100
0010
0001
0010
0100
0000
0100
1000
,
0100
0000
0010
1000
0010
0100
0010
0100
,
0001
0100
1010
0000
1010
0000
0110
0000
,
0101
0101
1010
1001
,
1001
0000
0010
0100
0010
0100
0010
1000
,
0100
1000
0100
1000
0001
0100
0001
0100
,
0001
0100
0020
0000
0000
0000
0000
0000
,
0000
0032
0000
0000
,
0203
0302
0000
0000
,
0000
0000
0023
0000
0000
2030
0000
0000
,
3200
0000
0000
2300
0000
0000
0000
0000
,
0000
0000
3002
0000
0000
0203
0000
0000
,
0320
0000
0000
2030
0000
0000
0000
3100
,
0000
0002
0000
0000
,
0000
0203
0000
0000
,
0000
0320
0000
0000
,
1030
0002
0000
0000
,
0000
0000
0203
0000
0000
2300
0000
0000
,
3020
0000
0000
0230
0000
0000
0000
0000
,
0000
0000
0302
0000
0000
2003
0000
0000
,
3020
0000
0000
0230
0000
0000
0000
0000
,
0000
0302
0000
0000
,
0000
0000
0103
1000
0100
0000
0010
1000
,
0001
0000
0010
0100
0010
0000
0001
0010
,
0001
0000
0001
1000
0010
0000
0010
1000
,
0100
0000
0100
1000
0100
0000
0001
0010
,
0100
0000
0001
0100
0010
0000
0010
0100
,
0001
0000
0001
1000
0001
0000
0100
0010
,
0100
0000
0100
1000
0010
0000
0010
0100
,
0010
0000
0001
0100
0001
0000
0001
0010
,
0100
0000
0100
1000
0010
0000
0010
1000
,
0001
0000
0001
0010
0001
0000
0010
0100
,
0010
0000
0010
1000
0001
0000
0001
0100
,
0001
0000
0100
1000
0100
0000
0001
0010
,
0001
0000
0001
1000
0100
0000
0100
1000
,
0010
0000
0001
0100
0001
0000
0010
1000
,
0010
0000
0010
0100
0001
0000
0001
0100
,
0010
1000
0000
0001
,
0010
0000
0001
0000
0100
0000
0001
1000
,
0001
1000
0001
0000
0010
0000
0010
0100
,
0001
1000
0100
0000
0100
0000
0100
1000
,
0001
1000
0001
0000
0100
0000
0100
0010
,
0100
1000
0010
0000
0001
0000
0001
1000
,
0100
0010
0001
0000
0001
0000
0100
1000
,
0100
1000
0010
0000
0010
0000
0001
0010
,
0100
0010
0100
0000
0001
0000
0001
0100
,
0010
0100
0001
0000
0001
0000
0100
0010
,
0001
1000
0001
0000
0001
0000
0010
0100
,
0010
0100
0001
0000
0100
0000
0001
1000
,
0100
1000
0100
0000
0001
0000
0100
0000
,
0001
1000
0001
1000
0001
0000
0010
0000
,
0010
0100
0001
1000
0100
0000
0100
0000
,
0100
1000
0001
1000
0001
0000
0100
0000
,
0100
0010
0100
1000
0010
0000
0001
0000
,
0001
1000
0200
0000
0000
0000
0000
0000
,
0000
0000
0000
0000
,
0000
0300
0000
0000
;

//--------------- dance-single - B. M'Rey ----------------
#NOTES:
     dance-single:
     B. M'Rey:
     Hard:
     9:
     0.556047,0.950429,0.177362,0.632334,0.218811,2019,1927,92,328,0,11,0.556047,0.950429,0.177362,0.632334,0.218811,2019,1927,92,328,0,11:
0000
0000
0000
0000
,
0000
0000
0000
0000
,
0000
0000
0000
0000
,
0000
0000
0000
0000
,
0000
0001
1000
0001
,
1000
0001
0100
0010
,
0100
0010
1000
0010
,
1000
0100
1000
0001
,
0100
0000
0001
0000
0010
0000
1000
0001
,
0100
0000
0001
0000
0010
0000
1000
0010
,
0001
0000
1000
0000
0100
0000
0001
0010
,
1000
0000
0001
0000
0100
0000
1000
0001
,
0010
0000
1000
0000
0100
0000
1000
0001
,
0010
0000
1000
0000
0100
0000
1000
0001
,
0010
0000
1000
0000
0100
0000
0010
1000
,
0001
0000
1000
0000
0100
0000
1000
0001
,
0010
0000
0010
0100
0010
0100
0001
1000
,
0001
0010
0001
0010
0100
0010
0100
1000
,
0010
1000
0010
1000
0100
0010
0001
0100
,
0010
1000
0001
0010
0001
1000
0010
0100
,
0001
0100
0010
0100
0001
1000
0010
1000
,
0100
1000
0001
0010
0100
1000
0100
1000
,
0001
0010
0100
0010
0001
1000
0010
1000
,
0001
1000
0100
0010
0001
1000
0001
1000
,
0100
0010
0001
0010
0100
1000
0010
0100
,
0010
0100
0001
0010
0100
0010
0100
1000
,
0001
1000
0010
1000
0100
0010
0001
0010
,
0001
1000
0010
0100
0010
0100
0001
0100
,
0001
0010
1001
1010
0101
0101
1001
1100
,
1100
0110
0101
0101
1010
1010
0110
0101
,
0101
0000
1010
0000
0010
1000
0010
0100
0001
0100
0001
0100
0010
1000
0010
1000
,
0010
0100
0001
0010
0001
0010
0001
1000
0010
1000
0010
0100
0010
0100
0001
0100
,
0001
1000
0001
1000
0001
0000
1000
0000
0001
0000
0010
0000
0100
0000
0001
0010
,
0001
0010
0001
1000
0001
0000
1000
0000
0001
0000
0100
0000
0001
0000
0010
1000
,
0010
0100
0010
0100
0001
0000
1000
0000
0001
0000
1000
0000
0001
0000
0010
1000
,
0001
1000
0001
0100
0001
0000
1000
0000
0010
0000
1000
0000
0001
0000
0010
0100
,
0010
1000
0010
0100
0001
0000
0010
0000
0001
0000
0010
0000
0100
0000
0010
0100
,
0001
0100
0010
0100
0001
0000
1000
0000
0001
0000
1000
0000
0001
0000
0100
0010
,
0100
1000
0100
1000
0001
0000
1000
0000
0010
0000
1000
0000
0001
0000
0100
1000
,
0010
1000
0001
0010
0001
0000
1000
0000
0001
0000
1000
0000
0001
0000
1000
0100
,
0001
1000
0100
1000
0010
0000
1000
0000
0010
0000
1000
0000
0010
0000
1000
0100
,
0010
1000
0001
1000
0001
0000
1000
0000
0001
0000
1000
0000
0001
0000
1000
0010
,
0001
0010
0001
0100
0001
0000
1000
0000
0001
0000
0100
0000
0001
0000
1000
0010
,
0001
0100
0001
0100
0001
0000
1000
0000
0001
0000
1000
0000
0001
0000
0100
1000
,
0010
0100
0010
0100
0010
0000
1000
0000
0010
0000
1000
0000
0010
0000
0001
1000
,
0001
1000
0001
1000
0010
0000
0100
0000
0001
0000
0100
0000
0001
0000
0100
0010
,
0100
0010
0001
1000
0100
0000
1000
0000
0100
0000
0010
0000
0100
0000
0001
1000
,
0100
0010
0100
1000
0010
0000
0010
0000
0200
0000
0000
0000
0000
0000
4300
0000
,
0000
0000
0000
0000
0001
3000
1000
0000
0001
0000
1000
0000
0001
0000
0100
0000
,
0010
0100
0010
0100
0001
1000
0001
0010
,
0001
0100
0010
0100
0010
0100
0001
1000
,
0001
1000
0001
0100
0010
0100
0010
0100
,
0001
1000
0001
0100
0001
0100
0010
0100
,
0010
1000
0010
1000
0001
1000
0001
0010
,
0001
1000
0100
1000
0100
1000
0001
0010
,
0001
0010
0001
0100
0010
0000
0001
1000
,
0000
1000
0110
0010
0100
0010
0100
1000
,
0001
1000
0001
1000
0100
0010
0100
0010
,
0001
0010
0001
0100
0010
1000
0010
1000
,
0010
0100
0001
0100
0010
0100
0010
1000
,
0010
1000
0001
1000
0010
0100
0010
0100
,
0010
1000
0001
1000
0001
1000
0100
0010
,
0100
0010
0100
1000
0001
1000
0001
1000
,
0100
0010
0100
0010
0100
0000
0001
1000
,
0000
1000
0001
1000
0001
1000
0001
0100
,
0010
0100
0001
0100
0010
1000
0001
1000
,
0001
0010
0100
1000
0100
1000
0100
0010
,
0001
0010
0001
0010
0100
1000
0100
1000
,
0100
0010
0001
0010
0001
0010
0100
1000
,
0010
0100
0001
0100
0001
0100
0010
1000
,
0010
1000
0010
0100
0001
1000
0010
1000
,
0010
0100
0001
0100
0001
0100
0010
1000
,
0010
1000
0100
0000
1000
0000
0100
0000
,
1000
0100
0010
0001
,
0010
0001
0010
0100
,
1000
0100
1000
0001
,
1000
0001
0010
0001
,
0010
0100
0010
0100
,
1000
0100
1000
0001
,
1000
0001
0100
0001
,
0100
0000
0001
0010
0100
0000
0010
1000
,
0100
0002
1000
0010
,
2003
0010
0001
0010
,
3001
0010
0200
0000
0300
0010
0000
0100
,
0010
0000
0010
0000
0001
1000
0001
0000
,
0001
0100
0010
0000
0010
1000
0100
0000
,
0100
0010
0100
0010
0001
0010
0001
0000
,
0001
0010
0100
0010
0100
0010
0001
0000
,
0101
0000
0001
1000
0001
1000
0001
0100
,
0010
0100
0002
0000
1000
0000
1000
0000
,
2003
0001
0001
0001
,
3001
1000
0001
1000
0001
0100
0000
0100
,
0010
0100
0001
0000
0001
0100
0001
0000
,
0010
0100
0010
0000
0010
0100
0001
0000
,
0001
1000
0001
1000
0010
1000
0000
0100
,
0010
0100
0001
0000
0100
0010
0000
0010
,
0001
0100
0001
0000
1000
0000
0100
0000
,
1000
0100
1000
0010
,
0100
0010
0100
0010
,
1000
0100
1000
0100
,
0010
0000
1001
1001
0011
0110
0110
1001
,
1001
0101
0110
0110
1001
1001
0101
1010
,
1010
0000
0110
0000
0001
0100
0001
0100
0010
1000
0010
1000
0010
0100
0001
0100
,
0001
0100
0010
1000
0010
1000
0010
0100
0001
0100
0010
0100
0001
0010
0001
0010
,
0001
1000
0010
0100
0001
0010
0000
0000
1000
0000
0000
1000
0000
0001
0000
0000
,
0010
0000
0100
0000
0010
0100
0000
0000
0010
0000
0000
1000
0000
0001
0000
0000
,
1000
0000
0010
0000
1000
0010
0000
0000
0010
0000
0000
0100
0000
0001
0000
0000
,
0100
0000
0001
0000
1000
0001
0000
0000
1000
0000
0000
1000
0000
0001
0000
0000
,
0100
0000
0010
0000
0100
0001
0000
0000
0100
0000
0000
1000
0000
0010
0000
0000
,
0100
0000
0001
0000
0100
0001
0000
0000
0100
0000
0000
1000
0000
0010
0000
0000
,
1000
0000
0010
0000
0100
0001
0000
0000
0100
0000
0000
0100
0000
0010
0000
0000
,
1000
0000
0001
0000
1000
0001
0000
0000
1000
0000
0000
0010
0000
0100
0000
0000
,
0010
0000
0100
0000
0001
0010
0001
0010
0001
0000
0100
0000
0100
1000
0001
0010
,
0100
0000
0100
0000
0001
1000
0001
1000
0001
0100
0000
0010
0000
0001
0000
1000
,
0001
0000
0001
0000
0010
0100
0010
0100
0001
0000
0001
0000
0001
0100
0010
0100
,
0010
0000
0001
0000
0001
1000
0001
0100
0010
0100
0000
0001
0000
0010
0000
0010
,
0001
0000
0010
0000
0010
0100
0010
1000
0001
0000
0001
0000
0010
0100
0010
0100
,
0010
0000
0001
0000
0001
1000
0001
1000
0010
1000
0000
0100
0000
0001
0000
0100
,
0010
0000
0100
0000
0010
0100
0001
0100
0001
0000
0100
0000
0100
1000
0010
0100
,
0001
0000
0001
1000
0001
0000
0000
0000
1000
0000
0000
0000
0001
0000
0000
0000
,
1000
0000
0001
1000
0001
1000
0001
0100
,
0010
0100
0002
0000
1000
0000
0010
0000
,
0203
0001
0010
0001
,
0310
0000
0010
1000
0100
0000
0100
0010
,
0100
0000
0001
1000
0001
1000
0100
0000
,
0001
0010
0001
0000
0100
1000
0001
0000
,
0010
1000
0001
0100
0001
0100
0001
0000
,
0100
1000
0100
1000
0100
0010
0000
0000
,
0011
0000
0001
0100
0010
0000
0010
1000
,
0010
0002
1000
1000
,
2003
0001
0001
0001
,
3010
1000
0001
0000
0100
1000
0000
1000
,
0100
0010
0001
0000
0001
1000
0001
0000
,
0010
1000
0100
0000
0001
0010
0100
0000
,
0001
1000
0100
0010
0100
1000
0000
0010
,
0001
1000
0001
0100
0001
0100
0000
0100
,
0010
0000
0001
0010
0001
0010
0001
1000
,
0010
1000
0010
1000
0001
0100
0010
0100
,
0001
0100
0001
0010
0001
1000
0100
1000
,
0001
1000
0100
0010
0100
1000
0100
1000
,
0010
1000
0010
0100
0001
1000
0010
0100
,
0010
0100
0010
1000
0100
1000
0100
1000
,
0001
0100
0001
0100
0001
0010
0100
0010
,
0100
0010
0001
1000
0001
1000
0001
0100
,
0010
0100
0001
0100
0001
0010
0001
0010
,
0100
0010
0100
1000
0100
1000
0010
1000
,
0010
0100
0010
0100
0001
0100
0001
1000
,
0001
1000
0100
1000
0100
0010
0100
0010
,
0001
0010
0110
1010
0101
0110
0110
0011
,
0110
0110
0101
0101
1001
1100
0110
1100
,
1001
0000
1001
0000
0010
0100
0010
1000
0010
1000
0001
1000
0001
0100
0001
0100
,
0010
0100
0010
1000
0010
0100
0001
0100
0001
0100
0010
1000
0010
1000
0010
0100
,
0001
0100
0001
0000
0440
0000
0000
0000
0000
0000
0000
0000
0000
0000
0000
0000
,
0000
0000
0000
0000
,
0000
0000
0000
0000
,
0000
0000
0000
0000
,
0000
0000
0000
0000
,
0000
0000
0000
0000
,
0000
0000
0000
0000
,
0000
0000
0000
0000
,
0000
0300
1030
0000
0100
1000
0000
0010
,
0001
0000
0001
0100
0000
0100
0010
0000
,
0010
1000
0010
0000
0100
1000
0000
0010
,
0001
0000
0001
0100
0000
1000
0001
0000
,
0010
1000
0010
0000
0010
0100
0000
1000
,
0001
0000
0001
0010
0000
0010
0100
0000
,
0100
1000
0010
1000
0000
0010
0100
0000
,
0100
1000
0000
1000
0010
0000
0001
0010
,
0000
0010
0002
0000
0000
0000
0000
0000
,
0000
0403
0000
0000
,
4300
3400
0000
0000
,
0000
0000
0340
0000
0000
0430
0000
0000
,
4300
0000
0000
3004
0000
0000
0000
0000
,
0000
0000
0403
0000
0000
0340
0000
0000
,
4030
0000
0000
3004
0000
0000
0000
4003
,
0000
3004
0043
0000
0000
0000
0000
0000
,
0000
0400
0000
0000
,
0000
0334
0000
0000
,
0403
4300
0000
0000
,
0000
0000
3004
0000
0000
0403
0000
0000
,
0340
0000
0000
4030
0000
0000
0000
0000
,
0000
0000
3400
0000
0000
0304
0000
0000
,
0043
0000
0000
4030
0000
0000
0000
0000
,
0000
3004
4003
0000
0000
0000
0000
0000
,
0000
0000
0000
0000
3001
0010
0000
0000
1000
0000
0000
1000
0000
0001
0000
0000
,
0010
0000
0100
0000
0010
0100
0000
0000
0010
0000
0000
1000
0000
0001
0000
0000
,
1000
0000
0010
0000
1000
0010
0000
0000
0010
0000
0000
0100
0000
0001
0000
0000
,
0100
0000
0001
0000
1000
0001
0000
0000
1000
0000
0000
1000
0000
0001
0000
0000
,
0100
0000
0010
0000
0100
0001
0000
0000
0100
0000
0000
1000
0000
0010
0000
0000
,
0100
0000
0001
0000
0100
0001
0000
0000
0100
0000
0000
1000
0000
0010
0000
0000
,
1000
0000
0010
0000
0100
0001
0000
0000
0100
0000
0000
0100
0000
0010
0000
0000
,
1000
0000
0001
0000
1000
0001
0000
0000
1000
0000
0000
0010
0000
0100
0000
0000
,
0010
0000
0100
0000
0010
0001
0000
0000
1000
0000
0000
1000
0000
0001
0000
0010
,
0100
0000
0010
0000
0100
0010
0000
0000
0001
0000
0000
0100
0000
0001
0000
0100
,
0001
0000
0010
0000
0100
0010
0000
0000
0100
0000
0000
0010
0000
0001
0000
1000
,
0001
0000
0100
0000
0001
0100
0000
0000
0010
0000
0000
0100
0000
0010
0000
1000
,
0010
0000
1000
0000
0100
1000
0000
0000
0100
0000
0000
0010
0000
0100
0000
0010
,
0001
0000
1000
0000
0001
1000
0000
0000
0001
0000
0000
0100
0000
0010
0000
1000
,
0010
0000
0100
0000
0010
0100
0000
0000
0001
0000
0000
0100
0000
0001
0000
1000
,
0001
0000
1000
0000
0010
1000
0000
0000
0010
0000
0000
0100
0000
0010
0000
0100
,
0001
1001
1001
0101
0110
0110
1001
1001
,
0011
0110
0110
1001
1001
1001
0110
0110
,
1001
1010
0110
0110
0101
1010
1010
0110
,
0101
0101
1010
1010
0110
0101
0101
1010
,
1010
0000
0001
1000
0001
1000
0001
0010
0100
0000
0100
0010
0001
0100
0001
0100
,
0001
0000
0100
1000
0100
1000
0001
0100
0001
0000
0001
1000
0100
1000
0010
0100
,
0010
0000
0010
0100
0001
0100
0001
0100
0010
0000
0010
1000
0010
0100
0001
1000
,
0001
1000
0001
0010
0100
0010
0100
1000
0100
1000
0001
0100
0010
0100
0001
0100
,
0001
1000
0001
1000
0001
0010
0001
0010
0001
0000
0100
0000
0100
1000
0001
0010
,
0100
0000
0100
0000
0001
1000
0001
1000
0001
0100
0000
0010
0000
0001
0000
1000
,
0001
0000
0001
0000
0010
0100
0010
0100
0001
0000
0001
0000
0001
0100
0010
0100
,
0010
0000
0001
0000
0001
1000
0001
0100
0010
0100
0000
0001
0000
0010
0000
0010
,
0001
0000
0010
0000
0010
0100
0010
1000
0001
0000
0001
0000
0010
0100
0010
0100
,
0010
0000
0001
0000
0001
1000
0001
1000
0010
1000
0000
0100
0000
0001
0000
0100
,
0010
0000
0100
0000
0010
0100
0001
0100
0001
0000
0100
0000
0100
1000
0010
0100
,
0001
0000
0001
1000
0001
0000
0010
0000
0100
0000
0001
0000
0100
0000
0010
0000
,
1000
0000
0100
0000
1000
0010
1000
0010
1000
0000
0100
0000
0100
0001
1000
0010
,
0100
0000
0100
0000
1000
0001
1000
0001
1000
0100
0000
0010
0000
1000
0000
0001
,
1000
0000
1000
0000
0010
0100
0010
0100
1000
0000
1000
0000
1000
0100
0010
0100
,
0010
0000
1000
0000
1000
0001
1000
0100
0010
0100
0000
1000
0000
0010
0000
0010
,
1000
0000
0010
0000
0010
0100
0010
0001
1000
0000
1000
0000
0010
0100
0010
0100
,
0010
0000
1000
0000
1000
0001
1000
0001
0010
0001
0000
0100
0000
1000
0000
0100
,
0010
0000
0100
0000
0010
0100
1000
0100
1000
0000
0100
0000
0100
0001
0010
0100
,
1000
0000
1000
0001
1010
0000
1000
0000
0200
0000
0000
0000
0000
0300
0020
0000
,
0000
0000
0000
0000
0031
0010
0001
0010
0001
0000
0100
0000
0100
1000
0001
0010
,
0100
0000
0100
0000
0001
1000
0001
1000
0001
0100
0000
0010
0000
0001
0000
1000
,
0001
0000
0001
0000
0010
0100
0010
0100
0001
0000
0001
0000
0001
0100
0010
0100
,
0010
0000
0001
0000
0001
1000
0001
0100
0010
0100
0000
0001
0000
0010
0000
0010
,
0001
0000
0010
0000
0010
0100
0010
1000
0001
0000
0001
0000
0010
0100
0010
0100
,
0010
0000
0001
0000
0001
1000
0001
1000
0010
1000
0000
0100
0000
0001
0000
0100
,
0010
0000
0100
0000
0010
0100
0001
0100
0001
0000
0100
0000
0100
1000
0010
0100
,
0001
0000
0001
1000
0001
0000
0010
0000
0100
0000
0001
0000
0100
0000
0010
0000
,
1000
0000
0100
0000
1000
0010
1000
0010
1000
0000
0100
0000
0100
0001
1000
0010
,
0100
0000
0100
0000
1000
0001
1000
0001
1000
0100
0000
0010
0000
1000
0000
0001
,
1000
0000
1000
0000
0010
0100
0010
0100
1000
0000
1000
0000
1000
0100
0010
0100
,
0010
0000
1000
0000
1000
0001
1000
0100
0010
0100
0000
1000
0000
0010
0000
0010
,
1000
0000
0010
0000
0010
0100
0010
0001
1000
0000
1000
0000
0010
0100
0010
0100
,
0010
0000
1000
0000
1000
0001
1000
0001
0010
0001
0000
0100
0000
1000
0000
0100
,
0010
0000
0100
0000
0001
0010
0001
0010
0001
1000
0010
1000
0010
1000
0001
0010
,
0100
0010
0100
0010
0001
1000
0010
0000
0200
0000
0000
0000
0000
0000
0320
0000
,
0000
2030
0000
0000
,
0000
3400
0000
0000
,
4300
3400
0000
0000
,
0000
0000
0340
0000
0000
0430
0000
0000
,
4300
0000
0000
3004
0000
0000
0000
0000
,
0000
0000
0403
0000
0000
0340
0000
0000
,
4030
0000
0000
3004
0000
0000
0000
4003
,
0000
3004
0043
0000
0000
0000
0000
0000
,
0000
0400
0000
0000
,
0000
0334
0000
0000
,
0403
4300
0000
0000
,
0000
0000
3004
0000
0000
0403
0000
0000
,
0340
0000
0000
4030
0000
0000
0000
0000
,
0000
0000
3400
0000
0000
0304
0000
0000
,
0043
0000
0000
4030
0000
0000
0000
0000
,
0000
3004
4003
0000
0000
0000
0000
0000
,
0000
0000
0000
0000
3001
0000
1000
0000
0001
0000
0010
0000
0100
0000
0001
0010
,
0001
0010
0001
1000
0001
0000
1000
0000
0001
0000
0100
0000
0001
0000
0010
1000
,
0010
0100
0010
0100
0001
0000
1000
0000
0001
0000
1000
0000
0001
0000
0010
1000
,
0001
1000
0001
0100
0001
0000
1000
0000
0010
0000
1000
0000
0001
0000
0010
0100
,
0010
1000
0010
0100
0001
0000
0010
0000
0001
0000
0010
0000
0100
0000
0010
0100
,
0001
0100
0010
0100
0001
0000
1000
0000
0001
0000
1000
0000
0001
0000
0100
0010
,
0100
1000
0100
1000
0001
0000
1000
0000
0010
0000
1000
0000
0001
0000
0100
1000
,
0010
1000
0001
0010
0001
0000
1000
0000
0001
0000
1000
0000
0001
0000
1000
0100
,
0001
1000
0100
1000
0010
0000
1000
0000
0010
0000
1000
0000
0010
0000
1000
0100
,
0010
1000
0001
1000
0001
0000
1000
0000
0001
0000
1000
0000
0001
0000
1000
0010
,
0001
0010
0001
0100
0001
0000
1000
0000
0001
0000
0100
0000
0001
0000
1000
0010
,
0001
0100
0001
0100
0001
0000
1000
0000
0001
0000
1000
0000
0001
0000
0100
1000
,
0010
0100
0010
0100
0010
0000
1000
0000
0010
0000
1000
0000
0010
0000
0001
1000
,
0001
1000
0001
1000
0010
0000
0100
0000
0001
0000
0100
0000
0001
0000
0100
0010
,
0100
0010
0001
1000
0100
0000
1000
0000
0100
0000
0010
0000
0100
0000
0001
1000
,
0100
0010
0100
1000
0010
0000
0010
0000
0001
0000
0000
0000
1000
0000
0000
0000
,
0001
0000
0001
1000
0100
0010
0100
0010
,
0100
1000
0001
1000
0001
1000
0100
0010
,
0100
0010
0100
1000
0010
1000
0010
1000
,
0001
0010
0001
0010
0001
0100
0010
1000
,
0010
1000
0001
1000
0001
0010
0001
0010
,
0100
0010
0100
1000
0100
1000
0010
1000
,
0010
0100
0010
0100
0001
0100
0001
1000
,
0001
1000
0100
1000
0100
0010
0100
0010
,
0001
0010
0001
0100
0001
0100
0010
0100
,
0010
1000
0010
1000
0100
1000
0100
0010
,
0100
0010
0001
0010
0001
0100
0001
0100
,
0010
0100
0010
1000
0010
0100
0001
0100
,
0001
0100
0010
1000
0001
0010
0001
0010
,
0001
1000
0010
1000
0010
1000
0001
0010
,
0001
0010
0001
0100
0010
1000
0100
1000
,
0100
1000
0010
0100
0010
0100
0010
1000
,
0001
0010
0020
0000
0000
0000
0000
0000
,
0000
0000
0000
0000
,
0000
0030
0000
0000
;

//--------------- dance-single - B. M'Rey ----------------
#NOTES:
     dance-single:
     B. M'Rey:
     Challenge:
     13:
     0.764254,1.006337,0.190857,0.591849,0.745113,2775,2676,99,307,0,5,0.764254,1.006337,0.190857,0.591849,0.745113,2775,2676,99,307,0,5:
0000
0000
0000
0000
,
0000
0000
0000
0000
,
0000
0000
0000
0000
,
0000
0000
0000
0000
,
0000
0010
1000
0001
,
0010
0100
1000
0100
,
1000
0100
1000
0010
,
1000
0001
0100
0010
,
1000
0000
0001
0000
1000
0000
0001
0100
,
1000
0000
0001
0000
1000
0000
0010
0001
,
0100
0000
0010
0000
1000
0000
0010
0001
,
1000
0000
0001
0000
0010
0000
0100
1000
,
0010
0000
0001
0000
0010
0000
0100
0001
,
1000
0000
0010
0000
1000
0000
0001
1000
,
0010
0000
0001
0000
0100
0000
0001
0100
,
0010
0000
0001
0000
1000
0000
0100
0001
,
0010
0000
0000
0000
0010
0000
0100
0000
0010
0000
0100
0000
0010
0000
0100
0001
,
0100
0001
0100
0000
0010
0000
1000
0000
0001
0000
1000
0000
0100
0000
0010
0001
,
0010
0001
0010
0000
0001
0000
0100
0000
0010
0000
1000
0000
0010
0000
1000
0001
,
1000
0001
1000
0000
0001
0000
1000
0000
0010
0000
0100
0000
0001
0000
1000
0010
,
1000
0010
1000
0000
0001
0000
0010
0000
0001
0000
0100
0000
0010
0000
0100
0001
,
0100
0001
0100
0000
0001
0000
0100
0000
0010
0000
1000
0000
0010
0000
1000
0001
,
1000
0001
1000
0000
0100
0000
1000
0000
0100
0000
0010
0000
0001
0000
0100
0001
,
0100
0001
0100
0000
0010
0000
1000
0000
0001
0000
0100
0000
0010
0000
1000
0100
,
1000
0100
1000
0000
0100
0000
1000
0000
0010
0000
1000
0000
0001
0000
0100
0010
,
0100
0010
0100
0000
0001
0000
1000
0000
0010
0000
1000
0000
0001
0000
0010
0001
,
0010
0001
0010
0000
0001
0000
1000
0000
0010
0000
1000
0000
0010
0000
1000
0010
,
1000
0010
1000
0000
0001
0000
0010
0000
0001
0000
0100
0000
0001
0000
0010
0000
,
0001
0010
0101
1010
0110
0101
0110
0110
,
1001
1001
0110
1100
1001
0110
0110
0011
,
0101
0000
0101
0000
0001
0010
0100
1000
0001
1000
0010
1000
0010
1000
0001
0010
,
0001
0100
0001
0010
0100
0010
0100
1000
0010
0100
0010
0100
0001
0010
0100
0010
,
0001
0010
0001
0010
0001
1000
0001
1000
0100
1000
0100
1000
0100
0010
0100
1000
,
0010
1000
0010
1000
0010
1000
0001
0100
0001
0100
0001
0100
0001
0010
0100
0010
,
0100
0010
0100
0010
0001
1000
0001
1000
0001
1000
0001
0010
0100
0010
0100
0010
,
0100
0010
0001
0100
0001
0100
0001
0100
0001
0010
0100
1000
0100
1000
0100
1000
,
0100
0010
0001
0010
0001
0010
0001
0010
0100
1000
0100
1000
0100
1000
0100
0010
,
0001
0010
0001
0010
0100
0010
0100
1000
0100
1000
0010
1000
0010
0100
0010
0100
,
0010
0100
0001
0100
0001
0010
0001
0010
0001
0100
0010
0100
0010
0100
0001
0100
,
0001
1000
0001
1000
0001
1000
0100
1000
0100
0010
0100
0010
0100
0010
0001
0010
,
0001
1000
0001
0010
0001
0010
0100
0010
0100
0010
0001
0100
0010
1000
0010
0100
,
0010
0100
0010
0100
0001
0100
0001
0010
0100
0010
0100
0010
0100
0010
0001
1000
,
0001
1000
0001
1000
0001
0100
0010
0100
0010
0100
0010
0100
0001
0010
0001
0010
,
0001
0010
0001
0100
0010
0100
0010
0100
0010
0100
0001
1000
0001
1000
0010
1000
,
0010
0100
0010
0100
0010
1000
0100
1000
0100
1000
0100
1000
0001
0010
0001
0010
,
0001
1000
0001
1000
0100
0010
0100
0010
0100
0010
0100
1000
0010
1000
0010
1000
,
0010
1000
0100
0010
0100
0010
0100
0010
0100
1000
0010
0100
0010
0100
0010
0100
,
0010
1000
0001
1000
0001
1000
0010
0000
0400
0000
0000
0000
0000
0304
0000
0000
,
0000
0000
0013
1000
0100
0010
0100
0010
,
0100
0010
0001
0100
0010
1000
0010
1000
,
0010
1000
0001
0010
0001
0100
0001
0010
,
0100
0010
0100
0010
0001
1000
0100
0010
,
0001
0010
0100
0010
0001
0010
0001
0100
,
0001
0100
0001
0100
0010
0100
0010
1000
,
0001
0010
0001
1000
0001
0100
0010
1000
,
0010
0100
0001
0010
0001
1000
0001
1000
,
0010
0100
0001
1000
0001
1000
0001
1000
,
0100
0010
0100
0010
0001
0010
0001
1000
,
0001
0100
0001
0010
0001
1000
0100
0010
,
0100
0010
0001
0100
0010
1000
0010
0100
,
0001
0100
0001
1000
0010
0100
0001
0100
,
0010
0100
0010
1000
0001
0010
0001
1000
,
0100
0000
0010
0000
0100
1000
0100
0010
0100
0010
0100
0010
0100
0010
0001
0010
,
0001
1000
0001
1000
0001
1000
0001
0000
0200
0000
0000
0000
0000
0000
0320
0000
,
0000
0000
0130
1000
0100
1000
0100
1000
,
0100
1000
0100
1000
0001
0100
0001
0100
,
0001
0100
0010
0100
0010
0100
0010
1000
,
0010
0100
0010
0100
0001
0100
0001
0100
,
0001
0100
0001
0010
0001
0010
0100
0010
,
0100
0010
0100
0010
0001
0100
0001
0100
,
0001
0100
0001
0100
0001
0100
0010
1000
,
0001
1000
0010
1000
0010
0100
0010
1000
,
0010
1000
0010
0000
0100
0000
0010
0000
,
1000
0100
1000
0010
,
0100
0010
0001
0000
0010
0000
0100
0000
,
0010
0001
0100
0001
,
0010
1000
0001
0000
1000
0000
0001
0000
,
0100
0010
1000
0100
,
0010
0001
0100
0000
1000
0000
0001
0000
,
0100
0001
1000
0001
,
0020
0000
0031
1000
0100
1000
0001
0010
,
0001
1000
0100
1000
0010
0100
0001
0010
,
0100
0010
0001
0010
0100
0010
0001
1000
,
0001
1000
0100
0010
0100
0010
0100
0010
,
0001
0010
0001
1000
0001
0100
0010
1000
,
0010
1000
0100
0010
0100
1000
0010
0100
,
0010
1000
0100
1000
0001
0100
0010
1000
,
0010
0100
0001
1000
0001
0100
0001
0100
,
0002
0000
0103
1000
0010
1000
0001
1000
,
0001
0010
0100
1000
0010
1000
0100
0010
,
0100
0010
0100
0010
0001
1000
0010
1000
,
0010
1000
0100
1000
0010
0100
0001
0100
,
0001
1000
0010
0100
0001
0100
0010
0100
,
0010
0100
0001
0010
0100
0010
0100
1000
,
0100
1000
0010
1000
0010
1000
0100
0010
,
0001
0010
0100
1000
0100
1000
0100
0010
,
0001
1000
0100
0000
1000
0000
0010
0000
,
1000
0000
0010
0000
0100
0000
0010
0001
,
0100
1000
0010
0000
1000
0000
0100
0000
,
1000
0100
1000
0010
,
1000
0000
0110
0011
1100
0110
1001
0110
,
1100
1001
1010
1100
0101
0110
1010
0110
,
1100
0000
0110
0000
0001
1000
0001
1000
0001
1000
0001
1000
0001
1000
0010
0100
,
0010
0100
0010
0100
0010
0100
0001
0010
0001
0010
0001
0010
0001
1000
0100
0010
,
0001
0010
0001
0100
0001
1000
0100
0000
0010
1000
0100
0000
0001
0000
0100
0000
,
0010
0000
0100
0000
0001
0100
1000
0000
0010
0001
0100
0000
0001
0000
1000
0000
,
0001
0000
0010
0000
0100
0001
1000
0000
0100
0010
1000
0000
0001
0000
0100
0000
,
0010
0000
1000
0000
0001
0010
0100
0000
0001
0100
1000
0000
0100
0000
1000
0000
,
0100
0000
0010
0000
0100
0001
1000
0000
0010
1000
0100
0000
0001
0000
1000
0000
,
0010
0000
1000
0000
0001
0100
0010
0000
0100
0001
1000
0000
0001
0000
0100
0000
,
0001
0000
1000
0000
0010
0001
0100
0000
0010
0100
1000
0000
0001
0000
0010
0000
,
0100
0000
1000
0000
0010
0001
1000
0000
0100
1000
0010
0000
0001
0000
0010
0000
,
0100
0000
0010
0000
0001
0100
0001
0100
0001
1000
0001
1000
0001
1000
0100
1000
,
0100
1000
0100
0010
0100
0010
0100
0010
0001
0010
0001
1000
0001
1000
0001
1000
,
0001
0100
0010
0100
0010
0100
0010
0100
0010
0100
0010
1000
0100
1000
0100
1000
,
0100
1000
0100
1000
0100
0010
0001
0010
0100
0010
0100
0010
0100
0010
0100
1000
,
0001
1000
0001
0100
0001
0100
0001
0100
0001
0100
0010
0100
0010
1000
0010
1000
,
0010
1000
0010
1000
0100
1000
0100
0010
0100
0010
0100
0010
0100
0010
0001
0010
,
0001
1000
0001
1000
0001
0100
0001
0100
0010
0100
0010
1000
0010
1000
0010
1000
,
0010
1000
0001
0100
0001
0100
0001
0100
0001
1000
0100
1000
0100
1000
0010
1000
,
0001
1000
0100
0010
0001
0000
0100
0000
0001
0000
0010
0000
0100
0000
0010
0000
,
0001
0010
0001
0100
0001
0010
0100
0010
,
0001
0100
0010
1000
0001
0010
0001
0010
,
0001
1000
0010
0100
0001
0010
0100
0010
,
0100
1000
0010
1000
0001
0010
0001
0010
,
0100
1000
0010
0100
0010
1000
0001
0010
,
0100
0010
0001
1000
0010
0100
0001
0100
,
0001
1000
0001
0100
0001
1000
0010
0100
,
0002
0000
0013
0100
0010
1000
0001
1000
,
0100
0010
0001
0010
0100
0010
0100
0010
,
0001
0010
0100
1000
0001
0010
0100
0010
,
0100
0010
0001
1000
0100
1000
0100
0010
,
0100
0010
0100
0010
0001
0100
0010
0100
,
0001
0100
0010
1000
0001
0100
0010
1000
,
0001
0100
0001
1000
0010
1000
0001
0010
,
0100
1000
0100
1000
0100
1000
0001
0100
,
0010
0100
0001
0100
0010
0100
0001
1000
,
0100
0010
0001
1000
0010
1000
0100
1000
,
0100
1000
0100
0010
0001
0100
0010
0100
,
0010
0100
0010
1000
0100
0010
0100
1000
,
0001
1000
0010
0100
0010
1000
0010
0100
,
0001
0100
0001
1000
0001
0100
0010
1000
,
0001
0010
0100
1000
0001
0010
0001
0010
,
0100
0010
0001
1000
0001
0010
0001
0010
,
0100
1000
0100
0010
0001
1000
0100
0010
,
0001
1000
0001
0100
0010
0100
0001
0010
,
0001
0010
0001
1000
0001
0010
0100
1000
,
0001
0010
0001
1000
0010
1000
0010
1000
,
0100
1000
0110
0101
1010
0110
0101
1010
,
1001
1010
0110
0101
0101
1001
0110
0101
,
0110
0000
0011
0000
0001
1000
0001
1000
0001
1000
0001
1000
0100
1000
0100
0010
,
0100
0010
0100
0010
0100
1000
0010
1000
0010
1000
0010
1000
0010
1000
0010
0100
,
0001
0100
0001
0000
0220
0000
0000
0000
0000
0000
000M
0000
0000
0000
0000
0000
,
M000
0000
0000
000M
0000
0000
M000
0000
,
0000
000M
M000
0000
0000
000M
0000
0000
,
M000
0000
0000
000M
0000
0000
M000
0000
,
0000
000M
M000
0000
0000
000M
0000
0000
,
M000
0000
0000
000M
0000
0000
M000
0000
,
0000
000M
M000
0000
0000
000M
0000
0000
,
M000
0000
0000
000M
0000
0000
M000
0000
,
0000
000M
0331
0100
0001
0010
0100
1000
,
0001
1000
0100
1000
0010
0100
0001
0100
,
0001
1000
0010
1000
0001
0100
0001
0010
,
0100
1000
0100
0010
0100
0010
0100
0010
,
0001
0010
0001
1000
0010
1000
0010
1000
,
0001
0100
0010
0100
0001
0010
0001
0010
,
0001
1000
0100
1000
0001
1000
0010
1000
,
0010
1000
0100
0010
0100
1000
0010
1000
,
0001
0100
0020
M000
000M
M000
0M00
M000
,
0M00
000M
0230
00M0
000M
00M0
M000
00M0
,
0302
0M00
2003
00M0
000M
0M00
00M0
0M00
,
00M0
0M00
3040
0M00
003M
0M04
M000
00M3
,
0040
0M00
000M
0230
000M
00M0
000M
M000
,
00M0
M000
0304
0M00
00M0
4003
0M00
000M
,
3400
00M0
000M
4300
0M00
00M0
000M
31M0
,
000M
1000
004M
0M00
000M
M000
0M00
M000
,
000M
M000
2032
00M0
0M00
00M0
0M00
0M00
,
00M0
00M0
3203
M000
00M0
000M
00M0
M000
,
0302
00M0
0203
M000
00M0
M000
00M0
000M
,
00M0
M000
0304
0M00
00M0
0403
000M
M000
,
0340
0M00
000M
4030
0M00
000M
00M0
000M
,
00M0
0M00
3040
0M00
000M
4030
000M
00M0
,
3004
0M00
M000
0043
0M00
M000
000M
0M30
,
0020
2000
000M
000M
0M00
0M00
000M
000M
,
0M00
0000
3M30
0000
0001
0100
0000
0000
0001
0000
0010
0100
0000
0010
0000
1000
,
0010
0000
0001
0000
0100
1000
0000
0000
0001
0000
0001
0100
0000
0010
0000
0010
,
0100
0000
0100
0000
0001
1000
0000
0000
0010
0000
0001
0010
0000
1000
0000
0010
,
0001
0000
0010
0000
0100
1000
0000
0000
0010
0000
0100
0010
0000
0100
0000
0100
,
0001
0000
0100
0000
0010
0100
0000
0000
0010
0000
0001
0010
0000
1000
0000
1000
,
0100
0000
0001
0000
0100
0010
0000
0000
0010
0000
0010
0100
0000
1000
0000
0100
,
0001
0000
0100
0000
0010
1000
0000
0000
0001
0000
0100
0010
0000
1000
0000
0100
,
0010
0000
0010
0000
0001
0100
0000
0000
0010
0000
0001
0010
0000
0100
0000
1000
,
0100
0000
0010
0000
0001
0010
0100
0000
0001
0000
0010
1000
0000
0100
0000
0100
,
0001
0000
0100
0000
0100
1000
0010
0000
0010
0000
0010
0100
0000
0100
0000
0010
,
0100
0000
0010
0000
0001
0010
0100
0000
0001
0000
0010
1000
0000
0010
0000
1000
,
0010
0000
0001
0000
0001
1000
0010
0000
0010
0000
0001
0100
0000
0100
0000
0100
,
0010
0000
0001
0000
0010
1000
0001
0000
0100
0000
0001
0100
0000
0100
0000
0010
,
0100
0000
0001
0000
0010
1000
0010
0000
0100
0000
0001
0100
0000
1000
0000
0010
,
0100
0000
0001
0000
0010
0100
0001
0000
0100
0000
0010
0100
0000
1000
0000
1000
,
0001
0000
0001
0000
0100
1000
0001
0000
0100
0000
0010
1000
0000
0010
0000
0100
,
0010
0100
0110
0011
1100
0110
0101
1010
,
1100
1001
0110
0110
1100
1010
0110
0101
,
1010
1001
0110
0101
0101
1010
0110
0101
,
0011
1001
0110
0011
1100
0110
1001
0110
,
0011
0000
0101
0000
0001
1000
0001
1000
0001
1000
0001
1000
0001
1000
0010
0100
,
0010
1000
0010
1000
0010
1000
0010
1000
0001
0010
0100
0010
0100
1000
0100
0010
,
0100
0010
0100
1000
0001
1000
0001
1000
0001
1000
0010
1000
0010
0100
0010
0100
,
0010
0000
0100
0000
0010
0100
1000
0010
0001
0000
0010
0000
0001
1000
0010
0100
0001
0000
1000
0000
0001
1000
0001
1000
0001
0000
1000
0000
0010
0000
1000
0000
,
0100
1000
0001
0100
0001
1000
0010
1000
0010
1000
0010
1000
0010
1000
0010
1000
,
0010
1000
0100
0010
0100
1000
0100
1000
0001
1000
0001
0010
0001
0010
0001
0010
,
0001
0010
0001
1000
0001
1000
0100
1000
0100
0010
0100
0010
0100
0010
0100
0010
,
0100
1000
0100
1000
0010
1000
0010
1000
0010
1000
0010
1000
0010
1000
0010
0100
,
0010
0100
0001
0100
0001
0100
0001
0100
0001
0100
0010
0100
0010
1000
0001
1000
,
0001
1000
0001
1000
0001
0010
0001
0010
0001
0010
0001
0010
0100
0010
0100
0010
,
0100
0010
0001
0100
0001
0100
0001
0010
0001
0010
0001
0010
0001
0010
0001
0010
,
0100
0010
0100
0010
0001
1000
0001
1000
0100
1000
0100
1000
0100
1000
0001
1000
,
0001
1000
0100
0010
0100
0010
0100
0010
0100
0010
0100
1000
0100
1000
0100
1000
,
0010
0100
0010
0100
0010
0100
0010
0100
0010
0100
0010
0100
0010
1000
0001
0100
,
0001
0100
0001
0100
0010
0100
0010
0100
0010
0100
0010
0100
0001
1000
0001
1000
,
0001
1000
0001
0010
0001
0010
0001
0010
0001
0010
0100
0010
0100
0010
0100
0010
,
0001
1000
0010
1000
0001
0010
0001
0010
0001
0010
0100
0010
0100
0010
0100
0010
,
0100
1000
0100
1000
0100
1000
0100
1000
0010
1000
0010
1000
0010
1000
0001
0100
,
0001
0100
0001
0100
0001
1000
0001
0010
0100
0010
0001
0010
0100
0010
0100
1000
,
0100
1000
0100
1000
0010
1000
0010
1000
0010
1000
0100
1000
0100
0010
0100
0010
,
0100
0010
0100
0010
0100
0010
0001
0010
0001
0010
0001
0100
0001
1000
0001
0010
,
0001
1000
0100
1000
0100
0010
0100
0010
0100
1000
0001
1000
0001
1000
0001
0010
,
0001
0010
0001
0010
0001
0010
0001
0010
0100
0010
0001
1000
0001
0100
0001
0100
,
0001
0100
0001
0100
0001
0100
0001
0100
0010
0100
0010
1000
0010
1000
0010
1000
,
0010
1000
0010
1000
0010
1000
0100
1000
0100
0010
0100
0010
0100
0010
0001
0010
,
0001
0010
0100
0010
0100
0010
0100
1000
0010
1000
0010
1000
0100
1000
0100
0010
,
0100
0010
0100
0010
0100
1000
0100
1000
0100
1000
0010
1000
0010
1000
0010
1000
,
0010
1000
0010
0100
0010
0100
0010
0100
0001
0100
0001
0100
0001
0100
0001
0010
,
0001
0010
0001
0010
0001
0010
0100
0010
0100
1000
0100
1000
0100
0010
0001
0010
,
0001
0010
0001
0010
0001
0010
0001
0010
0001
0010
0100
1000
0100
1000
0100
1000
,
0100
1000
0100
1000
0100
1000
0100
0010
0001
0010
0001
0010
0001
0010
0001
0010
,
0001
0010
0001
0010
0100
1000
0100
1000
0100
1000
0100
1000
0100
1000
0100
1000
,
0100
0010
0001
1000
0110
0000
0101
0000
1010
0000
0011
0000
0101
0000
1001
0000
,
1100
1010
0110
1001
0110
1010
0110
0011
,
0110
0000
1001
0000
0100
0010
0100
0010
0100
0010
0100
0010
0001
0010
0001
0010
,
0001
1000
0001
1000
0001
0100
0001
0100
0001
1000
0100
1000
0100
1000
0100
1000
,
0100
1000
0100
1000
0020
0000
M000
0000
000M
0000
M000
0000
0M00
0000
M000
0000
,
0M00
000M
0230
00M0
000M
00M0
M000
00M0
,
0302
0M00
2003
00M0
000M
0M00
00M0
0M00
,
00M0
0M00
3040
0M00
003M
0M04
M000
00M3
,
0040
0M00
000M
0230
000M
00M0
000M
M000
,
00M0
M000
0304
0M00
00M0
4003
0M00
000M
,
3400
00M0
000M
4300
0M00
00M0
000M
31M0
,
000M
1000
004M
0M00
000M
M000
0M00
M000
,
000M
M000
2032
00M0
0M00
00M0
0M00
0M00
,
00M0
00M0
3203
M000
00M0
000M
00M0
M000
,
0302
00M0
0203
M000
00M0
M000
00M0
000M
,
00M0
M000
0304
0M00
00M0
0403
000M
M000
,
0340
0M00
000M
4030
0M00
000M
00M0
000M
,
00M0
0M00
3040
0M00
000M
4030
000M
00M0
,
3004
0M00
M000
0043
0M00
M000
000M
0M30
,
0020
2000
000M
000M
0M00
0M00
000M
000M
,
0M00
0000
3M30
0000
0001
1000
0001
1000
0001
0010
0100
0010
0100
1000
0100
1000
,
0010
1000
0010
0100
0010
0100
0001
0100
0001
1000
0001
0100
0010
1000
0010
1000
,
0010
0100
0001
0100
0001
0100
0010
1000
0010
1000
0010
0100
0001
0100
0001
0100
,
0010
1000
0010
1000
0010
0100
0001
0100
0001
0100
0010
1000
0010
1000
0010
0100
,
0001
0100
0001
0010
0001
1000
0010
1000
0010
1000
0001
0100
0010
0100
0010
0100
,
0001
1000
0001
1000
0001
0100
0010
0100
0010
0100
0001
0010
0001
0010
0001
1000
,
0100
1000
0100
1000
0001
0010
0001
0010
0001
0100
0010
0100
0010
0100
0001
1000
,
0001
1000
0100
0010
0100
0010
0100
1000
0010
1000
0010
1000
0001
0100
0010
1000
,
0010
1000
0100
1000
0010
0100
0010
0100
0001
0100
0001
0010
0100
0010
0100
0010
,
0001
1000
0001
0100
0001
0100
0010
0100
0001
1000
0100
1000
0100
1000
0001
0010
,
0001
0010
0001
0100
0010
0100
0010
0100
0001
1000
0001
0100
0001
0010
0100
0010
,
0100
1000
0010
1000
0001
1000
0001
0100
0001
0100
0010
0100
0010
1000
0001
1000
,
0100
1000
0100
0010
0100
0010
0001
0010
0001
1000
0001
1000
0010
1000
0010
0100
,
0010
0100
0001
0100
0001
0010
0001
0010
0100
0010
0100
1000
0100
1000
0001
0100
,
0001
0100
0001
0010
0100
0010
0100
0010
0001
1000
0001
1000
0001
0100
0010
0100
,
0010
0100
0001
0010
0100
1000
0100
1000
0010
1000
0010
0100
0010
1000
0001
0100
,
0001
1000
0010
1000
0001
0000
0100
0000
0010
0000
0001
0000
0010
0000
0010
0100
,
0010
0100
0010
0000
0001
0000
1000
0000
0010
0000
0100
0000
0010
0000
0010
0001
,
0010
0001
0010
0000
0100
0000
1000
0000
0010
0000
0100
0000
0010
0000
0010
0001
,
0010
0001
0010
0000
0010
0000
1000
0000
0100
0000
1000
0000
0010
0000
0100
0010
,
0100
0010
0100
0000
0001
0000
0010
0000
0001
0000
1000
0000
0010
0000
0100
0010
,
0100
0010
0100
0000
0010
0000
0100
0000
1000
0000
0100
0000
1000
0000
0001
0010
,
0001
0010
0001
0000
0010
0000
0100
0000
0010
0000
0001
0000
0010
0000
1000
0100
,
1000
0100
1000
0000
0100
0000
0010
0000
0100
0000
0001
0000
1000
0000
0010
0100
,
0010
0100
0010
0000
0100
0000
0010
0000
1000
0000
0100
0000
1000
0000
0001
0010
,
0001
0010
0001
0000
0100
0000
0010
0000
0100
0000
0001
0000
0010
0000
1000
0100
,
1000
0100
1000
0000
0100
0000
0010
0000
0100
0000
1000
0000
0100
0000
0001
0010
,
0001
0010
0001
0000
0100
0000
0010
0000
1000
0000
0100
0000
0001
0000
0010
0100
,
0010
0100
0010
0000
1000
0000
0100
0000
0010
0000
0001
0000
0010
0000
0010
0100
,
0010
0100
0010
0000
0001
0000
1000
0000
0010
0000
0100
0000
0010
0000
0010
0001
,
0010
0001
0010
0000
0100
0000
1000
0000
0010
0000
0100
0000
0010
0000
0010
0001
,
0010
0001
0010
0000
0010
0000
1000
0000
0100
0000
1000
0000
0010
0000
0100
0010
,
0100
0010
0100
0000
0240
0000
0000
0000
0000
0000
0000
0000
0000
0000
0000
0000
,
0000
0000
0000
0000
,
0000
0330
0000
0000
;
