#TITLE:L'Amour Toujours;
#SUBTITLE:(Small Mix);
#ARTIST:Gigi D' Agostino;
#GENRE:Italodance;
#CREDIT:B. M'Rey;
#MUSIC:L´ amour Toujours (Small mix).ogg;
#BANNER:L´ amour Toujours (Small mix)-bn.png;
#BACKGROUND:L´ amour Toujours (Small mix)-bg.png;
#CDTITLE:./CDTITLES/100% Clubland.PNG;
#SAMPLESTART:42.385;
#SAMPLELENGTH:12;
#OFFSET:-0.103;
#BPMS:0=139.066;

//--------------- dance-single - B. M'Rey ----------------
#NOTES:
     dance-single:
     B. M'Rey:
     Beginner:
     1:
     0.073902,0.112869,0.026874,0.060466,0,77,73,4,9,0,0,0.073902,0.112869,0.026874,0.060466,0,77,73,4,9,0,0:
0000
0000
0000
0000
,
0000
0000
0000
0000
,
0000
0000
0000
0000
,
0000
0000
0000
0000
,
0000
0000
1000
0000
,
0000
0000
0000
0000
,
0000
0000
0010
0000
,
0000
0000
0000
0000
,
0000
0000
0001
0000
,
0000
0000
0000
0000
,
0000
0000
0100
0000
,
0000
0000
0000
0000
,
1000
0000
0000
0000
,
0001
0000
0000
0000
,
0100
0000
0000
0000
,
0010
0000
0000
0000
,
1000
0000
0000
0000
,
0001
0000
0000
0000
,
0100
0000
0000
0000
,
0010
0000
0000
0000
,
1001
0000
0000
0000
,
0100
0000
0000
0000
,
0010
0000
0000
0000
,
0001
0000
0000
0000
,
1000
0000
0000
0000
,
0010
0000
0000
0000
,
0100
0000
0000
0000
,
0001
0000
0000
0000
,
1001
0000
0000
0000
,
0100
0000
0000
0000
,
0010
0000
0000
0000
,
2000
0000
0000
0000
,
3002
0000
0000
0000
,
0103
0000
0000
0000
,
0020
0000
0000
0000
,
1030
0000
0000
0000
,
0002
0000
0000
0000
,
0103
0000
0000
0000
,
0020
0000
0000
0000
,
0000
0000
0000
0000
,
1030
0000
0000
0000
,
0001
0000
0000
0000
,
0100
0000
0000
0000
,
1000
0000
0000
0000
,
0010
0000
0000
0000
,
0001
0000
0000
0000
,
1000
0000
0000
0000
,
0010
0000
0000
0000
,
0100
0000
0000
0000
,
1000
0000
0000
0000
,
0001
0000
0000
0000
,
0100
0000
0000
0000
,
0110
0000
0000
0000
,
0001
0000
0000
0000
,
1000
0000
0000
0000
,
0100
0000
0000
0000
,
2000
0000
0000
0000
,
0000
0000
0000
0000
,
3001
0000
0000
0000
,
0100
0000
0000
0000
,
0020
0000
0000
0000
,
0000
0000
0000
0000
,
1030
0000
0000
0000
,
0001
0000
0000
0000
,
2000
0000
0000
0000
,
0001
0000
0000
0000
,
0010
0000
0000
0000
,
0100
0000
0000
0000
,
3001
0000
0000
0000
,
0001
0000
0000
0000
,
0100
0000
0000
0000
,
0010
0000
0000
0000
,
1000
0000
0000
0000
,
0001
0000
0000
0000
,
0010
0000
0000
0000
,
0001
0000
0000
0000
,
0110
0000
0000
0000
,
0010
0000
0000
0000
,
1000
0000
0000
0000
,
0010
0000
0000
0000
,
0001
0000
0000
0000
,
0100
0000
0000
0000
,
0010
0000
0000
0000
,
2000
0000
0000
0000
,
3000
0000
0000
0000
;

//--------------- dance-single - B. M'Rey ----------------
#NOTES:
     dance-single:
     B. M'Rey:
     Easy:
     2:
     0.16604,0.253955,0.134368,0.120931,0,173,153,20,18,0,1,0.16604,0.253955,0.134368,0.120931,0,173,153,20,18,0,1:
0000
0000
0000
0000
,
0000
0000
0000
0000
,
0000
0000
0000
0000
,
0000
0000
0000
0000
,
0000
0000
2000
0000
,
3000
0000
0000
0000
,
0000
0000
0020
0000
,
0030
0000
0000
0000
,
0000
0000
0002
0000
,
0003
0000
0000
0000
,
0000
0000
0200
0000
,
0300
0000
0002
0000
,
1003
0000
0100
0000
,
0100
0000
0001
0000
,
0001
0000
1000
0000
,
1000
0000
0010
0000
,
0010
0000
0001
1000
,
0001
0000
0100
0010
,
0100
0000
1000
0100
,
1000
0100
1000
0100
,
1001
0000
0100
0000
,
0110
0000
0001
0000
,
0011
0000
0100
0000
,
1000
0000
0001
1000
,
0010
0000
0100
0000
,
1001
0000
0010
0000
,
0110
0000
0001
0000
,
1000
0000
0010
0000
,
0110
0000
1000
0000
,
1001
0000
0010
0000
,
0110
0000
0001
0000
,
2000
0000
0000
0000
,
3200
0000
0000
0000
,
0010
0000
0010
0000
,
0302
0000
0000
0000
,
1000
0000
1000
0000
,
0023
0000
0000
0000
,
1000
0000
1000
0000
,
0230
0000
0000
0000
,
0000
0000
0000
0000
,
0301
0000
1000
0000
,
0001
0000
0010
0000
,
0100
0000
0010
0000
,
1000
0000
0001
0000
,
0010
0100
0001
0000
,
0100
0001
0010
0000
,
1000
0010
0100
0000
,
0001
1000
0010
0000
,
0001
0010
0100
0000
,
0010
0100
1000
0000
,
0100
0001
1000
0000
,
0010
1000
0100
0000
,
0001
0100
0010
0000
,
0001
0010
0100
0000
,
1000
0010
0100
0000
,
1001
0000
0000
0000
,
0200
0000
0000
0000
,
0302
0000
0000
0000
,
2003
0000
0000
0000
,
3001
0001
0001
0001
,
0002
0000
0000
0000
,
0203
0000
0000
0000
,
0020
0000
0000
0000
,
1331
0000
1001
0000
,
2000
0000
0001
0000
,
0001
0000
0001
0000
,
0001
0000
0001
0000
,
0001
0000
0001
0000
,
3001
0000
0100
0000
,
1001
0000
0100
0000
,
0110
0000
0001
0000
,
1000
0000
0001
0000
,
0010
0000
0100
0000
,
0101
0000
1000
0000
,
1010
0000
0100
0000
,
0001
0000
1000
0000
,
0110
0000
0001
0000
,
1001
0000
0100
0000
,
0110
0000
0001
0000
,
1000
0000
0010
0000
,
0100
0000
0001
0000
,
1001
0000
0100
0000
,
0110
0000
1000
0000
,
0020
0000
0000
0000
,
0030
0000
0000
0000
;

//--------------- dance-single - B. M'Rey ----------------
#NOTES:
     dance-single:
     B. M'Rey:
     Medium:
     4:
     0.232265,0.253955,0.094058,0.174678,0,242,228,14,26,0,0,0.232265,0.253955,0.094058,0.174678,0,242,228,14,26,0,0:
0000
0000
0000
0000
,
0000
0000
0000
0000
,
0000
0000
0000
0000
,
0000
0000
0000
0000
,
0000
0000
2000
3002
,
0013
0000
0000
0000
,
0000
0000
2000
3200
,
0302
0003
0000
0000
,
0000
0000
0020
0230
,
0302
0003
0000
0000
,
0000
0000
2000
3002
,
0203
0320
0032
2003
,
3100
0000
0001
1000
,
0010
0000
0100
0001
,
1000
0000
0010
0100
,
0010
0010
0001
1000
,
0001
0000
1000
0100
,
0001
0000
0100
0010
,
1000
0000
0001
1000
,
0010
0100
0001
1000
,
0001
0000
0100
0100
,
0110
0000
0010
0010
,
0110
0000
0001
0010
,
0100
1000
0100
0010
,
1000
0000
1000
1000
,
1001
0000
0001
0001
,
1001
0000
1000
0100
,
0010
0001
0010
0100
,
1000
0000
0100
0100
,
1100
0000
1000
1000
,
1100
0000
0001
0001
,
0002
0000
0000
0000
,
0203
0000
0000
0000
,
0310
0000
0001
1000
,
0200
0000
0000
0000
,
0301
0000
1000
0010
,
0200
0000
0000
0000
,
0300
0000
0001
0200
,
0000
0000
0000
0000
,
0000
0000
0000
0000
,
0310
0000
1000
0000
,
0001
0000
0010
0000
,
0100
0000
1000
0000
,
0010
0000
0001
0000
,
0100
1000
0100
0001
,
0010
1000
0100
0010
,
0001
0010
0100
0010
,
1000
0001
0100
0010
,
1000
0100
0001
0010
,
0001
0100
0010
1000
,
0100
0001
0010
0100
,
0010
1000
0001
0100
,
0010
1000
0001
0010
,
0001
0100
0010
1000
,
0100
0001
0010
0100
,
0020
0000
0100
0100
,
0130
1000
0001
0010
,
0001
0100
0010
1000
,
0100
0001
0100
0010
,
1000
0100
0001
0010
,
0200
0000
0000
0000
,
0302
0000
0000
0000
,
2003
0000
0000
0000
,
3020
0000
0000
0000
,
0230
0001
0010
0001
,
0010
0001
0010
0001
,
0010
0001
0010
0001
,
0010
0001
0010
0001
,
0310
0000
1000
0001
,
1001
0000
0010
0100
,
0110
0000
0001
0010
,
0100
1000
0100
0010
,
0001
0000
1000
0100
,
1100
0000
0001
0010
,
0011
0000
0010
0100
,
1000
0100
0010
0001
,
0010
0000
0010
1000
,
1010
0000
0100
0001
,
0101
0000
0001
0010
,
0100
1000
0100
0010
,
0001
0000
0100
0010
,
0110
0000
1000
0001
,
1001
0000
1000
0100
,
0020
0000
0000
0000
,
0030
0000
0000
0000
;

//--------------- dance-single - B. M'Rey ----------------
#NOTES:
     dance-single:
     B. M'Rey:
     Hard:
     7:
     0.381989,0.507911,0.114213,0.37623,0,398,381,17,56,0,2,0.381989,0.507911,0.114213,0.37623,0,398,381,17,56,0,2:
0000
0000
0000
0000
,
0000
0000
0000
0000
,
0000
0000
0000
0000
,
0000
0000
0000
0000
,
0000
0000
2000
3020
,
0230
0000
0300
0000
0200
0300
0000
0000
,
0200
0300
0000
0000
0002
0000
0023
0000
,
0230
0300
0000
0000
0200
0300
0000
0000
,
0200
0300
0000
0000
0200
0000
2300
0000
,
3002
0000
0003
0000
0002
0003
0000
0000
,
0002
0003
0000
0000
0200
0000
0320
0000
,
2030
0000
3002
0023
0230
2300
3200
0320
,
0032
0003
0000
0000
0200
0300
2000
3002
,
0023
0030
0000
0000
0200
0300
0002
0023
,
1030
0000
0000
0000
0100
0000
0001
0010
,
1000
0000
0100
0000
0001
0010
0001
0010
,
0001
0000
0000
0000
0100
0000
0010
0001
,
1000
0000
0000
0000
0100
0000
0001
0010
,
1000
0000
0000
0000
0100
0000
0001
0010
,
1000
0000
0100
0010
0100
0010
0100
0010
,
0100
0000
0001
0000
1000
0000
0010
0100
,
0001
0000
1000
0000
0010
0000
0100
1000
,
0001
0000
1000
0000
0010
0000
0001
0010
,
0100
0000
1000
0000
1000
0001
1000
0001
,
1000
0000
0100
0000
0010
0000
0001
0010
,
0100
0000
1000
0000
0001
0000
0010
0100
,
1000
0000
0010
0000
0100
0000
0001
1000
,
0010
0000
0001
0010
0001
0010
0001
0010
,
0001
0000
1000
0000
0010
0000
0100
1000
,
0001
0000
0100
0000
0010
0000
1000
0100
,
0001
0000
0010
0000
1000
0000
0100
0010
,
0002
1000
1000
1000
,
2003
0000
3020
0000
,
0130
0001
1000
0010
,
0200
0000
0302
0000
,
1003
0010
0100
0001
,
2000
0000
3020
0000
,
1030
0001
0010
0220
,
0000
0000
0000
0000
,
0000
0000
0000
0000
,
0331
1000
0100
0000
0010
0000
0001
0000
,
0100
1000
0100
0000
0001
0000
0010
0000
,
0100
0010
0001
0000
1000
0000
0010
0000
,
0100
1000
0010
0000
0001
0010
0100
0000
,
1000
0001
1000
0001
1000
0001
1000
0001
,
0010
0100
0010
0100
0010
0100
0010
0100
,
0001
0010
0001
0010
0001
0010
0001
0010
,
1000
0100
1000
0100
1000
0100
1000
0100
,
0001
0100
0001
0100
0001
0100
0001
0100
,
0010
1000
0010
1000
0010
1000
0010
1000
,
0100
0001
0100
1000
0100
0001
0100
1000
,
0100
0001
0100
1000
0100
0001
0100
1000
,
0010
0001
0010
1000
0010
0001
0010
1000
,
0010
0001
0010
1000
0010
0001
0010
1000
,
0010
0001
0010
1000
0010
0001
0010
1000
,
0020
0000
0000
0000
0000
0100
0100
0100
,
0230
0000
1000
0000
0001
1000
0001
0000
,
0320
0000
0001
0000
1000
0001
1000
0000
,
0032
0000
0100
0000
0010
0100
0010
0000
,
2003
0000
0000
3020
0000
0000
0032
0200
,
0323
0100
0000
0100
,
0000
0100
0000
0100
,
0000
0100
0000
0130
,
0001
1000
0001
1000
0001
1000
0001
1000
,
0001
1100
0110
0011
,
0110
1100
0110
0011
,
0110
1100
0011
0110
,
1001
0110
1001
0110
,
1001
0000
0001
0000
1000
0000
0010
0100
,
0001
0000
1000
0000
0010
0000
0100
1000
,
0001
0000
1000
0000
0010
0000
0001
0010
,
0100
0000
1000
0000
1000
0001
1000
0001
,
1000
0000
0100
0000
0010
0000
0001
0010
,
0100
0000
1000
0000
0001
0000
0010
0100
,
1000
0000
0010
0000
0100
0000
0001
1000
,
0010
0000
0001
0010
0001
0010
0001
0010
,
0001
0000
1000
0000
0010
0000
0100
1000
,
0001
0000
0100
0000
0010
0000
1000
0100
,
0001
0000
0010
0000
1000
0000
0100
0010
,
0002
1000
1000
1000
,
2003
0000
0000
0000
3020
0000
0100
0100
,
0130
0000
0001
0000
2000
0000
0010
0010
,
3010
0000
1000
0000
0002
0000
0100
0100
,
0203
0000
0000
0000
,
0300
0000
0000
0000
;
