#TITLE:King;
#ARTIST:Years & Years;
#GENRE:Synthpop;
#CREDIT:B. M'Rey;
#MUSIC:King.ogg;
#BANNER:King-bn.png;
#BACKGROUND:King-bg.png;
#CDTITLE:./CDTITLES/BMR Superstars.PNG;
#SAMPLESTART:47.088;
#SAMPLELENGTH:12;
#OFFSET:-0.071;
#BPMS:0=119.951;

//--------------- dance-single - B. M'Rey ----------------
#NOTES:
     dance-single:
     B. M'Rey:
     Beginner:
     1:
     0.067899,0.097774,0.00679,0,0,70,69,1,0,0,0,0.067899,0.097774,0.00679,0,0,70,69,1,0,0,0:
0000
0000
0000
0000
,
0000
0000
0000
0000
,
0000
0000
0000
0000
,
0000
0000
0000
0000
,
1000
0000
0000
0000
,
0001
0000
0000
0000
,
0100
0000
0000
0000
,
0010
0000
0000
0000
,
1000
0000
1000
0000
,
0001
0000
0001
0000
,
0010
0000
0000
0000
,
0000
0000
0000
0000
,
0100
0000
0100
0000
,
0010
0000
0010
0000
,
1000
0000
0000
0000
,
0000
0000
0000
0000
,
1000
0000
0000
0000
,
0001
0000
0000
0000
,
0010
0000
0000
0000
,
0001
0000
0000
0000
,
0100
0000
0000
0000
,
0010
0000
0000
0000
,
1000
0000
0000
0000
,
1001
0000
0000
0000
,
0020
0000
0000
0000
,
0030
0000
0001
0000
,
0100
0000
1000
0000
,
0020
0000
0030
0000
,
2200
0000
0000
0000
,
3300
0000
0001
0000
,
1000
0000
0100
0000
,
0002
0000
0003
0000
,
0010
0000
0000
0000
,
0001
0000
0000
0000
,
0100
0000
0000
0000
,
0010
0000
0000
0000
,
1000
0000
0000
0000
,
0200
0000
0000
0000
,
0300
0000
0000
0000
,
0002
0000
0000
0000
,
0003
0000
0000
0000
,
0020
0000
0000
0000
,
0030
0000
0000
0000
,
0200
0000
0000
0000
,
1300
0000
0000
0000
,
0100
0000
0000
0000
,
0001
0000
0000
0000
,
0010
0000
0000
0000
,
0001
0000
0000
0000
,
0100
0000
0000
0000
,
0010
0000
0000
0000
,
1000
0000
0000
0000
,
0200
0000
0000
0000
,
0300
0000
0001
0000
,
0010
0000
1000
0000
,
0200
0000
0300
0000
,
0020
0000
0000
0000
,
0030
0000
0001
0000
,
1000
0000
0010
0000
,
0002
0000
0103
0000
,
0100
0000
0000
0000
,
0010
0000
0000
0000
,
1000
0000
0000
0000
,
0100
0000
0000
0000
,
1000
0000
1000
0000
,
0010
0000
0001
0000
,
0001
0000
0010
0000
,
0100
0000
1000
0000
,
0010
0000
0100
0000
,
0001
0000
0010
0000
,
0100
0000
1000
0000
,
0010
0000
0001
0000
,
1001
0000
0000
0000
;

//--------------- dance-single - B. M'Rey ----------------
#NOTES:
     dance-single:
     B. M'Rey:
     Easy:
     2:
     0.089238,0.099132,0,0.00679,0,92,92,0,1,0,0,0.089238,0.099132,0,0.00679,0,92,92,0,1,0,0:
0000
0000
0000
0000
,
0000
0000
0000
0000
,
0000
0000
0000
0000
,
0000
0000
0000
0000
,
0100
0002
0000
0000
,
1003
0002
0000
0000
,
0103
0020
0000
0000
,
0130
0002
0000
0000
,
1003
0000
0010
0000
,
0100
0001
1000
0000
,
0100
1000
0100
0000
,
0001
0000
0001
0000
,
0001
0000
0100
0000
,
0100
1000
0100
0000
,
0001
0000
1000
0000
,
0010
0000
0000
0000
,
0010
0000
0001
0000
,
0010
0000
0001
0000
,
0100
0000
1000
0000
,
0100
0000
0001
0000
,
1000
0000
0001
0000
,
0010
0000
0100
0000
,
0001
0000
0010
0000
,
0001
0000
0000
0000
,
0200
0000
0320
0000
,
2030
3000
0010
0000
,
0100
0000
0001
0010
,
0002
0000
0000
0003
,
0200
0000
2300
0000
,
3020
0030
0001
0000
,
0100
0000
0100
1000
,
0200
0000
0300
0000
,
0001
0000
0100
0000
,
0010
0000
0000
0000
,
1000
0000
0010
0000
,
0100
0000
0000
0000
,
0001
0000
0010
0000
,
0100
0000
0100
0000
,
0010
0000
0000
0000
,
0001
0000
0001
0000
,
1000
0000
0100
0000
,
0100
0000
0010
0000
,
1000
0000
0001
0000
,
1000
0000
0000
0000
,
0100
0002
0000
0000
,
1003
0002
0000
0000
,
0103
0020
0000
0000
,
0130
0002
0000
0000
,
0103
0002
0000
0000
,
1003
0002
0000
0000
,
0103
0020
0000
0000
,
0130
0000
0002
0000
0000
0000
0000
0003
,
0200
0000
0320
0000
,
2030
3000
0010
0000
,
0100
0000
0001
0010
,
0002
0000
0000
0003
,
0200
0000
2300
0000
,
3020
0030
0001
0000
,
0100
0000
0100
1000
,
0200
0000
0310
1000
,
0100
0002
0000
0000
,
1003
0002
0000
0000
,
0103
0020
0000
0000
,
0130
0002
0000
0000
,
1003
0000
0100
0000
,
0001
0000
0100
0000
,
0001
0000
0010
0000
,
0100
0000
0010
0000
,
0100
0000
1000
0000
,
0100
0000
0001
0000
,
1000
0000
0010
0000
,
0100
0000
0010
0000
;

//--------------- dance-single - B. M'Rey ----------------
#NOTES:
     dance-single:
     B. M'Rey:
     Medium:
     4:
     0.173627,0.222284,0.040739,0.285175,0,179,173,6,42,0,0,0.173627,0.222284,0.040739,0.285175,0,179,173,6,42,0,0:
0000
0000
0000
0000
,
0000
0000
0000
0000
,
0000
0000
0000
0000
,
0000
0000
0000
0000
,
1000
0001
0200
0000
0000
0000
0000
0000
,
0310
0001
0200
0000
0000
0000
0000
0000
,
1300
0100
0002
0000
0000
0000
0000
0000
,
1003
0010
0200
0000
0000
0000
0000
0000
,
0301
1000
0001
0100
,
0010
0000
0100
0000
0010
0000
0001
0010
,
0200
0000
0300
0000
,
0001
0000
1000
0000
,
0100
1000
0100
1000
,
0100
0000
0010
0000
0001
0000
1000
0010
,
0002
0000
0003
0000
,
0010
0000
1000
0000
,
0001
0000
0010
0000
0100
0010
0100
0000
,
1000
0000
0001
0000
0010
0001
0100
0000
,
0010
0000
0100
0000
1000
0100
0010
0000
,
0001
0000
0010
0000
0100
0010
0100
0000
,
1000
0000
0001
0000
0010
0100
0010
0000
,
0001
0000
1000
0000
0010
1000
0010
0000
,
0100
0000
0001
0000
0010
0100
0010
0000
,
1001
0000
0000
0000
,
2000
0000
3020
0000
,
0230
0000
0300
0000
0001
0010
0001
0000
,
0020
0000
0230
0000
,
2300
0000
3000
0000
,
2002
0000
3023
0000
,
0230
0000
0300
0000
0001
0010
0001
0000
,
0200
0000
0320
0000
,
2030
0000
3002
0000
,
0013
0100
1000
0000
,
0010
0000
0100
0000
,
0001
0010
0100
0000
,
1000
0000
0010
0000
,
0100
0000
0001
0000
,
1000
0000
0010
0000
,
0100
0000
0010
0000
,
0001
0000
1000
0000
,
0010
0100
0010
0000
,
1000
0100
1000
0000
,
0001
0010
0001
0000
,
0100
0000
0000
0000
,
1000
0001
0200
0000
0000
0000
0000
0000
,
0310
0001
0200
0000
0000
0000
0000
0000
,
1300
0100
0002
0000
0000
0000
0000
0000
,
1003
0010
0200
0000
0000
0000
0000
0000
,
1300
0001
0200
0000
0000
0000
0000
0000
,
0310
0001
0200
0000
0000
0000
0000
0000
,
1300
0100
0002
0000
0000
0000
0000
0000
,
1003
0010
0200
0000
0000
0000
0000
0300
,
2000
0000
3020
0000
,
0230
0000
0300
0000
0001
0010
0001
0000
,
0020
0000
0230
0000
,
2300
0000
3000
0000
,
2002
0000
3023
0000
,
0230
0000
0300
0000
0001
0010
0001
0000
,
0200
0000
0320
0000
,
2030
0000
3002
0000
,
1003
0001
0200
0000
0000
0000
0000
0000
,
0310
0001
0200
0000
0000
0000
0000
0000
,
1300
0100
0002
0000
0000
0000
0000
0000
,
1003
0010
0200
0000
0000
0000
0000
0000
,
1310
0000
0001
0000
,
0100
0000
0010
0010
,
0010
0000
0100
0000
,
0001
0000
1000
1000
,
1000
0000
0010
0000
,
0100
0000
0010
0010
,
0010
0000
0001
0000
,
1000
0000
0100
0100
,
0100
0000
0000
0000
;

//--------------- dance-single - B. M'Rey ----------------
#NOTES:
     dance-single:
     B. M'Rey:
     Hard:
     7:
     0.334644,0.394832,0.054319,0.319124,0.227461,345,337,8,47,0,4,0.334644,0.394832,0.054319,0.319124,0.227461,345,337,8,47,0,4:
0000
0000
0000
0000
,
0000
0000
0000
0000
,
0000
0000
0000
0000
,
0000
0000
0000
0000
,
0001
0000
1000
0000
0001
0000
1000
0000
0001
0000
0000
0010
0000
0000
1000
0000
,
0010
0000
1000
0000
0010
0000
0100
0000
0001
0000
0000
0010
0000
0000
0100
0000
,
0010
0000
1000
0000
0100
0000
1000
0000
0100
0000
0000
0001
0000
0000
0100
0000
,
0001
0000
0100
0000
0001
0000
0010
0000
0100
0000
0000
0010
0000
0000
0100
0000
,
0001
0000
0000
1000
0000
0000
0010
0000
0100
0000
0000
1000
0000
0000
0001
0000
,
0100
0000
0000
0001
0000
1000
0010
0000
0000
0000
0000
0000
0100
0001
1000
0010
,
0400
0000
0300
0000
,
2000
0000
0000
3002
0000
0000
0103
0020
0000
0000
0000
0000
0000
0000
0000
0000
,
1030
0000
0000
0001
0000
0000
0100
0000
0010
0000
0000
1000
0000
0000
0001
0000
,
0010
0000
0000
0100
0000
0001
0010
0000
0000
0000
0000
0000
1000
0010
0100
0010
,
0004
0000
0003
0000
,
2000
0000
0000
3020
0000
0000
0031
0020
0000
0000
0000
0000
0430
0000
0000
0000
,
1300
0000
0001
0000
0100
0000
0010
0100
0000
0100
1000
0000
0010
0000
0000
0000
,
1000
0000
0010
0000
0001
0000
0010
0001
0000
0001
0100
0000
0010
0000
0000
0000
,
1000
0000
0001
0000
0010
0000
0001
0100
0000
0100
0010
0000
1000
0000
0000
0000
,
0010
0000
0100
0000
0001
0000
1000
0010
0000
0010
0100
0000
0001
0000
0000
0000
,
1000
0000
0010
0000
0001
0000
0010
0001
0000
0001
0100
0000
0010
0000
0000
0000
,
1000
0000
0010
0000
0100
0000
0001
0010
0000
0010
0100
0000
2000
0000
0000
0000
,
3000
0000
0001
0000
0010
0000
0001
0100
0000
0100
0010
0000
1000
0000
0001
0000
,
0200
0000
0000
0000
0000
0000
0000
1300
,
1004
0000
0000
0000
0043
0000
0000
0032
,
0000
0000
0000
0000
1003
0010
0100
0002
,
0000
0000
0000
0000
1003
0000
0001
0000
0010
0000
0000
0001
0000
0000
0200
0000
,
0000
0000
0000
0000
2300
0000
0000
3100
,
0040
0000
0000
0000
0034
0000
0000
2003
,
0000
0000
0000
0000
3010
1000
0001
0020
,
0000
0000
0000
0000
1030
0000
0010
0000
0100
0000
0000
0001
0000
0000
0400
0000
,
0000
0000
2300
0000
,
3000
0001
0010
1000
0100
0010
0100
0001
,
1000
0000
0010
0200
0000
0000
0300
0000
,
0000
0001
1000
0100
1000
0100
0010
1000
,
0010
0000
0000
0000
0100
0000
0000
0001
0000
0000
0100
0000
0001
0000
2000
0000
,
0000
0000
3020
0000
,
4030
0000
0000
0000
3040
0000
1030
0001
,
0040
0000
0230
0000
,
2300
3002
0000
2003
0000
3002
0000
0203
,
0301
0000
0000
0100
0000
0000
1000
0000
0010
0000
0000
0100
0000
0000
0001
0000
,
0010
0000
0000
0100
0000
0000
0010
0000
1000
0000
0000
0100
0000
0000
0001
0000
,
0010
0000
0000
0100
0000
0000
0010
0000
1000
0000
0000
0001
0000
0000
0100
0000
,
0020
0000
0000
0000
,
0031
0000
1000
0000
0001
0000
1000
0000
0001
0000
0000
0100
0000
0000
0010
0000
,
0100
0000
0010
0000
0001
0000
1000
0000
0001
0000
0000
0010
0000
0000
0100
0000
,
0010
0000
0100
0000
0010
0000
0100
0000
0001
0000
0000
0010
0000
0000
1000
0000
,
0010
0000
1000
0000
0001
0000
0100
0000
0010
0000
0000
0100
0000
0000
0010
0000
,
0001
0000
1000
0000
0100
0000
1000
0000
0001
0000
0000
1000
0000
0000
0100
0000
,
0001
0000
0100
0000
0001
0000
0100
0000
0010
0000
0000
1000
0000
0000
1000
0000
,
0010
0001
0100
0001
,
0100
0000
0000
1000
0000
0000
0010
0000
0001
0000
0000
0010
0000
0000
0010
0000
,
4001
0000
0000
0000
3040
0000
0000
2030
,
0000
0000
0000
0000
3001
0010
0100
2000
,
0000
0000
0000
0000
3001
0000
1000
0000
0010
0000
0000
1000
0000
0000
0200
0000
,
0000
0000
0000
0000
0302
0000
0000
0103
,
0040
0000
0000
0000
4030
0000
0000
3002
,
0000
0000
0000
0000
0013
0001
1000
0020
,
0000
0000
0000
0000
0031
0000
0010
0000
0100
0000
0000
1000
0000
0000
0400
0000
,
0000
0000
0000
0000
0301
0000
0010
0000
1000
0000
0000
0100
0000
0000
0001
0000
,
0010
0000
1000
0000
0010
0000
1000
0000
0010
0000
0000
0100
0000
0000
0001
0000
,
0010
0000
0100
0000
0010
0000
1000
0000
0010
0000
0000
0100
0000
0000
1000
0000
,
0100
0000
0010
0000
0100
0000
0010
0000
0001
0000
0000
0100
0000
0000
1000
0000
,
0100
0000
1000
0000
0100
0000
0010
0000
0001
0000
0000
0100
0000
0000
1000
0000
,
0100
1000
0010
0000
0001
0010
0100
0000
,
0010
0000
1000
0000
0010
0000
0100
0000
0001
0000
0000
0010
0000
0000
0010
0000
,
0001
0010
1000
0000
0001
0010
0100
0000
,
0001
0000
0010
0000
0100
0000
1000
0000
0100
0000
0000
0010
0000
0000
0010
0000
,
0100
0010
0001
0000
1000
0010
0100
0000
,
0001
0000
1000
0000
0010
0000
0100
0000
0001
0000
0000
0100
0000
0000
0010
0000
,
1000
0001
0010
0000
0100
1000
0010
0000
,
0100
0000
0001
0000
0010
0000
1000
0000
0100
0000
0000
0001
0000
0000
0020
0000
,
0000
0000
0000
0000
0000
0000
0000
0000
0000
0000
0000
0030
0000
0000
0000
0000
;

//--------------- dance-single - B. M'Rey ----------------
#NOTES:
     dance-single:
     B. M'Rey:
     Challenge:
     9:
     0,0,0,0,0:
0000
0000
0000
0000
,
0000
0000
0000
0000
,
0000
0000
0000
0000
,
0000
0000
0000
0000
,
0001
0100
0001
0100
0001
0000
0100
0000
0010
0000
0000
1000
0000
0000
0001
0000
,
0010
0100
0010
0100
0001
0000
0010
0000
0001
0000
0000
0100
0000
0000
0001
0000
,
0010
1000
0010
1000
0001
0000
0010
0000
0001
0000
0000
1000
0000
0000
0100
0000
,
0001
0010
0001
0010
0100
0000
1000
0000
0100
0000
0000
0010
0000
0000
0100
0000
,
0001
0000
1000
0001
0000
0001
0100
0000
0001
0000
0100
0010
0000
0010
0100
0000
,
0010
0000
0000
0010
0000
1000
0100
0000
1000
0000
0000
0000
0001
1000
0001
1000
,
0001
0010
0001
0010
0100
0000
1000
0000
,
0110
0000
0000
0011
0000
0000
0010
0001
0000
0000
0010
0000
0100
0000
0000
0000
,
0100
0000
1000
0001
0000
0001
1000
0000
0010
0000
0100
0010
0000
0010
0100
0000
,
0001
0000
0000
1000
0000
0001
1000
0000
0001
0000
0000
0000
0010
0100
0010
0100
,
0010
0100
0001
1000
0001
0000
1000
0000
,
0110
0000
0000
0110
0000
0000
0100
0001
0000
0000
0010
0000
0001
0000
0000
0000
,
0001
0000
0010
0000
0010
0100
0000
1000
0100
0000
0100
1000
0001
0000
0010
0000
,
0001
0000
0010
0000
1000
0000
0001
0010
0000
0010
0001
1000
0010
0000
0001
0000
,
0100
0000
0001
0000
0010
0000
0010
0100
0000
1000
0001
1000
0001
0000
0010
0000
,
0100
0000
0010
0000
0001
0000
0010
0001
0000
0010
0000
0100
0000
1000
0100
1000
,
0010
0000
0100
0000
0010
0000
0100
1000
0000
0010
0100
0010
0001
0000
0100
0000
,
0001
0000
0100
0000
0010
0000
0001
1000
0000
1000
0100
1000
0001
0000
0010
0000
,
0100
0000
1000
0000
0100
1000
0001
1000
0000
0100
0001
0100
0010
0000
0010
0000
,
0200
0000
0000
0000
0020
0000
0000
0331
,
1000
0000
0001
1000
0000
1000
0001
0000
0010
0000
0100
1000
0000
1000
0100
0000
,
1000
0000
0100
0010
0000
0010
0001
0000
1000
0000
0001
1000
0000
1000
0010
0000
,
1000
0000
0010
0100
0000
0100
0010
0000
0100
0000
0001
0100
0000
0100
0001
0000
,
0010
0000
0000
0001
0000
0000
0100
0000
0010
0000
0000
1000
0000
0000
0100
0000
,
1000
0000
0001
1000
0000
1000
0001
0000
0010
0000
0001
0010
0000
0010
0100
0000
,
0010
0000
0100
1000
0000
1000
0100
0000
1000
0000
0010
1000
0000
1000
0100
0000
,
0010
0000
0100
0010
0000
0010
0001
0000
0010
0000
0001
1000
0000
1000
0100
0000
,
1000
0000
0000
0010
0000
0000
1000
0000
0100
0000
0000
0010
0000
0000
0001
0000
,
0100
0000
0010
0000
0100
0000
0010
0001
0000
0001
1000
0000
0001
0000
1000
0000
,
0010
0000
0100
0010
0001
0000
0100
0000
,
0001
0000
0100
0000
0010
0000
0100
0010
0000
0010
1000
0000
0010
0000
0100
0000
,
0010
0000
0000
0000
0001
0000
0000
0100
0000
0000
1000
0000
0010
0000
0100
0000
,
0010
0000
0001
0100
0001
0000
0001
0010
,
0200
0000
0010
0000
0010
0000
0310
1000
,
0001
0000
0001
0010
0001
0000
0010
1000
,
0010
2000
0000
0100
0000
0100
0000
3100
,
0001
0000
0000
0100
0000
0000
1000
0000
0010
0000
0000
0100
0000
0000
0001
0000
,
0010
0000
0000
0100
0000
0000
0010
0000
1000
0000
0000
0100
0000
0000
0001
0000
,
0010
0000
0000
0100
0000
0000
0010
0000
1000
0000
0000
0001
0000
0000
0100
0000
,
0001
1000
0001
1000
0001
0000
0000
0000
,
0001
0010
0100
0010
0100
0000
0001
0000
0100
0000
0000
1000
0000
0000
0010
0000
,
0001
0010
0001
0010
0001
0000
0010
0000
0100
0000
0000
0010
0000
0000
1000
0000
,
0010
0100
0001
0100
0001
0000
0010
0000
1000
0000
0000
0100
0000
0000
0001
0000
,
0010
1000
0010
0100
0010
0000
0001
0000
0100
0000
0000
1000
0000
0000
0010
0000
,
0100
1000
0001
1000
0001
0000
0010
0000
0100
0000
0000
1000
0000
0000
0100
0000
,
0010
0100
0010
0100
0010
0000
0001
0000
1000
0000
0000
0010
0000
0000
0100
0000
,
1000
0100
1000
0100
0002
0000
0000
0000
0000
0000
0000
0000
0000
0000
0000
0000
,
1003
0100
0010
0001
0200
0000
0000
0000
0000
0000
0000
0000
0000
0000
0301
0000
,
1000
0000
0001
1000
0000
1000
0001
0000
0010
0000
0100
1000
0000
1000
0100
0000
,
1000
0000
0100
0010
0000
0010
0001
0000
1000
0000
0001
1000
0000
1000
0010
0000
,
1000
0000
0010
0100
0000
0100
0010
0000
0100
0000
0001
0100
0000
0100
0001
0000
,
0010
0000
0000
0001
0000
0000
0100
0000
0010
0000
0000
1000
0000
0000
0100
0000
,
1000
0000
0001
1000
0000
1000
0001
0000
0010
0000
0001
0010
0000
0010
0100
0000
,
0010
0000
0100
1000
0000
1000
0100
0000
1000
0000
0010
1000
0000
1000
0100
0000
,
0010
0000
0100
0010
0000
0010
0001
0000
0010
0000
0001
1000
0000
1000
0100
0000
,
1000
0000
0000
0010
0000
0000
1000
0000
0100
0000
0000
0010
0000
0000
0001
0000
,
0001
0100
0001
0100
0001
0000
0100
0000
0010
0000
0000
1000
0000
0000
0001
0000
,
0010
0100
0010
0100
0001
0000
0010
0000
0001
0000
0000
0100
0000
0000
0001
0000
,
0010
1000
0010
1000
0001
0000
0010
0000
0001
0000
0000
1000
0000
0000
0100
0000
,
0001
0010
0001
0010
0100
0000
1000
0000
0100
0000
0000
0010
0000
0000
0100
0000
,
0001
0000
0001
1000
0001
0000
0100
0000
1000
0000
0010
0100
0010
0000
0001
0000
,
0100
0000
0001
1000
0010
0000
1000
0000
0100
0000
0100
0010
0000
1000
0001
0000
,
0001
0000
0100
0010
0100
0000
1000
0000
0010
0000
0010
0100
0010
0000
0001
0000
,
0100
0000
0001
0010
0100
0000
1000
0000
0100
0000
0001
0010
0000
0010
0100
0000
,
0001
0000
0001
1000
0100
0000
1000
0000
0100
0000
0001
1000
0010
0000
0100
0000
,
0010
0000
0001
0010
0001
0000
0100
0000
0010
0000
0010
1000
0000
0100
0001
0000
,
0100
0000
0010
1000
0010
0000
0100
0000
0001
0000
0001
0100
0010
0000
1000
0000
,
0001
0000
0100
0010
0100
0000
0100
0000
0010
0000
0100
1000
0000
0010
0001
0000
;
