#VERSION:0.83;
#TITLE:Kill Me Or Kiss Me;
#ARTIST:Dj Layla feat. NesteA;
#GENRE:Vocal Dance;
#CREDIT:B. M'Rey;
#MUSIC:Kill Me Or Kiss Me.ogg;
#BANNER:Kill Me Or Kiss Me-bn.png;
#BACKGROUND:Kill Me Or Kiss Me-bg.png;
#CDTITLE:./CDTITLES/BMR Superstars.PNG;
#SAMPLESTART:62.86;
#SAMPLELENGTH:15;
#OFFSET:-0.051;
#BPMS:0=128;

//--------------- dance-single - B. M'Rey ----------------
#NOTEDATA:;
#STEPSTYPE:dance-single;
#DESCRIPTION:B. M'Rey;
#CREDIT:B. M'Rey;
#DIFFICULTY:Beginner;
#METER:3;
#RADARVALUES:0.08638,0.182441,0.132053,0.069501,0,87,68,19,10,0,0,0.08638,0.182441,0.132053,0.069501,0,87,68,19,10,0,0;
#NOTES:
0000
0000
0000
0000
,
0000
0000
0000
0000
,
0000
0000
0000
0000
,
0000
0000
0000
0000
,
0000
0000
0000
0000
,
0000
1000
0000
0000
,
0000
0010
0000
0000
,
0000
0001
0000
0000
,
0000
1000
0000
0000
,
0000
1001
0000
0000
,
0000
0000
0000
0000
,
0000
0000
0000
0000
,
0000
0000
0000
0000
,
0000
0110
0000
0000
,
0000
0001
0000
0000
,
0000
0010
0000
0000
,
0000
1000
0000
0000
,
0000
0110
0000
1000
,
0000
0001
0000
0100
,
0000
0010
0000
0000
,
0000
0000
0000
0000
,
0000
1000
0000
0001
,
0000
0010
0000
0100
,
0000
1000
0000
0000
,
0000
0000
0000
0000
,
0000
0220
0000
0000
,
0000
0330
0000
0000
,
0000
2000
0000
0000
,
0000
3000
0000
0000
,
0000
0001
0000
0000
,
0000
0100
0000
0000
,
0000
0020
0000
0000
,
0000
0030
0000
0000
,
0000
0000
0000
0000
,
0000
1000
0000
0000
,
0000
0001
0000
0000
,
0000
1001
0000
1001
,
0000
1001
0000
0000
,
0000
0100
0000
0000
,
0000
1000
0000
0000
,
0000
0110
0000
0110
,
0000
0110
0000
0000
,
0000
0002
0000
0000
,
0000
0003
0000
0000
,
0000
2000
0000
0000
,
0000
3000
0000
0000
,
0000
1000
0000
0010
,
0000
0001
0000
0100
,
0000
0020
0000
0000
,
0000
0030
0000
0000
,
0000
0001
0000
0000
,
0000
1000
0000
0000
,
0000
1001
0000
1001
,
0000
1001
0000
0000
,
0000
0100
0000
0000
,
0000
0010
0000
0000
,
0000
0110
0000
0110
,
0000
0110
0000
0000
,
0000
1000
0000
0000
,
0000
0001
0000
0000
,
0000
0200
0000
0000
,
0000
0300
0000
0000
,
0000
1001
0000
0000
,
0000
1001
0000
0000
,
0000
0200
0000
0000
,
0000
2300
0000
0000
,
0000
3100
0000
0000
,
0000
0001
0000
0000
,
0000
0100
0000
0000
,
0000
0010
0000
0000
,
0000
1000
0000
0000
,
0000
0001
0000
0000
,
0000
0100
0000
0000
,
0000
0010
0000
0000
,
0000
1001
0000
0000
,
0000
1000
0000
0000
;

//--------------- dance-single - B. M'Rey ----------------
#NOTEDATA:;
#STEPSTYPE:dance-single;
#DESCRIPTION:B. M'Rey;
#CREDIT:B. M'Rey;
#DIFFICULTY:Easy;
#METER:4;
#RADARVALUES:0.135031,0.26063,0.048651,0.097302,0,136,129,7,14,0,1,0.135031,0.26063,0.048651,0.097302,0,136,129,7,14,0,1;
#NOTES:
0000
0000
0000
0000
,
0000
0000
0000
0000
,
0000
0000
0000
0000
,
0000
0000
0000
0000
,
0000
0000
0000
0000
,
0000
1000
0000
0000
,
0000
0100
0000
0000
,
0000
0001
0000
0000
,
0000
0200
0000
0000
,
0000
0310
0000
2000
,
0000
3200
0000
0320
,
0000
0031
0000
0000
,
0000
0000
0000
0000
,
0000
0000
0000
1000
,
0000
0001
0000
0010
,
0000
0100
0000
0000
,
0000
0000
0000
0000
,
0000
1000
0000
0001
,
0000
0010
0000
0100
,
0000
1000
0000
0000
,
0000
0000
0000
0000
,
0000
0000
0000
0010
,
0000
0001
0000
1000
,
0000
0010
0000
0200
,
0000
0000
0000
0301
,
0000
0020
0000
0000
,
0000
0030
0000
1000
,
0000
0020
0000
0000
,
0000
0000
0000
0030
,
0000
0100
0000
0001
,
0000
1000
0000
0100
,
0000
0020
0000
0000
,
0000
0000
0000
0000
,
0000
0030
0000
0000
,
0000
1000
0000
1000
,
0000
0001
0000
0001
,
0000
0100
0100
0100
,
0100
0100
0000
0010
,
0000
0100
0000
0010
,
0000
0100
0000
1000
,
0000
0001
0001
0001
,
0001
0001
0000
0100
,
0010
0002
0000
0000
,
0000
0003
0000
0100
,
1000
0020
0000
0000
,
0000
0030
0000
0000
,
0000
1000
0000
0010
,
0000
0100
0000
0001
,
0000
0020
0000
0000
,
0000
0000
0000
1030
,
0000
0001
0000
0010
,
0000
0100
0000
1000
,
0000
0100
0100
0100
,
0100
0100
0000
0001
,
0000
0010
0000
0001
,
0000
1000
0000
0100
,
0000
0001
0001
0001
,
0001
0001
0000
1000
,
0000
0010
0000
0110
,
0000
1001
0000
0011
,
0000
1100
0000
0110
,
0000
0011
0000
0000
,
1000
1000
1000
1000
,
0001
0001
0001
0001
,
0100
0010
0100
0010
,
0100
0220
0000
0000
,
0000
0331
0000
1000
,
0100
0010
0000
0100
,
1000
0001
0000
1000
,
0100
0001
0000
0010
,
0100
1000
0000
0010
,
0100
0001
0000
0010
,
0100
1000
0000
0010
,
0100
0001
0000
0010
,
0100
2000
0000
0000
,
0000
3000
0000
0000
;

//--------------- dance-single - B. M'Rey ----------------
#NOTEDATA:;
#STEPSTYPE:dance-single;
#DESCRIPTION:B. M'Rey;
#CREDIT:B. M'Rey;
#DIFFICULTY:Medium;
#METER:7;
#RADARVALUES:0.247226,0.417008,0.194604,0.194604,0,249,221,28,28,0,0,0.247226,0.417008,0.194604,0.194604,0,249,221,28,28,0,0;
#NOTES:
0000
0000
0000
0000
,
0000
0000
0000
0000
,
0000
0000
0000
0000
,
0000
0000
0000
0000
,
0000
0000
0000
0000
,
0000
2000
3200
0320
,
0032
0023
0230
2300
,
3200
0320
0032
2003
,
3200
0302
0023
0230
,
2300
3000
0000
0001
,
0010
0100
1000
0100
,
0001
0010
0000
0010
,
0000
0010
0000
0000
,
0000
0000
0001
0010
,
0100
0001
1000
0010
,
0100
0010
0000
0010
,
0000
0010
0000
0010
,
0000
0000
0001
0010
,
0100
1000
0010
0100
,
0001
0020
0000
0030
,
0000
0200
0000
0300
,
0000
0000
0000
1000
,
0001
0010
0100
0001
,
1000
0010
0000
0200
,
0000
0300
0000
0001
,
0010
0100
2000
0000
,
0000
3000
0000
0100
,
0001
0020
0000
0000
,
0000
0030
0000
0000
,
1000
0010
0001
0100
,
0000
0010
0100
0001
,
1000
0200
0000
0020
,
0000
0000
0000
0330
,
0000
0000
0000
1000
,
0001
1001
0100
0010
,
0100
0110
0001
0010
,
0001
0010
0011
0110
,
1100
1001
0000
0100
,
0010
0110
1000
0001
,
1000
1001
1000
0100
,
1000
0100
1100
0110
,
0011
1001
0000
0100
,
0010
1000
0002
1000
,
1000
1003
0000
0100
,
0010
0002
0010
0010
,
0010
0010
0013
0000
,
0000
1000
0001
0010
,
0000
0100
1000
0001
,
0010
0200
0000
0000
,
0000
0300
0000
0001
,
0010
1001
0100
0001
,
0010
0110
1000
0100
,
1000
0100
1010
1001
,
1100
1001
0000
0010
,
0100
1001
1000
0001
,
1000
0110
0001
0010
,
0001
0010
0101
1001
,
0011
1001
0000
0100
,
0010
0001
0000
1000
,
0000
0010
0000
0100
,
0000
0001
0000
1000
,
0000
0010
0000
0100
,
0000
0001
1000
0001
,
1000
0010
0100
0010
,
0100
0010
1001
1001
,
1001
0000
0001
1000
0001
1000
0001
1000
,
0001
1000
0001
0000
0010
0000
0100
0000
,
1000
0010
0100
0000
0001
0000
0010
0000
,
0100
0010
0100
0000
1000
0000
0001
0000
,
0010
0100
0010
0000
1000
0000
0100
0000
,
0001
0001
0100
0010
,
1000
0100
1000
0000
0001
0000
0100
0000
,
0010
0100
0010
0000
1000
0000
0001
0000
,
0010
0010
1000
0001
,
0100
0220
0000
0000
,
0000
0330
0000
0000
;

//--------------- dance-single - B. M'Rey ----------------
#NOTEDATA:;
#STEPSTYPE:dance-single;
#DESCRIPTION:B. M'Rey;
#CREDIT:B. M'Rey;
#DIFFICULTY:Hard;
#METER:10;
#RADARVALUES:0.327649,0.625512,0.152903,0.549061,0.139003,330,308,22,79,0,2,0.327649,0.625512,0.152903,0.549061,0.139003,330,308,22,79,0,2;
#NOTES:
0000
0000
0000
0000
,
0000
0000
0000
0000
,
0000
0000
0000
0000
,
0000
0000
0000
0000
,
0000
0000
0000
0000
,
0000
1000
0001
1000
,
0001
1000
0010
0100
,
0010
0100
0001
0010
,
0001
0010
1000
0100
,
1000
0000
1001
0000
0000
0000
0100
0010
,
0000
2000
0000
3002
0000
0023
0000
0230
,
0000
2300
0000
0000
0000
3002
0000
0000
,
0000
0003
0020
0000
0000
0000
0000
0000
,
0000
0030
0000
0000
0000
0000
1000
0100
,
0000
0002
0000
0000
0013
0100
0000
1000
,
0000
0002
0000
0000
0000
2003
0000
0000
,
0000
3100
0010
0000
0000
0001
0010
0000
,
0000
1000
0100
0000
0001
0000
0010
0100
,
0000
1000
0000
0100
0000
0001
0000
0010
,
0000
0100
2000
0000
0010
0000
3001
0000
,
0100
0020
0000
0200
,
0000
0000
0330
0000
0000
0000
0001
0010
,
0000
0100
0000
1000
0000
0100
0000
0001
,
0000
0020
0000
0000
0000
0000
0200
0000
,
0000
0000
0000
0000
0330
0000
0000
0000
0000
0000
0001
0000
1000
0000
0000
0100
,
0000
0001
0020
0000
0200
0000
0000
0000
,
0000
0000
0000
0000
0330
0000
0000
0000
0000
0000
1000
0000
0001
0000
0000
0010
,
0000
0100
2000
0000
0000
0000
0200
0000
,
0000
0000
3300
0000
,
0000
0000
0010
0000
0001
0000
0000
0010
0000
0000
0100
0000
1000
0000
0000
0000
,
0000
0000
0100
0000
0010
0000
0000
1000
0000
0000
0001
0000
0010
0000
0000
0100
,
0000
1000
0200
0000
0000
0020
0000
0000
,
0000
0000
0000
0000
,
0000
0000
0000
0000
0330
0000
0000
0000
0000
0000
1000
0000
0001
0000
0000
0010
,
0000
0000
0100
0000
1000
0000
0100
0000
0000
0000
0100
0000
0001
0000
0000
0100
,
0000
0000
1000
0000
0100
0000
1000
0000
0000
0000
0100
0000
0001
0000
0000
0010
,
0000
0000
0000
0000
0000
0000
0000
0000
0100
0000
0000
0000
0000
0000
0000
0000
1000
0000
0000
0000
0000
0000
0000
0000
0000
0000
0000
0000
0000
0000
0000
0000
2002
3003
0000
0000
0000
0000
0000
0000
0000
0000
0000
0000
0000
0000
0000
0000
2002
3003
0000
0000
0000
0000
0000
0000
0000
0000
0000
0000
0000
0000
0000
0000
,
2002
3003
0000
0000
0000
0000
0000
0000
0000
0000
0000
0000
0000
0000
0000
0000
2002
3003
0000
0000
0000
0000
0000
0000
0000
0000
0000
0000
0000
0000
0000
0000
0000
0000
0000
0000
0000
0000
0000
0000
0100
0000
0000
0000
0000
0000
0000
0000
0010
0000
0000
0000
0000
0000
0000
0000
0000
0000
0000
0000
1000
0000
0000
0000
,
0000
0000
0100
0000
0001
0000
0010
0000
0000
0000
0100
0000
1000
0000
0000
0010
,
0000
0000
0100
0000
0010
0000
0100
0000
0000
0000
0001
0000
0010
0000
0000
0100
,
0000
0000
0000
0000
0000
0000
0000
0000
1000
0000
0000
0000
0000
0000
0000
0000
0100
0000
0000
0000
0000
0000
0000
0000
0000
0000
0000
0000
0000
0000
0000
0000
0220
0330
0000
0000
0000
0000
0000
0000
0000
0000
0000
0000
0000
0000
0000
0000
0220
0330
0000
0000
0000
0000
0000
0000
0000
0000
0000
0000
0000
0000
0000
0000
,
0220
0330
0000
0000
0000
0000
0000
0000
0000
0000
0000
0000
0000
0000
0000
0000
0220
0330
0000
0000
0000
0000
0000
0000
0000
0000
0000
0000
0000
0000
0000
0000
0000
0000
0000
0000
0000
0000
0000
0000
0001
0000
0000
0000
0000
0000
0000
0000
1000
0000
0000
0000
0000
0000
0000
0000
0000
0000
0000
0000
0100
0000
0000
0000
,
0000
0001
0020
0000
0200
0000
0000
0000
,
0000
0000
0000
0000
0330
0000
0000
0000
0000
0000
1000
0000
0001
0000
0000
0010
,
0000
0100
2000
0000
0000
0000
0200
0000
,
0000
0000
3300
0000
,
0000
0000
0010
0000
0001
0000
0000
0010
0000
0000
0100
0000
1000
0000
0000
0000
,
0000
0000
0100
0000
0010
0000
0000
1000
0000
0000
0001
0000
0010
0000
0000
0100
,
0000
1000
0200
0000
0000
0020
0000
0000
,
0000
0000
0000
0000
0000
0000
0000
0000
0000
0000
1330
0000
0001
0000
0000
0010
,
0000
0000
0100
0000
1000
0000
0100
0000
0000
0000
0100
0000
0001
0000
0000
0100
,
0000
0000
1000
0000
0100
0000
1000
0000
0000
0000
0100
0000
0001
0000
0000
0010
,
0000
0000
0000
0000
0000
0000
0000
0000
0100
0000
0000
0000
0000
0000
0000
0000
1000
0000
0000
0000
0000
0000
0000
0000
0000
0000
0000
0000
0000
0000
0000
0000
2002
3003
0000
0000
0000
0000
0000
0000
0000
0000
0000
0000
0000
0000
0000
0000
2002
3003
0000
0000
0000
0000
0000
0000
0000
0000
0000
0000
0000
0000
0000
0000
,
2002
3003
0000
0000
0000
0000
0000
0000
0000
0000
0000
0000
0000
0000
0000
0000
2002
3003
0000
0000
0000
0000
0000
0000
0000
0000
0000
0000
0000
0000
0000
0000
0000
0000
0000
0000
0000
0000
0000
0000
0100
0000
0000
0000
0000
0000
0000
0000
0010
0000
0000
0000
0000
0000
0000
0000
0000
0000
0000
0000
1000
0000
0000
0000
,
0000
0000
0100
0000
0001
0000
0010
0000
0000
0000
0100
0000
1000
0000
0000
0010
,
0000
0000
0100
0000
0010
0000
0100
0000
0000
0000
0001
0000
0010
0000
0000
0100
,
0000
0000
0000
0000
0000
0000
0000
0000
1000
0000
0000
0000
0000
0000
0000
0000
0100
0000
0000
0000
0000
0000
0000
0000
0000
0000
0000
0000
0000
0000
0000
0000
0220
0330
0000
0000
0000
0000
0000
0000
0000
0000
0000
0000
0000
0000
0000
0000
0220
0330
0000
0000
0000
0000
0000
0000
0000
0000
0000
0000
0000
0000
0000
0000
,
0200
0300
0000
0000
0000
0000
0000
0000
0020
0030
0000
0000
0000
0000
0000
0000
0200
0300
0000
0000
0000
0000
0000
0000
0020
0030
0000
0000
0000
0000
0000
0000
0200
0300
0000
0000
0000
0000
0000
0000
0010
0000
0000
0000
0000
0000
0000
0000
0001
0000
0000
0000
0000
0000
0000
0000
0000
0000
0000
0000
1000
0000
0000
0000
,
0000
0000
0100
0000
0001
0000
0010
0000
0001
0000
0100
0000
1000
0000
0000
0100
,
0000
0000
0010
0000
0100
0000
0010
0000
0001
0000
1000
0000
0100
0000
0000
0001
,
0000
0010
0100
1000
0100
0000
0010
0001
,
0010
0000
0100
0010
0100
0000
1000
0100
,
1000
1001
1001
1001
,
0110
0000
0110
0000
0110
0000
0001
1000
,
0000
0100
0000
0010
0100
0010
0100
0010
,
0100
0000
0010
0000
0100
0010
0100
0010
0100
0010
0100
0010
0100
0010
0100
0010
,
0100
0010
0100
0010
0200
0000
0000
0000
0320
0000
0000
0000
0130
0000
0000
0100
,
1000
0000
0010
0000
0200
0000
0000
0000
0302
0000
0000
0000
0013
0000
0000
0001
,
0100
0000
0010
0000
0200
0000
0000
0000
2300
0000
0000
0000
3001
0000
0000
0100
,
0010
0000
0100
0000
0020
0000
0000
0000
2030
0000
0000
0000
3100
0000
0000
0001
,
0000
0000
0100
0000
0020
0000
0000
0000
0230
0000
0000
0000
0310
0000
0000
0100
,
1000
0000
0100
0000
2000
0000
0000
0000
3002
0000
0000
0000
0103
0000
0000
0001
,
0010
0000
0100
0000
0020
0000
0000
0000
2030
0000
0000
0000
3001
0000
0000
0010
,
0000
0100
0020
0000
2030
0000
3002
0000
,
2003
3220
0000
0000
,
0000
0330
0000
0000
;

//--------------- dance-single - B. M'Rey ----------------
#NOTEDATA:;
#STEPSTYPE:dance-single;
#DESCRIPTION:B. M'Rey;
#CREDIT:B. M'Rey;
#DIFFICULTY:Challenge;
#METER:13;
#RADARVALUES:0,0,0,0,0;
#NOTES:
0000
0000
0000
0000
,
0000
0000
0000
0000
,
0000
0000
0000
0000
,
0000
0000
0000
0000
,
0000
0000
0000
0000
,
0000
0010
1000
0100
,
1000
0100
0010
0100
,
0010
0001
0010
0100
,
1000
0001
0010
0100
,
1000
0000
0000
0000
2002
0000
0000
0000
0000
0000
0000
3003
0001
0000
0040
0000
,
0000
0430
0000
0340
0000
4030
0000
3040
,
0000
0031
1000
0000
0010
0100
0001
0000
,
0010
1000
2002
0000
0000
3003
2002
0000
,
0000
3003
0010
0000
0000
0000
0100
0010
,
0000
2000
0000
0000
3001
0040
0000
0430
,
0000
0301
1000
0000
0010
0000
0100
0000
,
0010
1000
0001
0000
1000
0001
0100
0000
,
0010
1000
0100
0000
0001
0000
0010
0004
,
0000
4003
0000
3010
0100
0040
0000
4030
,
0000
3001
0010
0001
0000
1000
0100
1000
,
0000
0010
0110
0000
0101
0000
2020
0000
,
0000
3030
0010
0000
0100
0000
0001
0010
,
0000
0004
0000
4003
0000
3100
0010
4000
,
0000
3010
0100
0000
0001
0010
1000
0000
,
0010
0000
0100
0000
0002
0000
0000
0000
0003
0000
1001
0000
0110
0000
0000
0101
,
0000
1010
0110
0000
0202
0000
0000
0000
,
0000
0000
0000
0303
0404
0000
0000
0000
0000
0000
1303
0000
0010
0000
0000
1000
,
0000
0001
0200
0000
0000
0040
0000
0000
,
0000
0000
0000
1330
,
0000
0000
0001
0000
0010
0000
0000
0100
0000
0000
0010
0000
0001
0000
1000
0000
,
0001
0000
0100
0000
0010
0000
0000
0100
0000
0000
0010
0000
1000
0000
0000
0001
,
0000
0100
0010
0100
0001
0100
0010
1000
,
0010
0000
0100
0000
0001
1000
0001
1000
0001
1000
0001
1000
0001
1000
0001
1000
,
0001
1000
0004
0000
0000
0000
0000
0000
0003
0000
0001
0000
1000
0000
0000
0010
,
0000
0000
0100
0000
0001
0000
0100
0010
1000
0000
0010
0000
0100
0000
0010
0000
,
0100
0000
0001
0000
0100
0000
0001
0100
0010
0000
1000
0000
0001
0000
0100
0000
,
0010
0000
1000
0000
0100
0000
0001
1000
0001
0000
0001
1000
0001
0000
0001
1000
,
0001
0000
0001
1000
0001
0000
0000
0000
1000
0000
0010
0000
0100
0000
0000
0001
,
0000
0000
0010
0000
1000
0000
0010
1000
0010
0000
0100
0000
0001
0000
0010
0000
,
0100
0000
0010
0000
0100
0000
0001
0100
0001
0000
0010
0000
1000
0000
0010
0000
,
0100
0000
0010
0000
1001
0000
1000
0001
1000
0000
1000
0001
1000
0000
1000
0001
,
1000
0000
1000
0001
0100
1000
0001
1000
0010
1000
0010
0100
0010
0100
0001
0100
,
0001
1000
0001
1000
0001
0000
0001
1000
0001
0000
0010
0100
0010
0000
0001
1000
,
0001
0000
0001
0100
0010
0000
1000
0000
0010
0000
0001
0010
0001
0000
0100
0000
,
0010
0000
0100
1000
0001
0000
0001
1000
0001
0000
0010
1000
0010
0000
0001
0100
,
0010
0000
0010
1000
0100
0000
0010
0100
0010
0000
0010
1000
0100
0000
0100
1000
,
0001
0000
0100
0010
1000
0000
0000
0010
0000
0000
0100
0000
0001
0000
1000
0000
,
0001
0000
1000
0000
0010
0000
0000
0100
0000
0000
0010
0000
1000
0000
0000
0010
,
0000
0100
0001
1000
0010
0100
0001
1000
,
0010
0000
0100
0000
0001
1000
0001
1000
0001
1000
0001
1000
0001
1000
0001
1000
,
0001
1000
0001
0000
0010
0000
1000
0010
1000
0000
0001
0000
1000
0000
0010
0000
,
0100
0000
0010
0000
1000
0000
0010
1000
0010
0000
0100
0000
0100
0000
1000
0000
,
0001
0000
0100
0000
0001
0000
0100
0001
0100
0000
0010
0100
0010
0000
0010
0001
,
0010
0000
0100
0001
0100
0000
0000
0000
0010
0000
0100
0000
0010
0000
1000
0000
,
0100
0000
0010
0000
0001
0000
0100
0010
0100
0000
1000
0000
0100
0000
1000
0000
,
0100
0000
0010
0000
0100
0000
1000
0010
1000
0000
1000
0000
0001
0000
1000
0000
,
0100
0000
0010
0000
0001
0000
1000
0000
0001
0000
1000
0001
1000
0000
0001
1000
,
0001
0000
1000
0000
0001
1000
0001
1000
0001
0000
0100
0000
0010
0000
0000
1000
,
0000
0000
0010
0000
0100
0000
0001
0000
0010
0000
1000
0000
0010
0000
0000
0100
,
0000
0000
0010
0000
1000
0000
0001
0000
0100
0000
0010
0000
0001
0000
0000
1000
,
0000
0010
0100
0000
0020
0000
2030
0000
,
3002
0010
0203
0000
0302
0000
0013
1000
,
0010
0100
1001
1001
1001
1001
0010
0100
,
0010
0100
0110
0110
0110
0110
0001
1000
,
0010
0000
0100
0000
0001
0010
0100
1000
0010
0100
0001
1000
0010
0100
0001
1000
,
0100
0010
0001
0100
0010
1000
0100
0010
0001
0100
0010
1000
0001
0100
0010
1000
,
0100
0010
0001
0000
2002
3003
0000
0000
0220
0330
0000
0000
0202
0303
0000
0001
,
1000
0000
0010
0000
0220
0330
0000
0000
0220
0330
0000
0000
0202
0303
0000
0010
,
1000
0000
0010
0000
0220
0330
0000
0000
0202
0303
0000
0000
2020
3030
0000
0010
,
1000
0000
0010
0000
0202
0303
0000
0000
2002
3003
0000
0000
0220
0330
0000
2002
,
3003
0000
0100
0000
0202
0303
0000
0000
2020
3030
0000
0000
0202
0303
0000
0010
,
0100
0000
0010
0000
2002
3003
0000
0000
0220
0330
0000
0000
0202
0303
0000
0010
,
1000
0000
0010
0000
0202
0303
0000
0000
0220
0330
0000
0000
2020
3030
0000
0202
,
0303
0000
0010
0000
0202
0303
0000
0000
2020
3030
0000
0000
0202
0303
0000
2020
,
3030
0000
0202
0303
0202
0303
0000
0000
0000
0000
0000
0000
0000
0000
0000
0000
;
