#TITLE:It's a Rainy Day;
#ARTIST:Ice MC;
#GENRE:Eurodance;
#CREDIT:B. M'Rey;
#MUSIC:It's a Rainy Day.ogg;
#BANNER:It's a rainy day-bn.png;
#BACKGROUND:It's a rainy day-bg.png;
#CDTITLE:./CDTITLES/Eurobeat X-Press 4 ~Non-Stop Mix~.PNG;
#SAMPLESTART:97.111;
#SAMPLELENGTH:12;
#OFFSET:-0.057;
#BPMS:0=134.959;

//--------------- dance-single - B. M'Rey ----------------
#NOTES:
     dance-single:
     B. M'Rey:
     Beginner:
     1:
     0.075872,0.110414,0.006988,0.013976,0,76,75,1,2,0,0,0.075872,0.110414,0.006988,0.013976,0,76,75,1,2,0,0:
0000
0000
0000
0000
,
0000
0000
0000
0000
,
0000
0000
0000
0000
,
0000
0000
0000
0000
,
0001
0000
0000
0000
,
0000
0000
0000
0000
,
0100
0000
0000
0000
,
0000
0000
0000
0000
,
0010
0000
0010
0000
,
0010
0000
0000
0000
,
1000
0000
1000
0000
,
1000
0000
0000
0000
,
0001
0000
0001
0000
,
0001
0000
0000
0000
,
0100
0000
0100
0000
,
0110
0000
0000
0000
,
0001
0000
0010
0000
,
0100
0000
1000
0000
,
0100
0000
0010
0000
,
0001
0000
1000
0000
,
0010
0000
0100
0000
,
0010
0000
0001
0000
,
1000
0000
0010
0000
,
0100
0000
0010
0000
,
0101
0000
0000
0000
,
0110
0000
0000
0000
,
1010
0000
0000
0000
,
0101
0000
0000
0000
,
0010
0000
0010
0000
,
0100
0000
0100
0000
,
0110
0000
0000
0000
,
1000
0000
0001
0000
,
0100
0000
0000
0000
,
0010
0000
0100
0000
,
1000
0000
0000
0000
,
0001
0000
0010
0000
,
0001
0000
0000
0000
,
0100
0000
0010
0000
,
0100
0000
0000
0000
,
1000
0000
0100
0000
,
0010
0000
0001
0000
,
0010
0000
0100
0000
,
1000
0000
0100
0000
,
0001
0000
1000
0000
,
0010
0000
0100
0000
,
0001
0000
0010
0000
,
0001
0000
0100
0000
,
0001
0000
1000
0000
,
0010
0000
0000
0000
,
0100
0000
0010
0000
,
0100
0000
0000
0000
,
1000
0000
0100
0000
,
1000
0000
0000
0000
,
0001
0000
0010
0000
,
1001
0000
0000
0000
,
1000
0000
0000
0000
,
0010
0000
0000
0000
,
0100
0000
0000
0000
,
0001
0000
0000
0000
,
0010
0000
0000
0000
,
0001
0000
0000
0000
,
0100
0000
0000
0000
,
0010
0000
0000
0000
,
1000
0000
0000
0000
,
0001
0000
0000
0000
,
0100
0000
0000
0000
,
0010
0000
0000
0000
,
1000
0000
0000
0000
,
0001
0000
0000
0000
,
0010
0000
0000
0000
,
0001
0000
0000
0000
,
1001
0000
0000
0000
,
0000
0000
0000
0000
,
0100
0000
0000
0000
,
0000
0000
0000
0000
,
0010
0000
0000
0000
,
0000
0000
0000
0000
,
0001
0000
0000
0000
;

//--------------- dance-single - B. M'Rey ----------------
#NOTES:
     dance-single:
     B. M'Rey:
     Easy:
     3:
     0.123791,0.16431,0.006988,0.097835,0,124,123,1,14,0,0,0.123791,0.16431,0.006988,0.097835,0,124,123,1,14,0,0:
0000
0000
0000
0000
,
0000
0000
0000
0000
,
0000
0000
0000
0000
,
0000
0000
0000
0000
,
0200
0000
0000
0000
,
0000
0000
0000
0000
,
0302
0000
0000
0000
,
0000
0000
0000
0000
0000
0000
0000
0003
,
1001
0000
0100
0000
,
0001
0000
0010
0000
,
1000
0000
0010
0000
,
0100
0000
0001
0000
,
1000
0000
0010
0000
,
0100
0000
0001
0010
,
1000
0000
0010
0000
,
1001
0000
0000
0000
,
0001
1000
0100
1000
,
0100
1000
0001
0100
,
0001
0100
0001
1000
,
0010
1000
0100
1000
,
0100
0010
0100
1000
,
0001
0100
0001
0100
,
0010
0100
0010
1000
,
0010
1000
0001
1000
,
0020
0000
0000
0000
,
2030
0000
0000
0000
,
3002
0000
0000
0000
,
0203
0000
0000
0000
,
0301
0000
1000
0000
,
0010
0000
0100
0000
,
0110
0000
0000
0000
,
0001
1000
0001
0000
,
0001
0010
0100
0000
,
0100
0010
0001
0000
,
0001
0000
0001
0000
,
0010
0100
0010
0000
,
0010
0100
0001
0000
,
0001
0000
0001
0000
,
0010
0000
0010
0000
,
0001
1000
0001
1000
,
0001
0010
0100
0010
,
0100
0010
0001
0100
,
0010
1000
0010
1000
,
0010
0100
0001
0010
,
0001
0010
0001
1000
,
0100
1000
0100
1000
,
0010
0100
0010
0100
,
0100
0010
0100
1000
,
0010
0000
0001
0000
,
0001
1000
0100
0010
,
0001
0000
0010
0000
,
0100
0010
0001
0100
,
0001
0000
1000
0000
,
0100
1000
0010
0100
,
1001
0000
0000
0000
,
0100
0010
0000
1000
,
0010
1000
0100
0000
,
0001
0100
0000
1000
,
0001
0010
0000
0100
,
0001
0010
0000
0010
,
0100
1000
0100
0000
,
0010
0100
0000
1000
,
0100
1000
0000
1000
,
0001
0010
0000
1000
,
0100
0010
0001
0000
,
0010
1000
0000
0010
,
0001
0100
0000
1000
,
0100
0010
0000
0100
,
0010
1000
0001
0000
,
0001
1000
0000
0010
,
0100
0010
0000
0010
,
0002
0000
0000
0000
,
2003
0000
0000
0000
,
3020
0000
0000
0000
,
0230
0000
0000
0000
,
0302
0000
0000
0000
,
2003
0000
0000
0000
,
3020
0000
0000
0000
,
0200
0000
0000
0000
,
0330
0000
0000
0000
;

//--------------- dance-single - B. M'Rey ----------------
#NOTES:
     dance-single:
     B. M'Rey:
     Medium:
     6:
     0.27853,0.334386,0.041929,0.230611,0,279,273,6,33,0,0,0.27853,0.334386,0.041929,0.230611,0,279,273,6,33,0,0:
0000
0000
0000
0000
,
0000
0000
0000
0000
,
0000
0000
0000
0000
,
0000
0000
0000
0000
,
0002
0000
0000
0000
,
2003
0000
0000
0000
,
3020
0000
0000
0000
,
0230
0000
0000
0000
,
0301
1000
0100
1000
,
0100
1000
0001
0100
,
0001
1000
0001
0100
,
0010
1000
0010
1000
,
0010
0100
0001
0010
,
0001
1000
0001
0010
,
0100
0010
0100
0010
,
1001
0000
0000
0000
,
0001
1000
0001
1000
,
0001
0010
0100
0000
0010
1000
0100
0000
,
0010
0100
0001
1000
,
0001
0010
1000
0000
0001
0010
0100
0000
,
0010
0100
0010
0100
,
0001
0100
1000
0000
0001
0100
1000
0000
,
0010
1000
0010
0100
,
0010
0001
1000
0000
0100
0001
1000
0000
,
0020
0100
0100
0100
,
2030
0001
0001
0001
,
0002
3010
0010
0010
,
0203
0010
0010
0010
,
0301
1000
0001
1000
,
0001
0100
0010
0100
,
0110
0000
0110
0110
,
0100
1000
0100
0000
0010
1000
0001
0000
,
0100
0000
0001
0000
0100
1000
0100
0000
,
0100
0010
0001
0000
0001
1000
0001
0000
,
0100
1000
0100
0001
,
0001
0010
0100
0000
0100
1000
0001
0000
,
0001
0000
0100
0000
0010
0100
0010
0000
,
0010
0100
0001
0000
0010
0100
0010
0000
,
0010
0100
1000
0100
,
0001
1000
0010
1000
,
0010
0100
1000
0000
0001
0010
0100
0000
,
0001
1000
0001
0010
,
0100
0001
0010
0000
0100
0001
0010
0000
,
0001
1000
0010
1000
,
0010
0100
1000
0000
0001
0100
0010
0000
,
0001
0010
0001
1000
,
0100
0001
1000
0000
0100
0001
1000
0000
,
0001
1000
0001
0000
0001
0010
0100
0000
,
0100
0000
0001
0000
0001
1000
0001
0000
,
0100
0010
0100
0000
0001
1000
0001
0000
,
0100
1000
0100
0001
,
0001
0100
0001
0000
0010
0100
0010
0000
,
1000
0000
0100
0000
0010
0100
0010
0000
,
0010
1000
0001
0000
0001
1000
0010
0000
,
1001
0000
0000
0000
,
0001
1000
0001
0000
0001
0010
0100
0001
,
0000
1000
0000
0001
0000
1000
0100
0001
,
0000
0010
0100
0000
0000
1000
0100
0000
,
0010
1000
0010
0000
0000
0100
0001
0000
,
0001
0010
0001
0000
0100
0010
1000
0001
,
0000
1000
0000
0001
0000
0100
0010
0100
,
0000
0010
0001
0000
0000
0010
0100
0000
,
0100
1000
0100
0000
0000
0010
0001
0000
,
0100
1000
0100
0000
0100
0010
0001
1000
,
0000
0001
0000
0010
0000
1000
0100
0000
,
0100
0010
0001
0000
0000
0100
0001
0000
,
0010
0100
0010
0000
0000
1000
0001
0000
,
0001
0100
0001
0000
0000
1000
0100
1000
,
0000
0100
0000
0001
0000
1000
0001
0000
,
0010
0100
0010
0000
0000
1000
0001
0000
,
0001
0100
0010
0000
0000
0100
0001
0000
,
1000
0000
0000
0000
0000
0000
0000
0010
,
0000
0100
0000
0001
0000
0000
0000
0000
,
0010
1000
0000
0000
,
0001
0100
0000
0000
,
0010
0000
1000
0000
0000
0000
0000
0100
,
0000
0001
0000
0010
0000
0000
0000
0000
,
0100
0010
0000
1000
,
0002
0000
0000
0000
,
0003
0000
0000
0000
;

//--------------- dance-single - B. M'Rey ----------------
#NOTES:
     dance-single:
     B. M'Rey:
     Hard:
     8:
     0.468211,0.579673,0.069882,0.174705,0.041929,469,459,10,25,0,1,0.468211,0.579673,0.069882,0.174705,0.041929,469,459,10,25,0,1:
0000
0000
0000
0000
,
0000
0000
0000
0000
,
0000
0000
0000
0000
,
0000
0000
0000
0000
,
0001
0000
1000
0000
,
0001
0100
0010
0000
,
0100
0000
0001
0000
,
0001
0010
0001
0000
,
0010
1000
0010
0100
,
0001
0000
0000
0000
0100
0000
0000
0000
0001
0000
0000
0000
1000
0000
0000
0010
,
0100
0010
0001
0010
,
0001
0010
0100
1000
,
0010
1000
0010
0100
,
0001
0000
0100
0000
0010
0000
1000
0100
,
0001
1000
0100
0010
,
0110
0000
0000
0000
0000
0010
0100
0000
,
0001
1000
0001
1000
0001
0100
0010
0100
,
0010
0100
0001
1000
0001
0000
1010
0000
,
0010
0100
0010
0100
0001
0100
0001
1000
,
0100
1000
0100
1000
0010
0000
0110
0000
,
0010
1000
0100
1000
0100
1000
0010
0100
,
0001
0100
0001
0100
0010
0000
1010
0000
,
0010
0100
0001
0100
0001
0100
0010
1000
,
0010
1000
0010
0100
0001
0000
0101
0000
,
0100
0000
0001
0100
0010
0000
0100
0010
0001
0000
0001
0010
0100
0000
0010
0100
,
0001
0000
0001
0010
0100
0000
0010
1000
0010
0000
0001
0100
0001
0000
0001
0100
,
0010
0000
0001
1000
0010
0000
0010
1000
0100
0000
0001
0100
0010
0000
0010
1000
,
0010
0000
0001
0010
0100
0000
0001
1000
0100
0000
0010
0100
0010
0000
0001
0100
,
0010
0011
1010
0101
,
0001
0100
0010
1000
0100
0010
0001
0010
,
2000
0000
0000
3000
0220
0330
0220
0330
,
0100
1000
0100
1000
0010
0000
0100
0010
0001
0000
0010
0000
0100
0000
1000
0000
,
0010
0000
0000
0001
0000
0000
1000
0000
0100
0000
0011
0000
0011
0000
0000
0000
,
0001
0010
0000
1000
0100
1000
0100
0000
0100
0000
0010
0000
0001
0000
1000
0000
,
0100
0000
0000
0010
0000
0000
0010
0000
0001
0000
0000
0000
0110
0000
0000
0000
,
0001
1000
0010
0000
0001
0000
0100
0000
0010
0000
1000
0000
0001
0100
0010
0000
,
0100
0000
0000
1000
0000
0000
0010
0000
0001
0000
0110
0000
0110
0000
0000
0000
,
0100
0010
0100
1000
0001
0010
0001
0100
,
0001
0000
0000
0010
0000
0000
1000
0000
0100
0000
0000
0000
0101
0000
0000
0000
,
0001
0100
0010
0100
0010
0100
0001
1000
,
0001
0100
0001
0100
0010
0000
1010
0000
,
0001
1000
0001
1000
0010
0100
0010
0100
,
0010
1000
0001
0010
0100
0000
0110
0000
,
0001
1000
0001
1000
0001
0100
0010
0100
,
0010
0100
0001
1000
0010
0000
0110
0000
,
0001
0100
0001
0100
0010
1000
0001
1000
,
0001
0100
0001
0100
0010
0000
1010
0000
,
0010
0100
0010
0100
0010
0000
1000
0000
0010
0000
0100
0001
0100
0001
1000
0000
,
0100
0000
0000
0001
0000
0000
1000
0000
0001
0000
0110
0000
0110
0000
0000
0000
,
0001
1000
0001
1000
0010
0000
1000
0001
0010
0000
0100
0000
0001
0000
1000
0000
,
0100
0000
0000
0001
0000
0000
1000
0000
0100
0000
0000
0000
0101
0000
0000
0000
,
0001
1000
0001
0000
0100
0000
1000
0000
0001
1000
0001
0000
0100
0000
0010
0000
,
0100
0000
0000
0010
0000
0000
0100
0000
0010
0000
1001
0000
1001
0000
0000
0000
,
0100
0010
0001
1000
0010
0100
0010
1000
,
0110
0000
0000
0220
0000
0000
0000
0330
,
0010
1000
0010
0000
0010
0100
0001
0100
,
0000
0010
0000
1000
0000
1000
0010
0100
,
0001
0100
0001
0000
0010
0000
0010
1000
,
0010
0100
0001
0000
0100
0000
0010
1000
,
0010
1000
0010
0000
0001
0100
0001
0010
,
0000
0100
0000
0010
0000
1000
0100
1000
,
0001
1000
0001
0000
0010
0000
0100
0010
,
0100
1000
0100
0000
0001
0000
0100
0010
,
0110
0000
0001
0000
0001
0100
0001
1000
,
0000
0100
0000
1000
0000
0100
0001
0100
,
0001
0010
0100
0000
1000
0000
0100
0010
,
0001
0010
0001
0000
1000
0000
0100
1000
,
0001
1000
0001
0000
0001
0010
0100
0010
,
0000
0100
0000
0001
0000
0010
0100
0010
,
0001
0100
0001
0000
0100
0000
0100
1000
,
0100
1000
0001
0000
0010
0000
0001
1000
,
1100
0000
0001
0000
0000
1000
0001
1000
,
0000
0010
0000
1000
0000
0100
0010
0100
,
0000
0000
0010
0000
0000
0001
0100
0001
,
0000
0000
0010
0000
0000
0001
0010
0001
,
0000
0000
0100
0000
0000
1000
0100
1000
,
0000
0001
0000
1000
0000
0001
1000
0001
,
0000
0000
0010
0000
0000
0010
0100
0010
,
0000
0100
1000
0010
,
0001
0000
0000
0000
;
