#VERSION:0.83;
#TITLE:Issues (Digital Dog Club Mix);
#ARTIST:The Saturdays;
#GENRE:Dance Club;
#CREDIT:B. M'Rey;
#MUSIC:Issues (Digital Dog Club Mix).ogg;
#BANNER:Issues (Digital Dog Club Mix)-bn.png;
#BACKGROUND:Issues (Digital Dog Club Mix)-bg.png;
#CDTITLE:./CDTITLES/BMR Superstars.PNG;
#SAMPLESTART:38.689;
#SAMPLELENGTH:15;
#OFFSET:-0.255;
#BPMS:0=128.012;
#STOPS:78=1.406,203=1.406;

//--------------- dance-single - B. M'Rey ----------------
#NOTEDATA:;
#STEPSTYPE:dance-single;
#DESCRIPTION:B. M'Rey;
#CREDIT:B. M'Rey;
#DIFFICULTY:Beginner;
#METER:3;
#RADARVALUES:0,0,0,0,0;
#NOTES:
0000
0000
0000
0000
,
0000
0000
0000
0000
,
0000
0000
0000
0000
,
0000
0000
0000
0000
,
0000
0000
1000
0000
,
0000
0000
0010
0000
,
0000
0000
0100
0000
,
0000
0000
0001
0000
,
0000
0000
0010
0000
,
0000
0000
0100
0000
,
0000
0000
0010
0000
,
0000
0000
1000
0000
,
0000
0000
0001
0000
,
0010
0000
0100
0000
,
0000
0000
1000
0000
,
0100
0000
0010
0000
,
0000
0000
0001
0000
,
0010
0000
0001
0000
,
0000
0000
0100
0000
,
0010
0000
1001
1000
,
0000
0010
0000
0100
,
0000
0000
0000
0010
,
0000
0100
0000
0010
,
0000
0000
0000
0001
,
0000
0010
0000
0001
,
0000
0000
0000
0100
,
0000
0010
0000
0100
,
0000
0000
0000
1000
,
0000
0100
0000
1000
,
0000
0000
0000
0010
,
0000
0100
0000
0010
,
0000
0100
0000
1001
,
0000
0000
0000
0101
,
0000
0000
0000
0110
,
0000
0000
0000
1010
,
0000
0000
0000
1000
,
0000
0000
0000
0010
,
0000
0000
0000
0100
,
0000
0000
0000
0001
,
0000
0000
0000
0010
,
0000
0000
0000
0100
,
0000
0000
0000
1000
,
0000
0000
0000
0001
,
0000
0000
0000
1000
,
0000
0010
0000
0100
,
0000
0000
0000
0001
,
0000
0010
0000
0100
,
0000
0000
0000
1000
,
0000
0010
0000
0100
,
0000
0000
0000
0001
,
0000
0010
0000
1001
,
0100
0000
0010
0000
,
0001
0000
0000
0000
,
0010
0000
1000
0000
,
0100
0000
0000
0000
,
0010
0000
0100
0000
,
0010
0000
0000
0000
,
0001
0000
0010
0000
,
0001
0000
0000
0000
,
0100
0000
0010
0000
,
0100
0000
0000
0000
,
1000
0000
0100
0000
,
1000
0000
0100
0000
,
0110
0000
0000
0000
,
0001
0000
0010
0000
,
0001
0000
0000
0000
,
0100
0000
0010
0000
;

//--------------- dance-single - B. M'Rey ----------------
#NOTEDATA:;
#STEPSTYPE:dance-single;
#DESCRIPTION:B. M'Rey;
#CREDIT:B. M'Rey;
#DIFFICULTY:Easy;
#METER:5;
#RADARVALUES:0,0,0,0,0;
#NOTES:
0000
0000
0000
0000
,
0000
0000
0000
0000
,
0000
0000
0000
0000
,
0000
0000
0000
0000
,
0000
0000
0001
0000
,
1000
0000
0010
0100
,
0010
0000
1000
0000
,
0001
0000
0100
0010
,
0100
0000
0001
0000
,
0010
0000
0001
1000
,
0001
0000
0100
0000
,
0010
0000
1000
0100
,
1000
0000
0001
1000
,
0010
0100
0001
0010
,
0001
0000
0010
0100
,
0010
1000
0010
0100
,
0001
0000
0001
1000
,
0001
0010
0100
0020
,
0000
0030
0100
0010
,
0001
0010
1001
1000
,
0010
0100
0010
0001
,
0000
0000
0000
0001
,
0010
0100
1000
0100
,
0000
0000
0000
1000
,
0100
0010
0001
0010
,
0000
0000
0001
1000
,
0010
0100
0001
0000
,
0000
0000
0000
0001
,
0010
0100
1000
0100
,
0000
0100
0000
0000
,
0000
0000
1000
0100
,
0000
0001
0000
1001
,
0000
0010
0000
0101
,
0000
0010
0000
1010
,
0000
0100
0000
0110
,
0000
0001
0000
1000
,
0000
0010
0000
0100
,
0010
0100
0000
0001
,
0000
0010
0000
1000
,
0100
1000
0000
0010
,
0000
0100
0000
0001
,
0010
0001
0000
0100
,
0000
0010
0000
1000
,
0100
1000
0000
0001
,
1000
0001
0010
0001
,
1000
0200
0000
0310
,
1000
0001
1000
0001
,
1000
0020
0000
0031
,
0100
0010
0100
0001
,
1000
0002
0000
1003
,
0100
0010
0100
0110
,
0001
0010
0100
1000
,
0100
0000
0000
0000
,
1000
0100
0010
0001
,
0010
0000
0000
0000
,
0010
0100
0001
1000
,
0010
0000
0000
0100
,
0010
1000
0001
0100
,
0000
0000
0000
0000
,
0001
0010
0100
1000
,
0100
0000
0100
0000
,
0000
0000
0000
1000
,
0100
0000
0010
0000
,
1001
0000
0000
0001
,
0010
0000
0100
0000
,
1000
0000
0000
0100
,
0010
0000
0010
0000
,
0010
0000
0000
0000
;

//--------------- dance-single - B. M'Rey ----------------
#NOTEDATA:;
#STEPSTYPE:dance-single;
#DESCRIPTION:B. M'Rey;
#CREDIT:B. M'Rey;
#DIFFICULTY:Medium;
#METER:7;
#RADARVALUES:0,0,0,0,0;
#NOTES:
0000
0000
0000
0000
,
0000
0000
0000
0000
,
0000
0000
0000
0000
,
0000
0000
0000
0000
,
0000
0000
0001
0100
,
0001
0000
0001
0010
,
0100
0000
0011
0000
,
1100
0000
0010
1000
,
0010
1000
0001
0000
,
0100
0000
0100
0010
,
0100
0010
0001
0000
,
0010
0000
0100
1000
,
0001
0000
1000
0000
0100
0001
0010
0000
,
0100
0010
1000
0000
0010
0001
1000
0000
,
0100
0000
1000
0000
0010
1000
0100
0000
,
0010
0001
0100
0000
0010
0100
1000
0000
,
0100
0000
1000
0000
0001
0010
0100
0000
,
0010
0100
1000
0000
0001
0010
1000
0000
,
0001
0000
0010
0000
0100
0010
1000
0000
,
0001
0000
0100
0001
0010
0000
1000
0000
,
0100
0000
1000
0000
0001
0010
1000
0000
,
0001
0000
0010
0000
0100
0000
0010
1000
,
0100
0000
0010
0100
0001
0000
0100
0000
,
0001
0000
1000
0000
0100
0000
1000
0010
,
0001
0000
0010
1000
0001
0000
0010
0000
,
0100
0000
1000
0000
0100
0001
0010
0000
,
0100
0010
1000
0000
0001
0000
0200
0000
,
0000
0310
0000
0100
,
0010
1000
0010
1000
,
0100
1000
0000
1000
0100
0000
0010
0000
,
0001
1000
0010
0100
,
0001
0100
0000
0100
0010
0000
0100
0000
,
0001
1000
0001
1000
,
0010
1000
0010
0100
,
0001
1000
0100
0010
,
0100
1000
0100
0110
,
0001
0000
0100
0000
0010
0000
1000
0001
,
0100
0000
0010
1000
0001
0000
0100
0000
,
0001
0000
0010
0000
0100
0000
1000
0010
,
0001
0000
0100
1000
0010
0000
0100
0000
,
0010
0000
0100
0000
0001
0000
0010
1000
,
0100
0000
0010
0100
0001
0000
0100
0000
,
0010
0000
0100
0000
0001
0000
0100
0001
,
0010
0000
1000
0010
0100
0000
1000
0100
,
0010
0000
1000
0100
0001
0000
0010
0100
,
0001
0000
0100
0000
0010
0000
0100
0001
,
0010
0000
1000
0010
0100
0000
1000
0001
,
0100
0000
0010
0000
0100
0000
0010
1000
,
0001
0000
0100
0010
0001
0000
0010
0100
,
0001
0000
0100
0000
0010
0000
1000
0100
,
0001
0010
0100
0110
,
0001
0000
0100
0000
0001
0000
0010
1000
,
0001
0010
0100
1000
,
0100
0010
1000
0000
0100
0001
0010
0000
,
0001
0100
0001
0100
,
0001
0010
1000
0000
0100
0001
1000
0000
,
0001
0000
1000
0000
0100
0000
0010
0100
,
0001
0000
1000
0010
0100
0000
1000
0000
,
0002
0000
0203
0000
,
0301
0000
1000
0000
0001
0000
1000
0100
,
0010
0000
0100
0001
0000
0001
0100
0000
,
0001
0100
0010
1000
,
0001
0000
1000
0100
0000
0100
0010
0000
,
0110
0010
0001
1000
,
0010
0000
0100
0010
0000
0010
0100
0000
,
0010
1000
0001
0100
,
0010
0000
0100
0001
0000
0001
1000
0000
;

//--------------- dance-single - B. M'Rey ----------------
#NOTEDATA:;
#STEPSTYPE:dance-single;
#DESCRIPTION:B. M'Rey;
#DIFFICULTY:Hard;
#METER:11;
#RADARVALUES:0,0,0,0,0;
#NOTES:
0000
0000
0100
1000
,
0001
0100
0001
0010
,
0001
0100
0010
1000
,
0010
0100
0010
1000
,
0001
0000
0010
0000
0001
1000
0100
0000
,
0010
0100
0001
0000
0010
0100
0001
0100
,
0001
1000
0001
0000
0010
0100
0010
0000
,
0100
1000
0010
0000
0001
0100
0010
1000
,
0100
0010
0001
1000
0001
0000
0010
1000
,
0001
0000
0010
0000
0001
0100
0010
1000
,
0001
0010
0001
0000
0001
0100
0010
0000
,
0010
1000
0010
0000
0001
0100
0010
0100
,
0010
0100
0001
0000
0100
1000
0001
1000
,
0000
0010
0001
0010
0000
1000
0010
1000
,
0001
0000
0100
0000
0001
1000
0100
0010
,
0000
0010
0001
0010
0000
1000
0010
2000
,
0000
0000
3001
0000
0001
0100
0001
1000
,
0000
1000
0100
1000
0000
0100
0010
0200
,
0000
0000
1300
0000
0010
1000
0100
0010
,
0000
0010
0001
0010
1001
0000
0010
1000
,
0010
1000
0010
0100
0001
0100
0020
0000
,
0001
0000
0001
0000
0001
0000
0130
1000
,
0001
0100
0010
1000
0001
0100
0020
0000
,
0100
0000
0100
0000
0100
0000
0130
0010
,
0100
0010
0100
1000
0010
1000
0200
0000
,
1000
0000
1000
0000
0301
0100
0010
0100
,
0010
0100
0001
1000
0001
0100
0020
0000
,
0001
0000
0001
0000
0001
0000
0130
0010
,
0100
0010
0100
1000
0001
0100
0001
0000
,
0010
1000
0000
0100
0010
0000
0001
0100
,
0010
0100
0010
1000
0010
0100
0010
0000
,
0001
0100
0000
0010
1000
0000
0001
1000
,
0001
1000
0001
0100
0010
0100
0010
0100
,
0001
1000
0001
0100
0001
0100
0010
0100
,
0010
1000
0010
1000
0001
1000
0100
0010
,
0100
1000
0100
1000
0001
1000
0010
0000
,
0010
0100
0010
0000
0001
0000
0001
1000
,
0010
1000
0100
0010
0100
0000
0010
0000
,
0001
1000
0010
0000
0001
0000
0100
0010
,
0100
0010
0001
1000
0001
1000
0010
0000
,
0001
1000
0100
0000
1000
0000
0001
0010
,
0001
0100
0010
1000
0001
0000
0010
0000
,
0010
0100
0001
0000
1010
0000
0001
0100
,
0001
0100
0010
0100
0001
0000
0100
1000
,
0010
0200
0000
1300
0100
0020
0000
1030
,
0001
0200
0001
0000
0301
0000
0010
0100
,
0001
2000
0000
3100
0001
0020
0000
0031
,
0100
0000
0000
0000
0000
0000
0000
0000
0020
0000
0000
0000
0000
0000
0000
0000
0000
0000
0000
0000
0000
0000
0000
0000
0000
0000
0000
0000
0000
0000
0000
0030
0001
0000
0000
0000
0000
0000
0000
0000
0000
0000
0000
0000
0000
0000
0000
0000
0100
0000
0000
0000
0000
0000
0000
0000
1000
0000
0000
0000
0000
0000
0000
0000
,
0100
2000
0000
3010
0100
2000
0000
3010
,
0001
0200
0001
0000
0310
0000
0001
1000
,
0001
0010
0001
0100
0010
1000
0101
0000
,
0100
0001
0100
0001
0100
0010
1000
0010
,
0200
1000
1000
1000
,
0310
0001
1000
0010
0100
0001
1000
0010
,
0200
0010
0010
0010
,
0310
0100
0010
0100
0010
0001
0100
0001
,
0020
0000
0001
0000
0001
0000
1030
0010
,
0100
0010
0100
0010
1000
0001
1000
0010
,
0200
1000
1000
1000
,
0310
0100
0010
0100
0010
0001
1000
0010
,
1000
0000
0100
0001
0000
0010
0100
0000
,
1000
0010
0100
0010
0100
0001
0100
0010
,
0100
0000
1000
0010
0000
0100
0001
0000
,
1001
0000
0010
0000
0001
0100
0010
1000
,
0010
0000
0100
1000
0000
0010
0001
0000
,
0010
0000
0001
0000
0010
1000
0010
0100
,
0010
0000
0001
0100
0000
0010
0001
0000
;
