#VERSION:0.83;
#TITLE:Island Of Fantasy;
#ARTIST:EuphoriaSound;
#GENRE:Hands Up;
#CREDIT:B. M'Rey;
#MUSIC:Island Of Fantasy.ogg;
#BANNER:Island Of Fantasy-bn.png;
#BACKGROUND:Island Of Fantasy-bg.png;
#CDTITLE:./CDTITLES/BMR Superstars.PNG;
#SAMPLESTART:97.871;
#SAMPLELENGTH:15;
#OFFSET:-0.386;
#BPMS:0=70.011,15.5=140.022;

//--------------- dance-single - B. M'Rey ----------------
#NOTEDATA:;
#STEPSTYPE:dance-single;
#DESCRIPTION:B. M'Rey;
#CREDIT:B. M'Rey;
#DIFFICULTY:Beginner;
#METER:3;
#RADARVALUES:0,0,0,0,0;
#NOTES:
0000
0000
0000
0000
,
0000
0000
0000
0000
,
0000
0000
0000
0000
,
0000
0000
0000
0000
,
1000
0000
0000
0000
,
0010
0000
0000
0000
,
0100
0000
0000
0000
,
0001
0000
0000
0000
,
0010
0000
0000
0000
,
0001
0000
0000
0000
,
0100
0000
0000
0000
,
0010
0000
0000
0000
,
1001
0000
0000
0000
,
0100
0000
0000
0000
,
0010
0000
0000
0000
,
1000
0000
0000
0000
,
0001
0000
0000
0000
,
0010
0000
0000
0000
,
0001
0000
0000
0000
,
0100
0000
0000
0000
,
0010
0000
0000
0000
,
1000
0000
1000
0000
,
0001
0000
0000
0000
,
0010
0000
0010
0000
,
0100
0000
0000
0000
,
0001
0000
0001
0000
,
0001
0000
0000
0000
,
0100
0000
0100
0000
,
0110
0000
0000
0000
,
0101
0000
0000
0000
,
0110
0000
0000
0000
,
1010
0000
0000
0000
,
0001
0000
0001
0000
,
1000
0000
1000
0000
,
0010
0000
0010
0000
,
0100
0000
0100
0000
,
0110
0000
0000
0000
,
0001
0000
1000
0000
,
0010
0000
0100
0000
,
0001
0000
0010
0000
,
0001
0000
1000
0000
,
0010
0000
0100
0000
,
0010
0000
1000
0000
,
0001
0000
0010
0000
,
0001
0000
0100
0000
,
0110
0000
0001
0000
,
0010
0000
0001
0000
,
1000
0000
0010
0000
,
0100
0000
0010
0000
,
0001
0000
1000
0000
,
0010
0000
0100
0000
,
0010
0000
1000
0000
,
0001
0000
0010
0000
,
0101
0000
0010
0000
,
0100
0000
0100
0000
,
0010
0000
0010
0000
,
0001
0000
0001
0000
,
1000
0000
1000
0000
,
0010
0000
0010
0000
,
0100
0000
0100
0000
,
0001
0000
0001
0000
,
1001
0000
1000
0000
,
1000
0000
0010
0000
,
0010
0000
0100
0000
,
0100
0000
0001
0000
,
0001
0000
1000
0000
,
1000
0000
0010
0000
,
0010
0000
0100
0000
,
0100
0000
0001
0000
,
1001
0000
0000
0000
;

//--------------- dance-single - B. M'Rey ----------------
#NOTEDATA:;
#STEPSTYPE:dance-single;
#DESCRIPTION:B. M'Rey;
#CREDIT:B. M'Rey;
#DIFFICULTY:Easy;
#METER:5;
#RADARVALUES:0,0,0,0,0;
#NOTES:
0000
0000
0000
0000
,
0000
0000
0000
0000
,
2000
0000
0000
0000
,
3002
0000
0000
0000
,
1003
0010
0000
0100
,
0001
0000
0010
0000
,
0100
0010
0000
1000
,
0001
0000
0100
0000
,
0010
0100
0000
1000
,
0001
0000
0100
0000
,
0010
0100
0000
0001
,
1000
0000
0010
0000
,
0100
0001
0100
0000
,
0010
1000
0010
0000
,
0100
0010
0100
0000
,
0001
0010
1000
0000
,
0100
0010
0100
0000
,
0001
1000
0010
0000
,
0100
0010
0100
0000
,
0001
1000
0010
0000
,
0101
0000
0000
0000
,
0010
0000
1000
0000
,
0110
0000
0000
0000
,
1000
0000
0001
0000
,
0110
0000
0000
0000
,
1000
0000
0010
0000
,
0101
0000
0000
0000
,
0010
0000
1000
0000
,
0101
0000
0110
0000
,
1010
0000
0110
0000
,
0101
0000
0110
0000
,
1010
0000
0110
0000
,
0011
0000
0110
0000
,
1100
0000
0110
0000
,
0011
0000
0110
0000
,
1001
0000
0101
0000
,
1010
0000
0000
0000
,
0001
1000
0100
0000
,
0010
0100
0001
0000
,
0010
1000
0010
0000
,
0100
0010
0001
0000
,
0100
1000
0001
0000
,
0100
0010
0100
0000
,
0001
1000
0001
0000
,
0010
0100
0010
0000
,
1001
0000
0001
0000
,
0100
1000
0010
0000
,
0010
0100
0001
0000
,
0010
1000
0010
0000
,
0100
0010
0100
0000
,
0001
1000
0001
0000
,
0100
0010
0100
0000
,
0001
0100
0001
0000
,
0001
0010
0100
0010
,
0001
0100
0001
1000
,
0010
0100
0001
1000
,
0100
1000
0001
0010
,
0100
1000
0001
0100
,
0010
1000
0001
0100
,
0010
1000
0100
0010
,
0001
0100
0001
1000
,
0100
1000
0010
0100
,
0001
1000
0010
1000
,
0001
0010
0100
1000
,
0001
0010
0001
0100
,
0010
0000
0100
0000
,
0001
0000
0010
0000
,
0100
0000
0002
0000
,
0000
0000
0000
0000
,
1003
0000
0000
0000
;

//--------------- dance-single - B. M'Rey ----------------
#NOTEDATA:;
#STEPSTYPE:dance-single;
#DESCRIPTION:B. M'Rey;
#CREDIT:B. M'Rey;
#DIFFICULTY:Medium;
#METER:10;
#RADARVALUES:0,0,0,0,0;
#NOTES:
0000
0000
0000
0000
,
0000
0000
0000
0000
,
0010
0000
0001
0000
,
0100
0000
1000
0000
,
0001
0010
0001
1000
,
0010
0100
0010
1000
,
0001
0100
0001
1000
,
0010
0100
0001
0100
,
0010
1000
0001
1000
,
0100
0010
0001
1000
,
0001
1000
0010
0100
,
0010
1000
0100
0010
,
0001
1000
0010
0000
0001
0010
0100
0000
,
0010
0001
1000
0000
0100
1000
0010
0000
,
0100
0010
1000
0000
0001
0100
1000
0000
,
1000
0001
0010
0000
0100
0010
1000
0000
,
0010
0001
1000
0000
0100
0001
0010
0000
,
0100
0010
1000
0000
0010
1000
0100
0000
,
0001
0010
0100
0000
0010
0100
1000
0000
,
0001
1000
0010
0000
0100
0001
1000
0000
,
0011
0110
1010
0110
,
0001
0010
1000
0000
0100
0010
1000
0000
,
0110
0011
1001
0110
,
0001
1000
0010
0000
0100
0001
0010
0000
,
0011
1100
0110
0011
,
0001
0100
0010
0000
0100
0010
1000
0000
,
0110
1100
0011
1100
,
0001
0010
1000
0000
0010
1000
0100
0000
,
0010
1000
0001
0010
,
0001
1000
0100
1000
,
0010
0100
0010
1000
,
0001
0100
0010
1000
,
0001
1000
0010
0000
0100
0010
1000
0000
,
0100
0010
1000
0000
0001
0100
0010
0000
,
0001
0010
1000
0000
0100
0001
0010
0000
,
0001
0100
0010
0100
,
0001
0000
0000
0000
,
0100
0010
0100
0000
0010
1000
0001
0000
,
0001
0100
0010
0000
0001
0010
0100
0000
,
0010
1000
0001
0000
0001
1000
0100
0000
,
0100
0010
0001
0000
0001
0010
0100
0000
,
0001
0100
0001
0000
0100
1000
0010
0000
,
0001
0100
0010
0000
0001
0100
0010
0000
,
0001
1000
0001
0000
0100
1000
0100
0000
,
0001
0010
0001
0000
0010
0100
0001
0000
,
0110
0000
0010
0100
0001
0000
0010
0100
,
0010
0000
0001
0100
0010
0000
0001
1000
,
0001
0000
0010
0100
0010
0000
0001
1000
,
0001
0000
0100
0010
0001
0000
0010
0100
,
0010
0000
0001
1000
0010
0000
0010
1000
,
0100
0000
0001
0100
0010
0000
0010
1000
,
0001
0000
0100
1000
0100
0000
0001
1000
,
0001
0000
0100
0010
0100
0000
0001
0000
,
0001
1000
0001
0010
0100
0010
0100
1000
,
0010
1000
0010
0100
0001
0010
0001
0010
,
0100
1000
0100
1000
0010
0100
0010
0100
,
0001
0010
0001
0100
0010
1000
0010
0100
,
0001
0010
0001
0100
0010
1000
0010
1000
,
0001
0100
0010
0100
0010
1000
0001
1000
,
0001
0100
0010
1000
0010
0100
0001
0010
,
0100
0010
0100
1000
0001
0010
0001
0010
,
0100
1000
0010
1000
0010
0100
0001
1000
,
0001
0010
0100
0010
0100
1000
0010
1000
,
0010
0100
0001
0010
0001
0010
0100
1000
,
0001
0010
0001
0010
0100
1000
0100
1000
,
0001
0100
0001
0100
0010
1000
0010
1000
,
0100
0010
0100
0010
0001
1000
0001
1000
,
0010
0100
0010
0100
0001
0000
0010
0000
,
0100
0010
0001
0100
,
1001
0000
0000
0000
;

//--------------- dance-single - B. M'Rey ----------------
#NOTEDATA:;
#STEPSTYPE:dance-single;
#DESCRIPTION:B. M'Rey;
#CREDIT:B. M'Rey;
#DIFFICULTY:Hard;
#METER:13;
#RADARVALUES:0,0,0,0,0;
#NOTES:
0000
0000
0000
0000
,
0000
0000
0000
0000
,
0001
0000
0010
0000
,
1000
0000
0001
0000
,
0100
0010
0001
1000
,
0001
0100
0010
0000
0100
0010
1000
0000
,
0010
1000
0001
0100
,
0010
0001
1000
0000
0100
0001
0010
0000
,
0100
0010
0001
1000
,
0001
0010
0100
0000
0010
1000
0100
0000
,
0010
1000
0001
0010
,
0001
0010
0100
0000
0010
1000
0100
0000
,
0010
0100
0001
0000
0010
1000
0010
0000
,
0100
0010
0001
1000
0100
0010
0100
1000
,
0001
0100
0010
0000
0010
1000
0100
0000
,
0001
1000
0100
0010
0001
0010
0100
1000
,
0100
0010
0001
0000
0100
1000
0010
0000
,
0001
0010
0100
0010
0100
1000
0001
0100
,
0010
1000
0100
0000
0001
1000
0010
0000
,
0001
1000
0001
0100
0010
0100
0001
1000
,
0010
0000
1000
0000
0100
0000
0000
0010
0000
0000
0100
0000
0001
0000
0000
0100
,
0000
1000
0100
0000
0001
0100
0010
0000
,
0100
0000
1000
0000
0010
0000
0000
0100
0000
0000
0100
0000
0001
0000
0000
0010
,
0000
0010
0100
0000
0010
0100
0001
0000
,
0100
0000
0010
0000
0001
0000
0000
0010
0000
0000
1000
0000
0010
0000
0000
0001
,
0000
1000
0100
0000
0001
1000
0001
0000
,
0010
0000
0100
0000
0010
0000
0000
0100
0000
0000
1000
0000
0010
0000
0000
0100
,
0000
0100
0001
0000
0001
0010
0100
0000
,
0100
0000
0010
0000
0001
0000
0000
0100
0000
0000
0100
0000
0010
0000
0000
0100
,
0000
0000
0010
0000
0001
0000
0000
0001
0000
0000
0010
0000
0100
0000
0000
1000
,
0000
0000
0100
0000
0010
0000
0000
0100
0000
0000
0010
0000
0100
0000
0000
0010
,
0000
0000
0100
0000
0010
0000
0000
0100
0000
0000
0010
0000
0100
0000
0000
0001
,
0000
0000
0100
0000
0001
0000
0000
0100
0000
0000
1000
0000
0010
0000
0000
0001
,
0000
0000
0100
0000
0001
0000
0000
0100
0000
0000
1000
0000
0010
0000
0000
0100
,
0000
0000
0010
0000
0001
0000
0000
0001
0000
0000
1000
0000
0100
0000
0010
0000
,
0001
0100
0001
0010
0100
1000
0100
0010
,
1001
0110
0011
1100
,
0001
0000
0100
0000
0010
0000
0100
0001
0000
0001
0010
0000
0001
0000
1000
0010
,
0000
0010
1000
0000
0100
0000
0010
0100
0000
0100
0010
0000
0001
0000
1000
0010
,
0000
0010
0100
0000
0010
0000
1000
0100
0000
0100
1000
0000
0001
0000
0100
0001
,
0000
0001
0100
0000
0010
0000
1000
0010
0000
0010
0100
0000
0001
0000
1000
0100
,
0000
0100
1000
0000
0001
0000
0010
0100
0000
0100
0010
0000
0100
0000
1000
0001
,
0000
0001
0010
0000
0100
0000
1000
0010
0000
0010
1000
0000
0010
0000
0100
0001
,
0000
0001
0010
0000
0100
0000
0010
0001
0000
0001
0100
0000
0010
0000
1000
0100
,
0000
0100
0010
0000
0100
0000
0010
0001
0000
0001
1000
0000
0100
0000
0010
0000
,
1100
0000
0000
0000
0001
0000
0010
0001
0000
0001
0100
0000
0010
0000
1000
0100
,
0000
0100
1000
0000
0010
0000
0100
0001
0000
0001
0010
0000
0100
0000
1000
0010
,
0000
0010
1000
0000
0100
0000
0010
0001
0000
0001
0100
0000
0010
0000
0100
0010
,
0000
0010
1000
0000
0001
0000
0010
0100
0000
0100
0010
0000
0001
0000
0100
0010
,
0000
0010
1000
0000
0001
0000
0100
0010
0000
0010
0100
0000
0010
0000
1000
0100
,
0000
0100
1000
0000
0010
0000
0100
0001
0000
0001
0100
0000
0001
0000
0010
0100
,
0000
0100
0010
0000
0001
0000
0100
0001
0000
0001
1000
0000
0010
0000
0100
0001
,
0000
0001
1000
0000
0001
0000
1000
0010
0000
0010
0100
0000
0010
0000
0100
0000
,
0010
0000
1000
0010
1000
0000
0100
0000
0001
0000
0010
0100
0010
0000
0010
0000
,
0001
0000
0100
0010
0001
0000
0010
0000
0100
0000
1000
0100
0001
0000
0010
0000
,
0001
0000
1000
0100
1000
0000
1000
0000
0010
0000
0100
0001
0100
0000
0100
0010
,
0100
0000
1000
0100
1000
0000
1000
0000
0001
0000
0100
0010
0001
0000
1000
0000
,
0010
0000
1000
0010
0001
0000
0010
0000
0001
0000
0100
0010
0100
0000
0100
0000
,
0010
0000
1000
0010
0100
0000
0010
0000
0100
0000
0010
0100
0001
0000
1000
0000
,
0100
0000
1000
0100
1000
0000
0010
0000
0001
0000
0010
0001
0100
0000
1000
0010
,
0001
0000
0100
0010
0001
0000
1000
0000
0100
0000
1000
0100
1000
0000
0010
0000
,
0001
0000
0100
0010
0100
0000
0100
0000
0010
0000
1000
0010
0001
0000
0100
0000
,
0001
0000
0100
0001
0010
0000
1000
0000
0010
0000
0100
0010
0001
0000
1000
0000
,
0001
0000
0010
0100
0010
0000
0010
0100
0001
0000
0100
1000
0010
0000
0100
0000
,
0010
1000
0100
0010
0001
1000
0010
0100
,
0001
0100
0001
0100
0001
0100
0001
0100
0001
0010
0001
0010
0001
0010
0001
0010
,
0100
0010
0100
0010
0100
0010
0100
0010
0100
1000
0100
1000
0100
1000
0100
1000
,
0001
1000
0001
1000
0001
1000
0001
1000
0001
0010
0001
0010
0001
0010
0001
0010
,
0001
1000
0010
0100
,
0110
0000
0000
0000
;

//--------------- dance-single - B. M'Rey ----------------
#NOTEDATA:;
#STEPSTYPE:dance-single;
#DESCRIPTION:B. M'Rey;
#CREDIT:B. M'Rey;
#DIFFICULTY:Challenge;
#METER:17;
#RADARVALUES:0,0,0,0,0;
#NOTES:
0000
0000
0000
0000
,
0000
0000
0000
0000
,
1000
0000
0010
0000
,
0100
0000
0001
0000
,
0100
0000
0100
1000
0000
0000
0001
0000
0100
0000
0010
0100
0000
0000
0010
0000
,
0100
0010
0001
1000
0010
0000
1000
0000
0001
1000
0100
0010
0001
0000
1000
0000
,
0001
0000
0010
0100
0000
1000
0001
0000
0010
0000
0001
0010
0000
0010
0001
0000
,
0010
0000
0010
0100
0000
0100
0001
0000
0010
0000
0010
0100
0000
1000
0100
0000
,
0001
0000
0100
0010
0000
0000
0100
0000
0001
0000
0100
0010
1000
0000
0100
0000
,
0001
0100
0001
0100
0010
0000
0001
0000
0100
1000
0001
0010
0100
0000
1000
0000
,
0001
0000
0001
0100
0001
0000
0100
0000
0010
0000
0001
0010
0100
0000
0010
1000
,
0100
0010
0001
1000
0010
0000
0100
0000
0010
0100
0001
0100
0010
1000
0001
0010
,
0100
0000
0010
0100
0000
0000
0100
0000
0001
0000
0010
0100
0001
0000
0001
0010
,
0001
0000
0010
0100
0001
0000
0001
1000
0010
0000
0001
1000
0100
0000
0001
0100
,
0001
0000
0001
0010
0100
0000
0001
0000
0100
1000
0100
1000
0100
0000
0001
0000
,
0001
1000
0010
1000
0010
0000
0100
0000
0001
0100
0001
0100
0010
0000
0100
0000
,
0010
0000
0001
1000
0000
0000
0100
0000
0001
0000
0010
0100
0001
0000
0010
1000
,
0100
0000
0001
0010
0001
0000
0001
0100
0010
0000
0001
1000
0001
0000
0001
0100
,
0010
0100
0001
0010
0100
0000
0010
0100
0001
0010
0100
1000
0010
0000
0010
1000
,
0001
0100
0010
1000
0001
0000
0001
0010
0100
0010
0100
1000
0100
0000
0001
0100
,
0010
0000
0001
0000
0010
0000
0010
0100
0000
0100
0010
0000
0100
0000
0001
0010
,
0001
0000
0100
1000
0001
0000
0001
0100
0001
0000
0010
0100
0010
0000
0100
0010
,
0001
0000
1000
0000
0010
0000
0100
0010
0000
0010
0001
0000
0001
0000
0100
1000
,
0010
0000
0001
0010
0100
0000
0100
1000
0001
0000
0100
0010
0001
0000
0010
0100
,
0001
0000
0010
0000
0001
0000
0100
1000
0000
1000
0010
0000
0001
0000
0010
1000
,
0100
0000
0010
0100
0001
0000
0001
0100
0010
0000
0010
0100
0001
0000
0001
0100
,
0001
0000
1000
0000
0010
0000
0001
1000
0000
0010
0100
0000
0010
0000
0001
1000
,
0001
0000
0010
1000
0100
0000
0001
1000
0010
0000
0010
1000
0100
0000
0100
0010
,
0100
0000
1000
0000
0010
0000
0100
0001
0000
0001
0100
0000
0001
0000
1000
0100
,
0000
0100
1000
0000
0100
0000
0010
0001
0000
0001
0100
0000
0001
0000
1000
0010
,
0000
0010
1000
0000
0010
0000
0100
0001
0000
0001
0100
0000
0001
0000
1000
0010
,
0000
0010
1000
0000
0010
0000
0100
0001
0000
0001
1000
0000
0001
0000
0100
0010
,
0100
0010
0100
0000
0010
0000
1000
0001
1000
0001
1000
0000
0010
0000
0100
0010
,
0100
0010
0100
0000
0001
0000
0010
0001
0010
0001
0010
0000
0100
0000
1000
0100
,
1000
0100
1000
0000
0010
0000
0100
0010
0100
0010
1000
0000
0001
0000
1000
0001
,
0100
0001
0010
0000
0100
0000
0010
0100
0010
0100
1000
0000
0001
0000
1000
0001
,
1000
1000
0100
1001
,
0001
0000
0001
1000
0001
0000
0100
0010
0100
0000
0001
1000
0001
0000
0001
0100
,
0010
0000
0010
0100
0001
0000
0001
1000
0100
0000
0100
0010
0100
0000
0001
1000
,
0001
0000
0010
1000
0001
0000
0001
1000
0100
0000
0100
0010
0100
0000
0001
0010
,
0001
0000
0001
1000
0010
0000
0010
1000
0100
0000
0100
0010
0100
0000
0001
0100
,
0001
0000
0001
1000
0100
0000
0100
1000
0100
0000
0001
0010
0001
0000
0001
1000
,
0100
0000
0100
0010
0100
0000
0001
0010
0100
0000
0100
1000
0100
0000
0001
0010
,
0001
0000
0100
1000
0100
0000
0100
0010
0001
0000
0100
0010
0100
0000
0100
1000
,
0001
0000
0001
0100
0001
0000
0100
0010
0100
0000
0001
1000
0100
0000
0010
1000
,
0010
0000
0001
0100
0001
0000
0010
1000
0010
0000
0010
0100
0001
0000
0001
0100
,
0010
0000
0010
1000
0100
0000
0100
0010
0100
0000
0001
0010
0001
0000
0001
0010
,
0100
0000
0100
0010
0001
0000
0010
0100
0010
0000
0001
1000
0100
0000
0100
1000
,
0010
0000
0010
0100
0010
0000
0100
1000
0100
0000
0010
0100
0001
0000
0001
0100
,
0010
0000
0100
1000
0100
0000
0001
0010
0001
0000
0001
1000
0010
0000
0001
0100
,
0010
0000
0001
0100
0001
0000
0001
0010
0100
0000
0100
1000
0100
0000
0001
1000
,
0001
0000
0001
1000
0100
0000
0010
1000
0001
0000
0001
0100
0001
0000
0010
1000
,
0100
0000
0100
0010
0001
0000
0001
1000
0001
0000
0100
0010
0100
0000
0001
0000
,
0010
1000
0010
1000
0001
0100
0001
0100
0001
0100
0001
1000
0100
1000
0100
1000
,
0100
1000
0001
0100
0001
0100
0010
0100
0010
0100
0010
0100
0001
1000
0001
1000
,
0001
0010
0001
0010
0001
0010
0100
0010
0100
0010
0100
1000
0001
0010
0001
0010
,
0100
0010
0100
0010
0100
0010
0001
0100
0010
1000
0010
1000
0010
1000
0001
1000
,
0001
0100
0001
0100
0001
0100
0001
1000
0010
1000
0010
0100
0001
0100
0001
0100
,
0001
0100
0010
0100
0010
1000
0010
0100
0010
0100
0010
1000
0001
1000
0001
1000
,
0001
1000
0100
1000
0100
0010
0100
0010
0100
0010
0100
1000
0001
0100
0010
1000
,
0001
0100
0001
0100
0001
0100
0001
0010
0001
0010
0100
0010
0001
0010
0001
0010
,
0001
1000
0001
1000
0001
0010
0100
0010
0100
0010
0100
0010
0001
0010
0001
1000
,
0010
1000
0010
1000
0010
0100
0010
0100
0010
1000
0001
1000
0001
1000
0010
1000
,
0010
1000
0100
0010
0001
0010
0001
0010
0001
0010
0100
1000
0100
1000
0010
1000
,
0100
1000
0100
1000
0100
0010
0100
0010
0100
0010
0001
0010
0001
0010
0001
1000
,
0010
1000
0010
0100
0010
0100
0010
0100
0010
1000
0100
1000
0100
1000
0001
1000
,
0001
1000
0001
0010
0001
0010
0001
0010
0100
0010
0100
1000
0100
1000
0100
1000
,
0100
0010
0001
0010
0001
1000
0001
0010
0001
0010
0001
0010
0001
0000
0010
0000
,
0100
0010
0100
0010
0100
0010
0001
0010
,
1001
0000
0000
0000
;
