#TITLE:I Wanna Be Wild;
#ARTIST:Bambee;
#GENRE:B. M'Rey;
#CREDIT:Bubblegum Dance;
#MUSIC:I Wanna Be Wild.ogg;
#BANNER:I Wanna Be Wild-bn.png;
#BACKGROUND:I Wanna Be Wild-bg.png;
#CDTITLE:./CDTITLES/BMR Superstars.PNG;
#SAMPLESTART:58.739;
#SAMPLELENGTH:12;
#OFFSET:-0.331;
#BPMS:0=139.022;

//--------------- dance-single - B. M'Rey ----------------
#NOTES:
     dance-single:
     B. M'Rey:
     Beginner:
     1:
     0,0,0,0,0:
0000
0000
0000
0000
,
0000
0000
0000
0000
,
0000
0000
0000
0000
,
0000
0000
0000
0000
,
0000
0000
1001
0000
,
0000
0000
0000
0000
,
0000
0000
0000
0000
,
0000
0000
0000
0000
,
0000
0000
0110
0000
,
0000
0000
1000
0000
,
1000
0000
0001
0000
,
0001
0000
0100
0000
,
0100
0000
0010
0000
,
0010
0000
0110
0000
,
0100
0000
0100
0000
,
0001
0000
0001
0000
,
1000
0000
1000
0000
,
0010
0000
0101
0000
,
0000
0000
1000
0000
,
0000
0000
0010
0000
,
0000
0000
0100
0000
,
0000
0000
0001
0000
,
0000
0000
0010
0000
,
0000
0000
0100
0000
,
0000
0000
0010
0000
,
0000
0000
1000
0000
,
0000
0000
1001
0000
,
0000
0000
0010
0000
,
0000
0000
0100
0000
,
0000
0000
0001
0000
,
0000
0000
0010
0000
,
0000
0000
0100
0000
,
0000
0000
0001
0000
,
0000
0000
1001
0000
,
0000
0000
1000
0000
,
1000
0000
0001
0000
,
0001
0000
0100
0000
,
0100
0000
0010
0000
,
0010
0000
0101
0000
,
0001
0000
1000
0000
,
1000
0000
0010
0000
,
0010
0000
0100
0000
,
0100
0000
0110
0000
,
0010
0000
1000
0000
,
1000
0000
0001
0000
,
0001
0000
0100
0000
,
0100
0000
0101
0000
,
0001
0000
0010
0000
,
0010
0000
1000
0000
,
1000
0000
0110
0000
,
0100
0000
0101
0000
,
0000
0000
0000
0000
,
0000
0000
1000
0000
,
0000
0000
0000
0000
,
0000
0000
0001
0000
;

//--------------- dance-single - B. M'Rey ----------------
#NOTES:
     dance-single:
     B. M'Rey:
     Easy:
     3:
     0,0,0,0,0:
0000
0000
0000
0000
,
0000
0000
0000
0000
,
0000
0000
0000
0000
,
0000
0000
0000
0000
,
0000
0000
1001
0000
,
1000
0000
0001
0000
,
0001
0000
0100
0000
,
0100
0000
0010
0000
,
0010
0000
0110
0000
,
1000
0001
1000
0000
,
0001
0000
0100
0000
,
0100
0001
1000
0000
,
0010
0000
0100
0000
,
0001
0100
1001
0000
,
0010
0000
0100
0000
,
0010
1000
0010
0000
,
0100
0000
0001
0000
,
0010
0100
0110
0000
,
0000
0000
1000
0000
,
0001
0000
0010
0000
,
0100
0010
0001
0000
,
0010
0000
1000
0000
,
0010
0100
1000
0000
,
0010
0000
0100
0000
,
1000
0001
0010
0000
,
0100
0000
0010
0000
,
1000
0100
1001
0000
,
0010
0000
0100
0000
,
0001
0010
1000
0000
,
0010
0000
0100
0000
,
0010
0100
1000
0000
,
0001
0000
0100
0000
,
0010
0001
0100
0000
,
0010
1000
0110
0000
,
0000
0000
0001
0000
,
1000
0000
0010
0000
,
0100
0010
0100
0000
,
0001
0010
0001
0000
,
1000
0100
1100
0000
,
0010
0000
0100
0000
,
0001
0010
0001
0000
,
0100
0010
0100
0000
,
1000
0010
1000
0000
,
0001
0000
1001
0000
,
0010
0100
0010
0000
,
0100
0000
1000
0000
,
0001
0010
0101
0000
,
0010
0000
1000
0000
,
0010
0100
0010
0000
,
0001
0000
1001
0000
,
0010
0100
0010
0000
,
1000
0000
0001
0000
,
0100
0010
0100
0000
,
0001
0010
0001
0000
,
1000
0000
0001
0000
;

//--------------- dance-single - B. M'Rey ----------------
#NOTES:
     dance-single:
     B. M'Rey:
     Medium:
     6:
     0,0,0,0,0:
0000
0000
0000
0000
,
0000
0000
0000
0000
,
0000
0000
0000
0000
,
0000
0000
0000
0000
,
0000
0000
0001
1000
,
0010
0000
0100
0010
,
0100
0000
1001
0000
,
0010
0000
0101
0000
,
0010
0100
0110
0000
,
0001
0000
0001
1000
,
0001
1000
0100
1000
,
0010
0001
0100
0000
0010
0000
1000
0000
,
0001
0010
1000
0000
0100
0000
1000
0000
,
0100
0010
0110
0001
,
1000
0001
1000
0001
,
0010
1000
0100
0000
1000
0000
0100
0000
,
1000
0001
0100
0000
0010
0000
0001
0000
,
0010
1000
0100
0000
0110
0000
0000
0000
,
0100
0000
0001
1000
,
0100
0001
0010
0000
0001
0000
1000
0000
,
0010
1000
0100
0000
0010
0000
1000
0000
,
0010
0001
0100
0000
0001
0000
1000
0010
,
0100
0000
1000
0001
0100
0000
0010
0000
,
0100
0000
0010
0000
0001
0010
1000
0000
,
0010
0000
0100
0000
0001
0100
1000
0000
,
0100
0000
1000
0000
0100
0000
1000
0010
,
0001
0000
0100
1000
1001
0000
1000
0000
,
0010
0001
0100
0000
0001
0000
0100
0000
,
0001
0100
1000
0000
0010
0000
0100
1000
,
0001
0100
0010
1100
,
0001
0011
0001
0010
,
0001
0010
1000
0000
0010
0000
0100
0000
,
0001
0100
1000
0000
0001
0000
0010
0000
,
0100
0001
1000
0000
0110
0000
0000
0000
,
0001
0000
1000
0000
0001
0010
1000
0000
,
0001
0010
1000
0000
0001
0010
0100
0000
,
0010
0000
0100
0000
0010
0100
1000
0000
,
0010
1000
0100
0000
0001
0010
0100
0000
,
0001
0000
0100
0000
0010
0100
1000
0000
,
0001
0100
1000
0000
0001
0100
1000
0000
,
0010
0000
0100
0000
0010
0001
0100
0000
,
0010
0001
1000
0000
0001
0100
1000
0000
,
0001
1000
0010
0101
,
0110
0100
0110
1000
,
0001
0010
0100
0000
0001
0000
0100
0000
,
1001
1000
0110
1000
,
0100
0001
0010
0000
0100
0000
1001
0000
,
0001
1100
0001
1000
,
0010
0001
0100
0000
0010
0000
0100
0000
,
0110
1000
0110
0000
,
0100
0001
1000
0000
0010
0000
0100
0000
,
0001
1000
0000
0000
,
0010
0100
0010
0000
,
1000
0001
1000
0000
,
0010
0000
0100
0000
0002
0000
0000
2000
,
0000
0000
3003
0000
;

//--------------- dance-single - B. M'Rey ----------------
#NOTES:
     dance-single:
     B. M'Rey:
     Hard:
     8:
     0,0,0,0,0:
0000
0000
0000
0000
,
0000
0000
0000
0000
,
0000
0000
0000
0000
,
0000
0000
0000
0000
,
0000
0000
0001
1000
,
0010
1000
0000
0010
0000
1000
0000
0001
,
0000
0100
0000
0001
0000
0000
0000
0100
,
0001
0000
1000
0010
0000
0000
0100
0000
,
0001
0000
0100
0000
0101
0000
0000
0100
,
0010
1000
0100
1000
0001
0010
0001
0010
,
0001
1000
0010
1000
0010
1000
0100
0010
,
0100
0010
0001
0010
0001
1000
0001
1000
,
0010
1000
0010
0100
0010
0100
0001
0100
,
0001
0000
0010
0000
0110
0000
0010
0100
,
0001
1000
0001
1000
0100
0010
0100
0010
,
0100
1000
0001
0100
0001
1000
0001
0010
,
0100
1000
0100
0010
0100
0010
0001
0100
,
0001
0010
1010
1000
,
0010
0000
0000
1000
0000
0000
0010
0000
0110
0000
0000
0000
0010
0000
1000
0000
,
0001
0100
0010
1000
0000
0010
0000
0100
,
0010
1000
0010
0100
0001
0000
0001
0100
,
0001
1000
0100
0010
0000
1000
0010
0100
,
0000
1000
0100
0010
0001
0000
0100
0000
,
0010
1000
0001
0010
0000
1000
0000
1000
,
0100
0010
0000
1000
0000
0010
0001
0100
,
0001
1000
0100
1000
0000
0000
0001
1000
,
0100
0010
0001
0000
1010
0000
0000
0100
,
0001
0010
0001
1000
0000
0100
0000
1000
,
0001
0010
0001
0100
0000
0100
0010
1000
,
0010
1000
0100
1000
0000
0100
0001
2000
,
0000
0000
3010
0200
0000
0000
0310
0100
,
0001
0100
0000
1000
0000
0010
0000
1000
,
0010
1000
0000
0010
0000
1000
0010
0000
,
0010
0100
0001
0000
0110
0000
0001
1000
,
0010
1000
0010
0000
0110
0000
0001
0010
,
0001
0010
0100
1000
0100
1000
0010
1000
,
0010
0100
0010
0100
0001
0100
0001
1000
,
0001
1000
0100
1000
0001
0100
0010
0100
,
0010
0000
0001
0000
1001
0000
0001
0010
,
0100
0010
0100
0010
0001
0100
0001
0100
,
0001
1000
0010
0100
0010
0100
0010
1000
,
0001
1000
0001
0100
0010
0100
0001
0100
,
0001
0000
1000
0000
1100
0000
0100
0010
,
0100
0010
0001
0100
0001
1000
0001
0010
,
0100
0000
0010
0000
1100
0000
0001
0010
,
0001
1000
0100
1000
0100
1000
0010
1000
,
0100
0000
0010
0000
0011
0000
0001
0010
,
0001
0100
0010
0100
0001
0100
0001
1000
,
0001
0000
0010
0000
0110
0000
0010
0100
,
0001
0100
0001
0010
1001
0000
0010
0000
,
0100
0001
1000
0100
0010
0000
1000
0000
,
0010
1000
0000
0001
0000
0000
0000
0010
,
0001
0010
0001
0100
0001
0000
0000
0100
,
0010
0000
0100
0010
0000
0000
0000
0001
,
0100
0000
1000
0000
0002
0000
0103
0002
,
0000
0000
0003
0000
;

//--------------- dance-single - B. M'Rey ----------------
#NOTES:
     dance-single:
     B. M'Rey:
     Challenge:
     10:
     0,0,0,0,0:
0000
0000
0000
0000
,
0000
0000
0000
0000
,
0000
0000
0000
0000
,
0000
0000
0000
0000
,
0000
0000
0000
0000
0011
0000
0001
0010
,
0001
1000
0000
0100
0000
1000
0001
0010
,
0000
0000
0100
0000
0001
0000
0100
0000
0010
0000
0010
0100
0010
0000
1000
0000
,
0010
0000
0100
0001
0100
0000
0010
0000
0001
0000
0100
0001
0100
0000
0100
0010
,
0100
0000
0100
0010
0100
0010
1000
0000
1010
0000
0000
0000
0000
0000
0010
0000
,
0100
0000
0010
0000
0100
0000
1000
0000
0001
0000
0010
1000
0010
0000
0010
0100
,
0001
0000
0001
0100
0010
1000
0010
1000
0010
0000
0001
0100
0001
0000
0010
1000
,
0001
0000
0001
0010
0001
0010
0100
0010
0100
0000
0100
1000
0010
0000
0010
0100
,
0010
0000
0001
0100
0001
0100
0010
0100
0010
0000
0010
0100
0001
0000
0010
0100
,
0010
0000
0001
1000
0001
0100
0010
0100
0010
0000
0001
1000
0100
0000
0001
0100
,
0001
0000
0001
0010
0100
0010
0100
0010
0001
0000
0010
0100
0010
0000
0001
1000
,
0001
0000
0001
1000
0010
1000
0010
0100
0010
0000
0001
1000
0010
0000
0100
0010
,
0100
0000
0100
1000
0010
1000
0001
1000
0001
0000
0001
0100
0010
0000
0010
1000
,
0100
0000
0100
0010
0100
1000
0001
0000
1010
0000
0100
0000
0010
0000
0100
0000
,
0010
0000
0100
0001
0000
0001
0010
0000
0101
0000
0000
0000
0001
0000
1000
0000
,
0100
1000
0100
1000
0001
0100
0001
0100
,
0001
1000
0010
1000
0100
1000
0100
0010
,
0100
1000
0010
0100
0010
0100
0010
1000
,
0001
1000
0001
1000
0010
0100
0010
1000
,
0010
1000
0001
1000
0001
0010
0001
0010
,
0100
1000
0100
1000
0100
0010
0001
0010
,
0001
0010
0100
1000
0010
1000
0001
0100
,
0001
0000
0100
0000
0010
0000
1000
0010
1000
0000
0000
0000
0010
0000
0100
0000
,
0001
1000
0001
1000
0001
0010
0100
0010
,
0100
0010
0001
0100
0001
1000
0001
1000
,
0010
1000
0010
0100
0010
0100
0001
0100
,
0010
1000
0010
1000
0010
0100
0001
1000
,
0010
1000
0001
1000
0100
0010
0100
0010
,
0100
1000
0010
1000
0010
1000
0001
0010
,
0001
1000
0001
1000
1100
0000
0110
0000
,
0100
0000
0010
0000
0001
0000
0010
0000
1000
0000
0001
1000
0001
0000
0001
0010
,
0100
0000
0100
1000
0100
1000
0010
1000
0010
0000
0010
0100
0001
0000
0001
0010
,
0001
0000
0100
0010
0100
1000
0100
1000
0001
0000
0001
0100
0010
0000
0010
1000
,
0010
0000
0001
1000
0001
1000
0001
0010
0100
0000
0100
0010
0001
0000
0010
0100
,
0010
0000
0001
0010
0001
0010
0001
0100
0010
0000
0010
1000
0010
0000
0001
0010
,
0001
0000
0001
0100
0010
0100
0010
1000
0010
0000
0001
1000
0001
0000
0001
1000
,
0100
0000
0100
1000
0001
0010
0001
0010
0001
0000
0010
1000
0010
0000
0001
0010
,
0001
0000
0001
1000
0010
1000
0010
0100
0010
0000
0001
0100
0001
0000
0001
0100
,
0010
0000
0010
0100
0001
1000
0100
1000
0100
0000
0010
0100
0010
0000
0010
1000
,
0001
0000
0001
1000
0100
0010
0100
1000
0100
0000
0001
1000
0001
0000
0001
1000
,
0010
0000
0010
0100
0010
1000
0100
1000
0100
0000
0010
0100
0010
0000
0010
1000
,
0001
0000
0001
1000
0010
0100
0010
0100
0010
0000
0001
1000
0001
0000
0010
0100
,
0010
0000
0010
1000
0100
1000
0010
1000
0010
0000
0010
0100
0001
0000
0001
1000
,
0001
0000
0100
0010
0100
0010
0100
1000
0010
0000
0010
1000
0001
0000
0001
0100
,
0001
0000
0010
1000
0010
1000
0100
0010
0100
0000
0100
1000
0001
0000
0001
1000
,
0100
0000
0100
0010
0001
0010
0001
0100
0001
0000
0010
0100
0010
0000
0010
1000
,
0100
0000
0100
0010
0100
0010
0001
1000
0010
0000
0000
0000
0001
0000
0100
0000
,
0001
0100
0000
1010
0000
0010
0000
1000
,
0001
0100
0001
0100
0001
0000
0000
1000
,
0010
1000
0010
0100
0010
0000
0000
0100
,
0010
1000
0001
0000
0020
0000
0001
0200
,
0000
0000
0330
0000
;
