#VERSION:0.83;
#TITLE:I Can't Be One;
#ARTIST:Oscillator X;
#GENRE:Eurotrance;
#CREDIT:B. M'Rey;
#MUSIC:I Can't Be The One.ogg;
#BANNER:I Can't Be The One-bn.png;
#BACKGROUND:I Can't Be The One-bg.png;
#CDTITLE:./CDTITLES/BMR Superstars.PNG;
#SAMPLESTART:43.262;
#SAMPLELENGTH:15;
#OFFSET:-0.236;
#BPMS:0=69.028,46=34.514,47=138.057,179=69.028,181=138.057;
#STOPS:46=1.738;
#DISPLAYBPM:69:138;

//--------------- dance-single - B. M'Rey ----------------
#NOTEDATA:;
#STEPSTYPE:dance-single;
#DESCRIPTION:B. M'Rey;
#CREDIT:B. M'Rey;
#DIFFICULTY:Beginner;
#METER:3;
#RADARVALUES:0,0,0,0,0;
#NOTES:
0000
0000
0000
0000
,
0000
0000
0000
0000
,
0000
0000
0000
0000
,
0000
0000
0000
0000
,
1000
0001
0100
0000
,
0010
0001
1000
0000
,
0100
0010
1000
0000
,
0000
0001
0010
0000
,
0100
0010
1000
0000
,
0001
0010
0100
0000
,
0010
1000
0100
0000
,
0001
0000
1000
0001
,
0000
0100
0000
0010
,
0000
0000
0000
1000
,
0000
0001
0000
0100
,
0000
0000
0000
0010
,
0000
0100
0000
0001
,
0000
0000
0000
1000
,
0000
0010
0000
0100
,
0000
0001
0000
1000
,
0000
0010
0000
0100
,
0000
0000
0000
0001
,
0000
0010
0000
1000
,
0000
0000
0000
0100
,
0000
0000
0000
0001
,
0000
0000
0000
0001
,
0000
1000
0000
0010
,
0000
0000
0000
0110
,
0000
0000
0000
1000
,
0000
0000
0000
0001
,
0000
0000
0000
0100
,
0000
0000
0000
0010
,
0000
0000
0000
1001
,
0000
0000
0000
0100
,
0000
0000
0000
0001
,
0000
0000
0000
1000
,
0000
0000
0000
0100
,
0000
1000
0000
0100
,
0000
0000
0000
0001
,
0000
0010
0000
0001
,
0000
0000
0000
0100
,
0000
0010
0000
0100
,
0000
0000
0000
1000
,
0000
0001
0000
1000
,
0000
0000
0000
0001
,
0000
1000
0000
0010
,
0000
0100
0000
0000
,
0000
0001
0000
0010
,
0000
0000
0000
1000
,
0000
0010
0000
0100
,
0000
0001
0000
0000
,
0000
1000
0000
0010
,
0000
0100
0000
0000
,
0000
1001
0000
0010
,
0000
0100
0000
0000
,
0000
0001
0000
1000
,
0000
0000
0000
0010
,
0000
0100
0000
0010
,
0000
0001
0000
0000
,
0000
1000
0000
0010
,
0000
0100
0000
0000
,
0000
0010
0000
0000
;

//--------------- dance-single - B. M'Rey ----------------
#NOTEDATA:;
#STEPSTYPE:dance-single;
#DESCRIPTION:B. M'Rey;
#CREDIT:B. M'Rey;
#DIFFICULTY:Easy;
#METER:5;
#RADARVALUES:0,0,0,0,0;
#NOTES:
0000
0000
0000
0000
,
0000
0000
0000
0000
,
0001
0000
0100
0000
,
0010
0000
0000
0001
,
0000
0100
0001
0010
,
0100
0010
0001
0100
,
0001
0010
0100
0010
,
0001
0100
0001
0100
,
0010
1000
0100
0010
,
0001
1000
0001
0010
,
0100
0010
0001
0100
,
0010
1000
1001
0100
,
1000
0100
1000
0001
,
0010
0001
0010
0100
,
1000
0100
1000
0010
,
0100
0010
0100
0001
,
1000
0001
1000
0100
,
0010
0100
0010
0001
,
1000
0001
1000
0100
,
0010
0100
0010
0001
,
0100
0001
0100
0010
,
1000
0010
1000
0100
,
0010
0100
0010
0001
,
1000
0001
1000
0100
,
0010
0100
0010
0001
,
0100
0001
0100
0010
,
1000
0010
1000
0001
,
0100
0001
0100
0110
,
0000
0000
0000
0001
,
0000
1000
0000
0010
,
0001
0010
0000
0100
,
0000
0010
0000
1000
,
0000
0100
0010
0100
,
0000
0001
0000
1000
,
0001
1000
0000
0010
,
0000
0100
0000
0001
,
0000
0001
1000
1001
,
0000
0110
0000
0101
,
0000
0110
0000
1010
,
0000
0110
0000
1001
,
0000
0101
0000
0110
,
0000
1010
0000
0110
,
0000
0101
0000
0001
,
0010
0100
1000
0100
,
0010
0001
0010
1001
,
0000
0001
1000
0001
,
1000
0100
0010
0100
,
0000
1001
0000
0001
,
1000
0100
0000
0100
,
0010
0001
1000
0001
,
1000
0010
0100
0010
,
0000
1000
0100
0001
,
1000
0100
0000
0110
,
0000
0001
0100
0001
,
0100
0010
1000
0010
,
0000
0011
0000
0001
,
0010
0100
0000
0001
,
1000
0001
0100
0010
,
0100
0010
1000
0100
,
0000
0011
0000
1001
,
0000
0100
1000
0100
,
1000
0110
0000
0000
;

//--------------- dance-single - B. M'Rey ----------------
#NOTEDATA:;
#STEPSTYPE:dance-single;
#DESCRIPTION:B. M'Rey;
#CREDIT:B. M'Rey;
#DIFFICULTY:Medium;
#METER:8;
#RADARVALUES:0,0,0,0,0;
#NOTES:
0000
0000
0000
0000
,
0000
0000
0000
0000
,
0001
0100
0010
1000
0000
0100
0000
0001
,
0000
1000
0001
1000
0000
0000
0001
0000
,
0011
0000
0100
1000
0001
1000
0001
0000
,
0010
0100
0001
1000
0001
0000
0100
0000
,
1000
0000
0010
0100
0010
0100
0001
0000
,
0100
0010
1000
0010
1000
0000
0001
0000
,
0110
0000
0010
1000
0001
0010
0001
0000
,
0100
1000
0100
1000
0010
0000
0001
0000
,
0100
0000
0010
0100
0010
1000
0100
0000
,
0001
0000
0000
0000
0001
0000
0100
0000
0001
0000
0000
1000
0010
0000
0000
0000
,
0100
0000
0010
0000
0100
0010
0001
0000
,
0010
0001
0100
0010
,
0100
0000
0001
1000
0010
0000
0001
0010
,
1000
0100
1000
0001
,
0100
0000
0010
0000
1000
0010
0100
0000
,
1000
0000
0100
0000
0010
0000
0001
0010
,
1000
0000
0010
0000
1000
0000
0010
0001
,
0100
0000
0001
0000
0100
0000
0010
0100
,
1000
0000
0010
0001
0100
0000
0001
0000
,
0100
0000
0001
0000
0010
0000
0100
1000
,
0010
0000
0100
0001
1000
0000
0001
0000
,
1000
0000
0010
0000
0100
0000
0010
1000
,
0100
0000
0001
0000
1000
0000
0001
0010
,
1000
0000
0100
0000
0010
0000
0001
1000
,
0010
0000
0001
0100
1000
0000
0010
0001
,
0100
0000
0001
1000
0100
0000
0110
0000
,
0000
1000
0000
1001
,
0001
0000
0010
1000
0000
0100
0000
0010
,
0000
0100
0000
1000
0001
0000
0110
0000
,
0001
0000
0010
1000
0100
0001
0010
0000
,
0100
1000
0010
0100
,
0010
0000
0100
0001
0000
1000
0000
0010
,
0000
1000
0000
0010
1000
0000
0100
0000
,
0001
0010
0000
0001
0000
0001
1000
0000
,
0100
0000
1000
0100
0010
0001
0110
0000
,
0001
0000
1000
0010
0001
0000
0101
0000
,
0010
0000
1000
0010
0001
0000
1100
0000
,
0001
0000
0100
0001
0010
0100
1000
0000
,
0010
0000
0100
0010
0001
1000
0100
0000
,
0001
0000
1000
0001
0100
0000
1010
0000
,
0100
0000
0010
0100
0001
0000
1000
0000
,
0100
0000
1000
0000
0100
0000
0010
1000
,
0001
1000
0001
0100
0010
0100
1001
0000
,
0000
0000
0001
0000
0100
0010
0100
0010
,
0000
1000
0000
0010
0000
0001
0000
1000
,
0001
0000
0101
0000
0010
0000
0010
1000
,
0001
1000
0001
0000
0100
0000
0001
1000
,
0001
1000
0100
0000
0001
0010
0100
1000
,
0000
0100
0000
0010
0000
0001
0000
0100
,
0010
0000
1010
0000
0001
1000
0000
0010
,
0000
0100
0000
1000
0001
0000
0110
0000
,
0110
0000
1001
0000
0001
1000
0010
0100
,
0000
0001
0000
1000
0100
1000
0000
0100
,
0010
0000
1001
0000
0001
0000
0010
1000
,
0000
1000
0001
0000
0001
0000
1000
0000
,
0100
0000
0011
0000
1001
0000
0010
1000
,
0000
0100
0000
0001
0000
0010
0000
0010
,
0100
0000
0011
0000
0001
0100
0110
0000
,
0010
1001
0101
1010
,
0110
0101
0000
0000
;

//--------------- dance-single - B. M'Rey ----------------
#NOTEDATA:;
#STEPSTYPE:dance-single;
#DESCRIPTION:B. M'Rey;
#CREDIT:B. M'Rey;
#DIFFICULTY:Hard;
#METER:11;
#RADARVALUES:0,0,0,0,0;
#NOTES:
0000
0000
0000
0000
,
0000
0000
0000
0000
,
0001
1000
0100
1000
0100
0010
0001
0010
0100
1000
0100
1000
0000
0100
0010
0100
,
0001
0000
0001
0010
0100
1000
0100
1000
0000
0000
0000
0000
0100
0010
0100
0010
,
0001
0000
1000
0000
0010
0100
0001
0100
0001
0000
0100
0000
0001
0000
0001
0100
,
0010
0000
0010
1000
0100
0010
0000
0010
0001
0000
0001
0000
0010
0000
0010
0000
,
1001
0000
0001
0010
0100
1000
0010
1000
0000
0100
0000
1000
0000
0000
0100
0010
,
0001
0000
0010
0000
0001
0010
0000
0010
0100
0000
0100
1000
0001
0000
0001
0000
,
1010
0000
0001
1000
0000
0100
0010
0100
0000
0001
0000
1000
0000
0010
0100
0000
,
0001
1000
0001
0000
0010
0000
0010
0100
0001
0000
0001
0010
0100
0000
1000
0000
,
0001
0000
0001
0010
0100
1000
0000
0001
0100
0000
0001
0100
0010
0000
0001
0000
,
0100
0000
0010
1000
0010
0000
0001
0010
1000
0000
0000
1000
0010
0000
1000
0000
,
0001
1000
0100
0010
0100
0010
0001
1000
,
0001
1000
0010
0100
0010
0100
0001
0010
,
0001
0010
0100
1000
0100
1000
0001
0010
,
0001
0010
0100
1000
0010
1000
0001
0010
,
0100
0010
0100
1000
0001
0010
0001
0010
,
0100
1000
0100
0010
0001
0010
0001
0100
,
0010
0100
0001
0010
0001
1000
0010
0100
,
0010
0000
0100
0000
0001
0000
1000
0000
0001
0000
1000
0000
0010
0000
0100
0010
,
0100
0000
0100
0000
0001
0000
0010
0100
0010
0000
0010
0000
0100
0000
1000
0010
,
1000
0000
0100
0000
0001
0000
0010
0100
0010
0000
1000
0000
0100
0000
1000
0001
,
1000
0000
0100
0000
0001
0000
0010
0100
0010
0000
0010
0000
0100
0000
1000
0000
,
0001
1000
0001
0000
0010
0000
0100
0000
0010
0100
0010
0000
0001
0000
1000
0000
,
0010
1000
0010
0000
0010
0000
0100
0000
0001
0100
0001
0000
0001
0000
0010
0000
,
0100
0010
0100
0000
0100
0000
1000
0000
0001
1000
0001
0000
0001
0000
0100
0000
,
0010
0100
0010
1000
0001
1000
0100
0010
,
0100
0001
0100
0110
,
0000
0000
0001
1000
0001
0000
0100
0000
0010
0000
0001
0000
1000
0000
0000
0000
,
0001
0000
0100
0010
0000
1000
0000
0001
,
0000
0100
0000
0010
0100
0000
0001
0000
,
1000
0000
0010
0100
0010
0100
0000
1000
,
0010
0000
0100
0001
0100
0001
0100
0000
,
1000
0000
0001
0100
0000
0010
0000
1000
,
0000
0100
0000
0100
0010
0000
0001
0000
,
1000
0001
1000
0000
0010
0000
0100
0000
0000
0000
0001
0000
0000
0000
0010
0000
,
1000
0000
0010
1000
0010
1000
1010
0000
,
0010
1000
0001
0010
,
0100
0000
0010
0001
0010
0001
0100
0000
,
0001
0010
0100
0010
,
0001
0000
0100
0001
0100
0001
0100
0000
,
0010
1000
0100
1000
,
0010
0000
0100
0001
0100
0001
0100
1000
,
0001
0000
0100
0000
0010
0000
0100
0000
0010
0000
1000
0001
1000
0000
0010
0000
,
0001
0000
0010
1000
0100
0000
1000
0000
0100
0000
1000
0100
0010
0000
0000
0000
,
0000
0000
1001
0000
0001
1000
0100
0010
,
0100
0010
0001
1000
0001
1000
0010
0100
,
0010
1000
0001
1000
0001
0010
0100
0010
,
0100
1000
0010
1000
0010
0100
0001
1000
,
0001
1000
0110
0000
0100
0010
0001
1000
,
0001
0100
0010
1000
0010
0100
0001
0100
,
0001
0010
0100
1000
0100
0010
0001
1000
,
0001
0100
0010
1000
0010
1000
0110
0000
,
0011
0000
1100
0000
0100
0010
0001
0010
,
0001
0100
0010
0100
0010
1000
0100
1000
,
0001
0010
0001
0010
0100
1000
0001
1000
,
0001
0100
0010
0100
0001
0010
0100
0010
,
0001
0000
0100
0000
0101
0000
0000
0000
0010
0000
1000
0000
0100
0001
0100
0000
,
0010
0100
0001
0010
0100
0010
0100
1000
,
0001
0000
0001
0010
0100
0000
0100
1000
,
0010
0000
0010
0100
0101
0000
1001
0000
,
1100
0011
0000
0000
;

//--------------- dance-single - B. M'Rey ----------------
#NOTEDATA:;
#STEPSTYPE:dance-single;
#DESCRIPTION:B. M'Rey;
#CREDIT:B. M'Rey;
#DIFFICULTY:Challenge;
#METER:13;
#RADARVALUES:0,0,0,0,0;
#NOTES:
0000
0000
0000
0000
,
0000
0000
0000
0000
,
0100
0010
0001
0100
0010
1000
0010
1000
0000
0100
0010
0100
0000
0010
0100
1000
,
0010
0000
0010
0100
0001
1000
0010
0100
0000
0000
0000
0000
0010
0100
0001
0100
,
0001
0000
0100
0000
0010
0000
1000
0010
1000
0000
0100
0000
0001
0000
0010
0100
,
0010
0000
1000
0000
0001
0000
0100
0010
0100
0000
1000
0100
1000
0000
0010
0100
,
0010
0000
0010
0000
0001
0000
1000
0001
1000
0000
0100
0000
0010
0000
0100
0010
,
0100
0000
1000
0000
0001
0000
1000
0010
1000
0000
0100
0001
0100
0000
1000
0001
,
1000
0000
0010
0000
0100
0000
1000
0001
1000
0000
0010
0000
0100
0000
1000
0001
,
1000
0000
0010
0000
0100
0000
1000
0001
1000
0000
0100
0001
0100
0000
0010
0100
,
0010
0000
1000
0000
0100
0000
0010
0001
0010
0000
0010
0000
0100
0000
1000
0100
,
1000
0000
1000
0000
0010
0000
0100
0000
1001
0000
0000
0100
1000
0000
0001
0000
,
0100
0010
1000
0100
1000
0010
0100
0001
,
1000
0100
1000
0010
0100
0010
0100
0001
,
0010
0100
1000
0010
0100
0001
0100
0010
,
1000
0000
0001
0000
1000
0000
0010
0000
0100
0000
0010
0100
0010
0000
0001
0000
,
1000
0000
0100
0010
0100
0000
1000
0000
0001
0000
0100
0010
0100
0000
0100
0000
,
0001
0000
1000
0100
1000
0000
0010
0000
0100
0000
1000
0001
1000
0000
0010
0000
,
0001
0000
0100
0010
0100
0000
1000
0000
0001
0000
1000
0100
1000
0000
0010
0000
,
0100
0000
1000
0001
1000
0000
0010
0000
1100
0000
0000
0000
1000
0000
0001
1000
,
0001
0000
0010
0100
0010
0000
0100
0010
0100
0000
0001
1000
0001
0000
0100
0010
,
0100
0000
0010
1000
0010
0000
0001
0100
0001
0000
0100
1000
0001
0000
0001
0100
,
0010
0000
0001
1000
0001
0000
0100
0010
0100
0000
0001
0100
0010
0000
0010
1000
,
0001
0000
0001
0100
0010
0000
0010
1000
0100
0000
0001
0010
0001
0000
0100
1000
,
0100
0000
0010
0100
0010
0000
0001
1000
0100
0000
0010
0100
0001
0000
0010
1000
,
0100
0000
0010
0100
0010
0000
0001
0010
0001
0000
0100
1000
0100
0000
0001
0010
,
0001
0000
0100
1000
0100
0000
0001
0100
0001
0000
0100
0010
0100
0000
0010
1000
,
0010
0000
0001
0100
0001
0000
0100
1000
0100
0000
0001
0000
1001
0000
0000
0000
,
0000
0000
1000
0001
1000
0000
0001
0000
1000
0000
0001
0000
1010
0000
0000
0000
,
0100
0000
0000
0000
0100
0000
0001
0010
1000
0000
0010
0000
0000
0000
0001
0010
,
0000
0000
0001
0010
0000
0000
0100
0000
1000
0000
0000
0000
1010
0000
0000
0000
,
0100
0000
0100
0001
1000
0100
0000
0100
,
0010
0000
0001
1000
0001
0000
0010
0000
1000
0000
0010
0000
0110
0000
0000
0000
,
0100
0000
0001
0000
1000
0000
0001
1000
0001
0000
0100
0000
0010
0000
0100
0010
,
0000
0000
0001
1000
0000
0000
0100
0000
1000
0000
0000
0000
0011
0000
0000
0000
,
1000
0010
1000
0000
0000
0000
0100
0000
0010
0000
0001
0000
0000
0000
1000
0000
,
0000
0000
0100
1000
0100
0000
0100
0000
0011
0000
1001
0000
0110
0000
0000
0000
,
0001
1000
0001
0000
0100
0010
0100
0000
0010
1000
0010
0000
0001
1000
0100
0000
,
0001
0010
0001
0000
0010
1000
0010
0000
0001
0100
0001
0000
0100
1000
0100
0000
,
0001
0100
0001
0000
0010
1000
0010
0000
0100
0010
0100
0000
0001
1000
0001
0000
,
0010
0100
0010
0000
0001
1000
0001
0000
0010
0100
0010
0000
0001
1000
0001
0000
,
0100
0010
0100
0000
0001
1000
0001
0000
0010
0100
0010
0000
0001
0100
0010
0000
,
0010
1000
0001
0000
0100
0010
0100
0000
0001
0100
0001
0000
0001
0000
1000
0000
,
0001
0000
0100
0000
0010
0000
0100
0000
0010
0000
1000
0001
1000
0000
0010
0000
,
0001
0000
0000
0000
0010
0000
1000
0000
0100
0000
0000
0000
1000
0000
0000
0000
0100
0000
0000
0000
1000
0000
0100
0000
0010
0000
0000
0000
0000
0000
1000
0001
,
1000
0010
0100
0001
0100
0000
0001
0000
0010
1000
0010
0000
0001
0000
0100
0000
,
0100
0010
0100
1000
0010
0000
0001
0010
0001
0000
0100
1000
0100
0000
0001
0000
,
0101
0000
0000
0000
0100
1000
0010
0100
0010
0000
0001
0000
0001
0010
0100
1000
,
0100
0000
0001
0000
0001
0010
0100
1000
0100
0000
0001
0100
0010
0000
0001
0000
,
1000
0000
0100
0000
1001
0000
0000
0000
0010
0100
0001
0100
0001
0000
0100
0000
,
0100
0010
0001
0010
0100
0000
0001
0100
0001
0000
0010
1000
0010
0000
0001
0000
,
1010
0000
0000
0000
0100
0000
0001
0000
0100
1000
0100
1000
0010
0000
0100
0000
,
0001
0000
0001
0100
0001
0000
1000
0000
0001
0000
1000
0000
0010
0000
0100
0000
,
0010
0000
0100
0000
0010
0000
0100
0000
0001
0010
0001
0010
0100
0000
0100
0010
,
0001
0000
1000
0100
0010
0000
0100
0000
0001
1000
0001
1000
0100
0000
0100
0010
,
0001
0000
1000
0000
0100
0010
0100
0010
0001
0000
0100
0000
0010
1000
0001
1000
,
0001
0000
0010
0000
0100
1000
0001
0100
0010
0000
0010
1000
0100
0000
0010
0001
,
0010
0000
0001
1000
0110
0000
0000
0000
0001
1000
0001
0000
0100
0010
0100
0000
,
0001
1000
0001
0000
0010
0000
0001
1000
0100
0000
0001
0000
0100
0000
0010
1000
,
0010
0000
0001
0000
0001
0100
0010
0000
1100
0000
0000
0000
0100
0010
0001
0000
,
1001
0001
1000
0001
1000
0010
0100
0001
,
1000
0001
1100
0000
0000
0000
0000
0000
;
