#VERSION:0.83;
#TITLE:Heroes Tonight;
#ARTIST:Janji & Johnning;
#GENRE:Uplifting EDM;
#CREDIT:B. M'Rey;
#MUSIC:Heroes Tonight.ogg;
#BANNER:Heroes Tonight-bn.png;
#BACKGROUND:Heroes Tonight-bg.png;
#CDTITLE:./CDTITLES/NoCopyrightSounds.PNG;
#SAMPLESTART:38.006;
#SAMPLELENGTH:15;
#OFFSET:-0.113;
#BPMS:0=128;

//--------------- dance-single - B. M'Rey ----------------
#NOTEDATA:;
#STEPSTYPE:dance-single;
#DESCRIPTION:B. M'Rey;
#CREDIT:B. M'Rey;
#DIFFICULTY:Beginner;
#METER:3;
#RADARVALUES:0.093,0.106,0,0.078,0;
#NOTES:
0000
0000
0000
0000
,
0000
0000
0000
0000
,
0000
0000
0000
0000
,
0000
0000
0000
0000
,
1001
0000
0000
0000
,
0000
0000
0000
0000
,
1000
0000
0000
0000
,
0000
0000
0000
0000
,
0010
0000
0000
0000
,
0100
0000
0000
0000
,
0001
0000
0000
0000
,
1000
0000
0000
0000
,
0110
0000
0001
0000
,
0010
0000
1000
0000
,
0100
0000
0001
0000
,
0010
0000
0001
0000
,
0100
0000
0010
0000
,
1000
0000
0100
0000
,
1000
0000
0010
0000
,
0100
0000
0000
0000
,
0000
0000
0100
0000
,
0010
0000
0100
0000
,
0000
0000
0001
0000
,
1000
0000
0010
0000
,
0000
0000
0100
0000
,
0010
0000
0001
0000
,
0000
2000
0000
0000
,
0000
0000
0000
3001
,
0000
0000
0100
0000
,
0010
0000
0001
0000
,
0000
0000
1000
0000
,
0010
0000
0100
0000
,
0000
0000
0010
0000
,
0100
0000
0001
0000
,
0000
0020
0000
0000
,
0000
0000
0000
0030
,
1000
0000
0000
0000
,
0001
0000
0000
0000
,
0110
0000
0000
0000
,
1001
0000
0000
0000
,
0100
0000
0001
0000
,
1000
0000
0010
0000
,
0000
0220
0000
0000
,
0000
0000
0000
0330
,
0000
0001
0000
1000
,
0000
0010
0000
0000
,
0100
0000
0001
0000
,
0010
0000
1000
0000
,
0000
0010
0000
0100
,
0000
0001
0000
0000
,
1000
0000
0010
0000
,
0100
0000
0001
0000
,
0000
1000
0000
0010
,
0000
0100
0000
0000
,
0001
0000
0010
0000
,
0100
0000
1000
0000
,
0000
0001
0000
0100
,
0000
0010
0000
0000
,
0001
0000
0100
0000
,
1000
0000
0010
0000
,
0100
0000
0000
0000
,
0001
0000
0000
0000
,
1000
0000
0000
0000
,
0010
0000
0000
0000
,
0100
0000
0000
0000
,
0001
0000
0000
0000
,
1000
0000
0000
0000
,
0010
0000
0000
0000
;

//--------------- dance-single - B. M'Rey ----------------
#NOTEDATA:;
#STEPSTYPE:dance-single;
#DESCRIPTION:B. M'Rey;
#CREDIT:B. M'Rey;
#DIFFICULTY:Easy;
#METER:5;
#RADARVALUES:0.178,0.212,0,0.218,0;
#NOTES:
0000
0000
0000
0000
,
0000
0000
0000
0000
,
0000
0000
0000
0000
,
0000
0000
0000
0000
,
1000
0000
0001
0000
,
0010
0000
0100
0010
,
1000
0000
0100
0000
,
0001
0000
0010
0010
,
1000
0000
0001
0000
,
0100
0000
0010
0010
,
0001
0000
1000
0000
,
0010
0000
0001
1000
,
0001
0000
0010
0100
,
0010
1000
0100
1000
,
0010
0000
0100
0000
,
0001
0010
0001
0010
,
0001
0000
0100
0000
,
0010
1000
0100
0010
,
0001
0000
0010
0000
,
0100
0000
0010
0000
,
0001
0000
1000
0000
,
0010
0000
0000
0100
0000
0000
0001
0010
,
0000
0000
0010
1000
,
0100
0010
0001
0010
,
0100
0000
1000
0000
,
0010
0000
0000
0100
0000
0000
0001
0000
,
0000
1001
0000
0000
,
0000
0000
0000
0010
,
0100
0000
0001
0010
,
1000
0000
0000
0010
0000
0000
0100
0000
,
0010
0000
0001
0010
,
0100
1000
0100
1000
,
0010
0000
0100
0001
,
0010
0000
0000
0100
0000
0000
0001
0000
,
1000
0010
0000
0000
,
0000
0000
0000
0000
,
0001
0001
0001
0001
,
0010
0010
0010
0010
,
0100
0100
0100
0100
,
1000
1000
1000
1000
,
0001
1000
0010
0100
,
0001
1000
0100
0010
,
0001
1000
0100
0010
,
0002
0000
0000
0000
,
0003
0100
0010
0100
,
0010
0001
1000
0010
,
0100
0010
1000
0001
,
0010
0001
0100
0010
,
0000
0001
1000
0001
,
0010
0100
0010
0001
,
1000
0100
0010
0100
,
0010
0001
1000
0001
,
0000
0010
1000
0100
,
1000
0001
0010
0100
,
0010
0100
1000
0010
,
0100
0001
1000
0010
,
0000
0010
0100
0001
,
0100
0001
0010
0100
,
1000
0001
0100
0001
,
0100
0010
1000
0001
,
0010
0000
0100
0000
,
0001
0000
1000
0100
,
1000
0000
0010
0000
,
0100
0000
0001
0010
,
0001
0000
0100
0000
,
0010
0000
1000
0000
,
0001
0000
0100
0000
,
0010
0000
0010
0000
,
0010
0000
0000
0000
;

//--------------- dance-single - B. M'Rey ----------------
#NOTEDATA:;
#STEPSTYPE:dance-single;
#DESCRIPTION:B. M'Rey;
#CREDIT:B. M'Rey;
#DIFFICULTY:Medium;
#METER:7;
#RADARVALUES:0.279,0.423,0.016,0.14,0;
#NOTES:
0000
0000
0000
0000
,
0000
0000
0000
0000
,
0000
0000
0000
0000
,
0000
0000
0000
0000
,
1001
0000
0000
0001
1000
0000
0010
0100
,
0010
0000
0000
0000
0001
0000
1000
0001
,
0000
0010
0000
0000
0001
0000
0010
0000
,
0000
0100
0001
1000
,
0010
0000
0000
0001
1000
0000
0010
0100
,
0000
0000
0001
0010
,
1000
0000
0000
0000
0010
0000
0100
0001
,
0000
0010
1000
0000
0010
0100
0001
0000
,
0010
0000
1000
0001
,
0010
0000
0001
0100
0001
0000
0001
1000
,
0001
0000
0010
0000
0110
0000
0000
0001
,
1000
0000
0010
0100
0000
0000
0001
0010
,
0001
0000
1000
0000
0010
1000
0000
0000
,
0010
0000
0100
0001
0000
0000
0010
1000
,
0000
0000
0000
0100
0000
0000
0001
0010
,
0001
0000
0000
1000
0000
0000
0001
0000
,
0000
0000
0000
0000
0001
0010
0000
0000
,
0100
0000
0000
0010
0000
0000
1000
0100
,
1000
0000
0000
0000
0001
0010
0000
0100
,
0000
0010
0000
1000
0000
0100
0000
1000
,
0000
0000
0000
0000
0001
0010
0000
0000
,
0100
0000
0000
0010
0000
0000
1000
0000
,
0000
1001
0000
0000
,
0000
0000
0000
0001
,
1000
0010
0100
0010
,
0001
0000
0010
0000
0001
0010
0001
0010
,
0001
1000
0010
0100
,
0010
0000
1000
0000
0100
1000
0100
1000
,
0100
0010
0100
0010
,
1000
0000
0100
0000
0001
0010
0001
0010
,
0001
0010
0100
0010
,
1000
0000
0100
0000
1000
0001
1000
0001
,
1001
1001
1001
1001
,
0110
0110
0110
0110
,
0011
0011
0011
0011
,
1100
1100
1100
1100
,
0001
0100
0001
0100
0001
0100
0001
1000
,
0001
1000
0001
1000
0001
1000
0001
1000
,
0100
1000
0100
1000
0100
1000
0100
0010
,
0200
0000
0000
0310
,
0001
0000
0001
0000
1000
0000
0010
0100
,
0000
0001
0000
0010
0000
1000
0000
0001
,
1000
0000
0010
0000
0100
0000
0001
0010
,
0000
1000
0000
0001
1000
0000
0010
0100
,
0000
0000
0001
0000
1000
0000
0010
0100
,
0000
0001
0000
0010
0000
1000
0000
0100
,
0010
0000
0001
0000
1000
0000
0010
1000
,
0000
0001
0000
0100
0010
0000
0001
1000
,
0010
0000
0100
0000
0001
0010
0001
0000
,
1000
0100
1000
0000
0010
0000
0100
0000
,
0001
0010
0001
0000
0010
0100
0010
0000
,
1000
0100
1000
0000
0010
0000
0100
0000
,
0001
0000
0001
0010
0001
0000
1000
0100
,
1000
0000
0010
0000
0100
0000
0001
0010
,
0001
0000
1000
0000
0010
0000
1000
0100
,
1000
0010
0100
0001
,
1001
0000
0001
1000
,
0010
0000
0000
0100
0001
0000
0010
1000
,
0000
0000
0000
0000
1001
0000
0000
0010
,
0100
0000
0001
0010
0000
0000
1000
0100
,
0000
0000
0000
0000
0010
0100
0000
0000
,
0001
0000
1000
0010
0000
0000
0000
0100
,
0000
0000
0000
0001
0000
0000
0001
0010
,
1000
0000
0000
0100
0000
0000
0010
0000
;

//--------------- dance-single - B. M'Rey ----------------
#NOTEDATA:;
#STEPSTYPE:dance-single;
#DESCRIPTION:B. M'Rey;
#CREDIT:B. M'Rey;
#DIFFICULTY:Hard;
#METER:11;
#RADARVALUES:0.502,0.853,0.576,0.156,0.121;
#NOTES:
0000
0000
0000
0000
,
0000
0000
0000
0000
,
0000
0000
0000
0000
,
0000
0000
0000
0000
,
1001
0000
0000
0000
0000
0000
0100
0000
0010
0000
0000
0100
0000
0000
0001
0000
,
2000
0000
0000
3100
1000
0000
0100
0001
,
0000
0010
0000
0001
0100
0010
0100
0010
,
0000
0001
1000
0001
0110
0000
1100
0000
,
0011
0000
0000
0010
1000
0000
0100
0002
,
0000
0103
1001
1010
,
1001
0000
0000
0010
0100
0000
1000
0001
,
0000
0001
0100
0001
0010
0100
1000
0100
,
0001
0000
0010
0000
0010
1000
0100
0000
,
0100
0000
0100
1000
0010
0000
0010
0100
,
0010
0000
0001
0000
0200
0000
0301
1000
,
0100
0000
0010
0100
0001
0000
0001
0010
,
0001
0000
0010
0000
0010
1000
0001
0000
,
0002
0000
1000
0103
0000
1000
0100
2000
,
0001
0000
3001
0010
0001
0000
0100
1000
,
0100
0000
0000
0110
0000
0000
1001
0000
,
0100
0000
0001
0100
0010
0000
0010
1000
,
0001
0010
0000
0100
0000
1000
0000
0010
,
0001
0000
0001
0100
0010
0100
0001
0010
,
0000
1000
0000
0100
0001
0000
0001
0100
,
0010
0000
0001
1000
0010
0100
0000
1000
,
0100
1000
0000
0100
0000
0010
0000
0100
,
0001
0000
0010
1000
0001
0010
0100
1000
,
0000
0100
0000
1000
0001
0000
0010
0000
,
0100
0000
0010
0100
0010
0000
0100
1000
,
0100
0000
0001
0010
0011
0000
1001
0000
,
0100
0000
0100
1000
0100
0000
0001
0010
,
0001
0000
0001
0010
0110
0000
0110
0000
,
0001
0000
0001
0100
0001
0000
0100
0010
,
0100
0000
0001
1000
1010
0000
1001
0000
,
0001
0000
0001
0010
0100
0000
0100
1000
,
0100
0000
0001
1000
0001
0000
0101
0000
,
0001
1000
0100
1000
0100
1000
0100
0010
,
0001
0010
0001
0010
0001
1000
0010
1000
,
0110
0011
1100
0011
1100
0101
1010
0110
,
1001
0110
1001
0110
1001
0110
1001
0110
,
0001
1000
0001
1000
0001
1000
0001
1000
0001
1000
0001
1000
0001
0010
1000
0010
,
1000
0010
1000
0010
1000
0010
1000
0010
1000
0010
1000
0010
1000
0010
1000
0010
,
1000
0001
1000
0001
1000
0001
1000
0001
1000
0001
1000
0001
1000
0001
1000
0001
,
2000
0000
0000
0001
,
3001
0000
0100
1000
0001
0000
0010
1000
,
0001
0110
0000
0011
0000
0110
0000
0100
,
0010
0000
0001
0100
0010
1000
0001
0010
,
0000
1010
0000
0110
0110
0000
1010
1010
,
0000
0000
0001
1000
0010
0000
0010
1000
,
0001
0100
0000
0110
0000
1010
0000
1000
,
0100
0000
0100
0010
0001
0100
0010
1000
,
0000
0101
0000
0100
0010
0000
0001
0010
,
0001
0000
0001
1000
0001
1000
0001
1000
,
0001
1000
0001
1000
0001
1000
0001
0100
,
0001
0100
0010
0100
0010
0100
0010
0100
,
0010
0100
0010
0100
0010
0100
0010
1000
,
0010
1000
0001
1000
0001
0010
0001
0010
,
0001
0010
0001
0010
0001
0010
0001
0010
,
0001
0010
0100
1000
0100
1000
0100
1000
,
0100
1000
0100
0010
0100
0010
0100
0000
,
0110
0000
0001
1000
,
0010
0000
0100
0010
0100
0000
0001
1000
,
0001
0000
0000
0000
0220
0000
0000
0331
,
1000
0000
0010
0100
0000
0000
0001
0100
,
0000
0000
0000
0000
0010
1000
0000
0000
,
0100
0000
0001
0100
0000
0000
0010
2000
,
0000
0000
0000
3100
0000
0000
0001
0010
,
1000
0000
0000
0001
0000
0000
1000
0000
;
