#VERSION:0.83;
#TITLE:Galaxies;
#ARTIST:Owl City;
#GENRE:Cinematic Electronic;
#CREDIT:B. M'Rey;
#MUSIC:Galaxies.ogg;
#BANNER:Galaxies-bn.png;
#BACKGROUND:Galaxies-bg.png;
#CDTITLE:./CDTITLES/BMR Superstars.PNG;
#SAMPLESTART:40.178;
#SAMPLELENGTH:15;
#OFFSET:-0.186;
#BPMS:0=120;

//--------------- dance-single - B. M'Rey ----------------
#NOTEDATA:;
#STEPSTYPE:dance-single;
#DESCRIPTION:B. M'Rey;
#CREDIT:B. M'Rey;
#DIFFICULTY:Beginner;
#METER:3;
#RADARVALUES:0.127936,0.16916,0.007108,0.014215,0,126,125,1,2,0,0,0.127936,0.16916,0.007108,0.014215,0,126,125,1,2,0,0;
#NOTES:
0000
0000
0000
0000
,
0000
0000
0000
0000
,
0000
0000
0000
0000
,
0000
0000
0000
0000
,
1000
0000
0000
0000
,
0001
0000
0000
0000
,
0100
0000
0000
0000
,
0010
0000
0000
0000
,
1000
0000
0000
0000
,
0001
0000
0000
0000
,
0100
0000
0000
0000
,
0010
0000
0000
0000
,
1000
0000
0001
1000
,
0100
0000
0010
0100
,
0001
0000
0000
0000
,
1000
0000
0000
0000
,
0010
0000
1000
0001
,
0010
0000
0010
0100
,
1000
0000
0001
0000
,
0100
0000
0000
0000
,
0000
0001
1000
0000
,
0100
1000
0001
0000
,
0010
0100
1000
0000
,
0010
0001
0100
0000
,
0000
1000
0001
0100
,
0000
1000
0001
0100
,
0000
0010
1000
0100
,
0000
0000
0002
0000
,
1003
0000
0010
0000
,
0100
0000
0001
0000
,
0010
0000
1000
0000
,
0010
0000
0100
0000
,
0001
0000
0010
0000
,
0001
0000
0100
0000
,
0010
0000
0001
0000
,
1000
0000
0010
0000
,
0100
0000
0000
0000
,
0010
0000
0000
0000
,
0001
0000
0000
0000
,
1000
0000
0000
0000
,
0100
0000
0000
0000
,
0010
0000
0000
0000
,
0001
0000
0000
0000
,
1000
0000
0000
0000
,
0100
0000
0010
0100
,
0001
0000
1000
0001
,
0010
0000
0000
0000
,
0100
0000
0000
0000
,
1000
0000
0100
0010
,
1000
0000
1000
0001
,
0100
0000
0010
0000
,
0001
0000
0000
0000
,
0000
0010
0100
0000
,
0001
0100
0010
0000
,
1000
0001
0100
0000
,
1000
0010
0001
0000
,
0000
0100
0010
0001
,
0000
0100
0010
0001
,
0000
1000
0100
0001
,
0000
0000
0020
0000
,
0130
0000
1000
0000
,
0001
0000
0010
0000
,
1000
0000
0100
0000
,
1000
0000
0001
0000
,
0010
0000
1000
0000
,
0010
0000
0001
0000
,
1000
0000
0010
0000
,
0100
0000
1000
0000
,
0110
0000
0000
0000
;

//--------------- dance-single - B. M'Rey ----------------
#NOTEDATA:;
#STEPSTYPE:dance-single;
#DESCRIPTION:B. M'Rey;
#CREDIT:B. M'Rey;
#DIFFICULTY:Easy;
#METER:6;
#RADARVALUES:0.24775,0.33832,0.049753,0.120829,0,244,237,7,17,0,0,0.24775,0.33832,0.049753,0.120829,0,244,237,7,17,0,0;
#NOTES:
0000
0000
0000
0000
,
0000
0000
0000
0000
,
0000
0000
0000
0000
,
0000
0000
0000
0000
,
1000
0000
0001
0000
,
1000
0001
0010
0000
,
1000
0000
0010
0000
,
0001
1000
0010
0100
,
0001
1000
0100
0000
,
0001
0010
1000
0000
,
0010
0100
0001
0000
,
1000
0010
0100
0000
,
1000
0000
0001
0000
0010
0100
0010
0000
,
1000
0000
0010
0000
0001
0100
0010
0000
,
1000
0000
0001
0000
,
0010
0000
0100
0000
,
0001
0000
1000
0000
0100
0010
0001
0000
,
0010
0000
1000
0000
0001
0100
0010
0000
,
0100
0000
0001
0000
,
1000
0001
0000
0001
,
1000
0002
1003
0100
,
0001
2000
3010
0010
,
0002
0000
1003
0000
0010
0000
0100
1000
,
0001
0110
0110
0000
,
0000
2000
3001
0010
,
0100
1000
0002
0000
0103
0000
1000
0000
,
0010
1000
0002
0000
2000
0000
0000
0000
,
3003
0000
0200
0000
,
0310
0001
1000
0010
,
0100
1000
0001
0100
,
0010
0001
1000
0010
,
0100
0001
1000
0010
,
0100
0001
1000
0010
,
0100
0001
0010
1000
,
0010
0100
0010
1000
,
0001
1000
0100
0001
,
0100
0000
0010
0000
,
0100
0010
1000
0000
,
0100
0000
1000
0000
,
0010
0100
1000
0001
,
0010
0100
0001
0000
,
0010
1000
0100
0000
,
1000
0001
0010
0000
,
0100
1000
0001
0020
,
0130
0000
0010
0000
1000
0001
1000
0000
,
0100
0000
1000
0000
0010
0001
1000
0000
,
0100
0001
0010
0100
,
1000
0000
0001
0000
,
0010
0000
0100
0000
0001
1000
0010
0000
,
1000
0000
0100
0000
0010
0001
1000
0000
,
0001
1000
0010
0001
,
0100
0010
0000
0010
,
0100
0020
0130
0001
,
0010
0200
1300
1000
,
0020
0000
0130
0000
1000
0000
0001
0100
,
0010
1001
1001
0110
,
0110
0200
0310
1000
,
0001
0100
0020
0000
0031
0000
0100
0000
,
1000
0100
0020
0000
0200
0000
0000
0000
,
0330
0000
0002
0000
,
1003
0010
0100
1000
,
0001
1000
0100
0000
0010
0000
0001
0000
,
1000
0010
0100
1000
,
0001
0010
0100
1000
,
0001
0010
0100
1000
,
0001
1000
0010
0000
1000
0000
0100
0000
,
1000
0000
0001
0010
1000
0000
0100
0000
,
0010
0100
0001
0010
,
1001
0000
0000
0000
;

//--------------- dance-single - B. M'Rey ----------------
#NOTEDATA:;
#STEPSTYPE:dance-single;
#DESCRIPTION:B. M'Rey;
#CREDIT:B. M'Rey;
#DIFFICULTY:Medium;
#METER:9;
#RADARVALUES:0.371624,0.447777,0.227442,0.255873,0.056861,366,334,32,36,0,1,0.371624,0.447777,0.227442,0.255873,0.056861,366,334,32,36,0,1;
#NOTES:
0000
0000
0000
0000
,
0000
0000
0000
0000
,
0000
0000
0000
0000
,
0000
0000
0000
0000
,
0010
0000
0000
0001
0000
0000
1000
0000
0000
0000
0000
0000
0000
0000
0000
0000
,
0010
0000
0000
0100
0000
0000
0001
0000
1000
0000
0000
0000
0000
0000
0000
0000
,
0100
0000
0000
0010
0000
0000
1000
0000
0000
0000
0000
0000
0000
0000
0000
0000
,
0010
0000
0000
0001
0000
0000
1000
0000
0001
0000
0010
0000
0100
0000
1000
0000
,
0010
0000
0001
1000
0010
0000
0100
0001
,
0010
0000
1000
0100
0001
0000
0010
0100
,
1000
0000
0001
0100
0010
0000
0100
1000
,
0010
0000
0001
0100
0010
0000
0110
0000
,
1000
0000
0000
0001
0000
0000
0010
0000
0100
0000
0000
0000
1000
0000
0000
0000
,
0100
0000
0000
1000
0000
0000
0010
0000
0100
0000
0000
0000
0001
0000
0000
0000
,
0010
0000
1000
0001
0010
0100
1000
0001
,
0100
0010
1000
0001
,
0010
0000
0000
1000
0000
0000
0001
0000
0100
0000
0000
0000
0010
0000
0000
0000
,
0001
0000
0000
1000
0000
0000
0010
0000
0100
0000
0000
0000
0001
0000
0000
0000
,
1000
0001
1000
0001
1000
0001
1000
0001
,
2000
3001
0002
1003
,
0001
0000
1100
0000
0011
0000
1000
0100
,
0010
0001
0011
0000
1100
0000
0001
0010
,
0100
1000
1100
0000
0011
0000
1000
0100
,
0010
0101
2020
0000
,
3030
0000
0011
0000
1100
0000
0001
0010
,
0100
1000
1100
0000
0011
0000
1000
0100
,
0010
0001
0011
0000
2200
0000
0000
0000
,
0000
0000
0000
3300
0001
1000
0001
1000
,
0200
0302
2003
3020
,
0130
0010
1000
0000
0001
0100
1000
0100
,
0002
0023
2030
3200
,
0301
1000
0010
0000
0100
0010
1000
0000
,
0001
0010
2000
0000
3200
0000
0302
0000
,
0013
1000
0100
0000
0001
0010
1000
0100
,
0002
0023
2030
3020
,
0230
0000
0000
0000
0301
1000
0010
0100
,
0001
0000
0000
1000
0000
0000
0010
0000
0000
0000
0000
0000
0001
0000
0000
0000
,
0100
0000
0000
0001
0000
0000
1000
0000
0010
0000
0000
0000
1000
0000
0000
0000
,
0001
0000
0000
1000
0000
0000
0010
0000
0000
0000
0000
0000
0001
0000
0000
0000
,
1000
0000
0000
0001
0000
0000
0100
0000
0010
0000
1000
0000
0001
0000
0010
0000
,
0100
0000
0001
1000
0010
0000
0100
0001
,
0010
0000
1000
0100
0010
0000
0001
0100
,
0010
0000
1000
0100
1000
0000
0001
0010
,
0001
0000
0100
0010
0100
0000
1000
0001
,
0100
0000
0000
0010
0000
0000
1000
0000
0001
0000
0000
0000
0100
0000
0000
0000
,
0001
0000
0000
0100
0000
0000
1000
0000
0001
0000
0000
0000
0010
0000
0000
0000
,
1000
0001
0100
0010
1000
0001
0100
0010
,
0002
2003
3200
0320
,
1030
0000
0000
0100
0000
0000
0010
0000
0001
0000
0000
0000
1000
0000
0000
0000
,
0010
0000
0000
0100
0000
0000
1000
0000
0001
0000
0000
0000
0010
0000
0000
0000
,
0100
0010
0100
0010
0100
0010
0100
0010
,
0200
0310
0020
0130
,
0010
0000
0101
0000
1010
0000
0100
0001
,
1000
0010
1010
0000
0101
0000
0010
1000
,
0001
0100
0101
0000
1010
0000
0100
0001
,
1000
0011
2200
3311
,
2200
0000
0000
3300
1010
0000
0000
0000
0101
0000
0000
0000
0010
0000
1000
0000
,
0001
0100
0101
0000
1010
0000
0100
0001
,
1000
0010
1010
0000
0202
0000
0000
0000
,
0000
0000
0000
0303
0010
0100
0010
0100
,
0001
0010
0100
1000
,
0001
1000
0100
0000
0010
0001
0100
0001
,
0010
1000
0100
0001
,
0010
0100
1000
0000
0001
1000
0100
0000
,
0010
1000
0100
0000
0001
0000
0010
0000
,
1000
0100
0001
0000
0010
1000
0100
0001
,
0010
1000
0100
1000
,
0001
0000
0100
0000
0010
0000
1000
0001
,
0220
0000
0000
0000
,
0000
0000
0000
0000
,
0330
0000
0000
0000
;

//--------------- dance-single - B. M'Rey ----------------
#NOTEDATA:;
#STEPSTYPE:dance-single;
#DESCRIPTION:B. M'Rey;
#CREDIT:B. M'Rey;
#DIFFICULTY:Hard;
#METER:11;
#RADARVALUES:0.504638,0.547283,0.20612,0.170582,0.213227,497,468,29,24,0,1,0.504638,0.547283,0.20612,0.170582,0.213227,497,468,29,24,0,1;
#NOTES:
0000
0000
0000
0000
,
0000
0000
0000
0000
,
0000
0000
0000
0000
,
0000
0000
0000
0000
,
0010
0000
0001
1000
0001
0000
0010
0000
0100
0000
0000
0000
1000
0000
0000
0000
,
0010
0000
1000
0001
0000
1000
0001
0000
0100
0000
0000
0000
0001
0000
0000
0000
,
1000
0000
0001
0100
0010
0000
1000
0000
0001
0000
0000
0000
0100
0000
0000
0000
,
0001
0000
0000
1000
0000
0000
0010
0000
0100
0000
0001
0000
1000
0000
0010
0000
,
0001
0000
1000
0001
1000
0000
0010
0000
0001
0000
0010
1000
0010
0000
0100
0000
,
0001
0000
1000
0010
1000
0000
0010
0000
0100
0000
0001
0010
0001
0000
0100
0000
,
0001
0000
0001
0100
1000
0000
0010
0000
0001
0000
1000
0100
0010
0000
0001
0000
,
0010
0000
1000
0100
0010
0000
0001
0010
0100
0000
0010
1000
0010
0000
0001
0000
,
1000
0000
0001
0010
0000
0100
1000
0000
0100
0000
0000
0000
0001
0000
0000
0000
,
0010
0000
1000
0100
0000
0001
0010
0000
0100
0000
0001
0000
1000
0000
0000
0000
,
0001
1000
0010
0100
0001
1000
0010
0001
,
1000
0000
0001
0010
0100
0000
1000
0000
0100
0000
0001
1000
0010
0000
0100
0000
,
0001
0000
1000
0010
0000
0100
0001
0000
0010
0000
0000
0000
1000
0000
0000
0000
,
0001
0000
1000
0100
0000
0001
0010
0000
0100
0000
1000
0000
0010
0000
0000
0000
,
0001
1000
0100
0001
0010
1000
0001
0010
,
0100
1000
0100
0000
0001
0100
0010
0000
,
0100
0000
1010
0000
0101
0000
0010
1000
,
0001
0100
0011
0000
1100
0000
0001
1000
,
0010
0100
1001
0000
0110
0000
0001
1000
,
0010
2000
3002
0023
,
0230
0000
0000
0300
1010
0000
0000
0000
0101
0000
0000
0000
0010
0000
1000
0000
,
0001
0010
0101
0000
1010
0000
0100
1000
,
0010
0100
0011
0000
1100
0000
0001
0010
,
1000
0000
0100
0000
0001
0000
0000
0000
0010
0000
1000
0100
0000
0000
0001
0000
,
1000
0010
0100
0001
1000
0010
0100
0001
,
0020
0000
2030
0000
3200
0000
0300
0000
0001
0000
1000
0010
0000
0000
0001
0000
,
0010
1000
0100
0010
0001
1000
0010
0100
,
0001
1000
0010
0000
0100
0001
1000
0000
,
0001
0000
1000
0100
0000
0000
0001
0000
0010
0000
0100
0000
1000
0000
0010
0000
,
0200
0000
0302
0000
2003
0000
3000
0000
0010
0000
0100
0001
0000
0000
0010
0000
,
1000
0002
0000
0023
0000
2030
0000
3100
,
0002
0000
0000
0000
0000
0000
0000
0000
1003
0000
0010
0100
0000
0000
0100
0000
,
1000
0000
0000
0001
0000
0000
0100
0000
0001
0000
0000
0000
1000
0000
0000
0000
,
0010
0000
0001
0100
0000
0010
1000
0000
0100
0000
0000
0000
0001
0000
0000
0000
,
1000
0000
0000
0001
0000
0000
0100
0000
0010
0000
0000
0000
1000
0000
0000
0000
,
0001
0000
1000
0100
0000
0001
0010
0000
0100
0000
1000
0000
0001
0000
0010
0000
,
0100
0000
0010
0001
0010
0000
1000
0000
0100
0000
0100
0001
0010
0000
0100
0000
,
1000
0000
0001
0010
0001
0000
0001
0000
1000
0000
0010
0100
0010
0000
0001
0000
,
0010
0000
1000
0100
1000
0000
0010
0000
0001
0000
0100
0010
0100
0000
0001
0000
,
1000
0000
0001
0010
0001
0000
1000
0010
0100
0000
0001
0010
0100
0000
0001
0000
,
1000
0001
0000
0010
0100
0000
1000
0000
0001
0000
0010
0000
0100
0000
0000
0000
,
0010
0001
0000
1000
0100
0000
0010
0000
0001
0000
1000
0000
0100
0000
0000
0000
,
0001
1000
0010
0100
0001
1000
0010
0100
,
0011
1010
1100
0101
,
1000
0100
0000
0001
0010
0000
0100
0000
1000
0000
0001
0000
0010
0000
0000
0000
,
1000
0100
0000
0001
0010
0000
0100
0000
0010
0000
1000
0000
0001
0000
0000
0000
,
1000
0001
0010
0001
0100
0010
1000
0001
,
0010
0000
1000
0100
0001
0000
0010
0000
0100
0000
0001
1000
0100
0000
0001
0000
,
0010
0000
1010
0000
0101
0000
0010
1000
,
0001
0100
0011
0000
1100
0000
0001
1000
,
0010
0100
1001
0000
0110
0000
0001
1000
,
0010
2000
3002
0023
,
0230
0000
0000
0300
1010
0000
0000
0000
0101
0000
0000
0000
0010
0000
1000
0000
,
0001
0010
0101
0000
1010
0000
0100
1000
,
0010
0100
0011
0000
2200
0000
0000
0000
,
3310
0000
0000
0000
0001
0000
0000
0000
0010
0000
1000
0100
0010
0000
0001
0000
,
1000
0010
0100
0001
1000
0010
0100
0001
,
0010
0000
1000
0000
0100
0000
0010
0000
0001
0000
1000
0010
0000
0000
0001
0000
,
0010
1000
0100
0010
0001
1000
0010
0100
,
0001
1000
0010
1000
0100
0001
1000
0010
,
0001
0000
1000
0100
0000
0000
0001
0000
0010
0000
0100
0000
1000
0000
0010
0000
,
0100
0000
0001
0000
1000
0000
0001
0000
0010
0000
0100
0001
0000
0000
0010
0000
,
1000
0000
0001
1000
0001
1000
0001
0000
0010
0000
1000
0000
0010
0000
0100
0000
,
0020
0032
2003
3020
,
0232
0000
0000
0000
,
0000
0000
0000
0000
,
0303
0000
0000
0000
;
