#VERSION:0.83;
#TITLE:For an Angel;
#ARTIST:Paul Van Dyk;
#GENRE:Melodic Trance;
#CREDIT:B. M'Rey;
#MUSIC:For An Angel.ogg;
#BANNER:For an Angel-bn.png;
#BACKGROUND:For an Angel-bg.png;
#CDTITLE:./CDTITLES/100% CLUBLAND TRANCE.PNG;
#SAMPLESTART:71.091;
#SAMPLELENGTH:15;
#OFFSET:-0.389;
#BPMS:0=138.31;

//--------------- dance-single - B. M'Rey ----------------
#NOTEDATA:;
#STEPSTYPE:dance-single;
#DESCRIPTION:B. M'Rey;
#CREDIT:B. M'Rey;
#DIFFICULTY:Beginner;
#METER:4;
#RADARVALUES:0.133836,0.250208,0.007617,0.144717,0,123,122,1,19,0,0,0.133836,0.250208,0.007617,0.144717,0,123,122,1,19,0,0;
#NOTES:
0000
0000
0000
0000
,
0000
0000
0000
0000
,
0000
0000
0000
0000
,
0000
0000
0000
0000
,
0000
0000
0000
0000
,
0000
0000
0000
0002
,
0000
0000
0000
0023
,
0000
0000
0000
0230
,
0000
0000
0000
1300
,
0000
0000
0000
0001
,
0000
0000
0000
0010
,
0000
0000
0000
0001
,
0000
0000
0000
1000
,
0000
0000
0000
0001
,
0000
0000
0000
0010
,
0000
0000
0000
0001
,
0000
0000
0000
1000
,
0000
0010
0000
0100
,
0000
0001
0000
0010
,
0000
0001
0000
1000
,
0000
0100
0000
1000
,
0000
0001
0000
0010
,
0000
0001
0000
0100
,
0000
0010
0000
1000
,
0000
0000
0000
0100
,
0000
0001
0000
1000
,
0000
0010
0000
0100
,
0000
0001
0000
0010
,
0000
0001
0000
0100
,
0000
0010
0000
1000
,
0000
0100
0000
1000
,
0000
0001
0000
0010
,
0000
0001
0000
0100
,
0000
0010
0000
1000
,
0000
0100
0000
1000
,
0000
0001
0000
0010
,
0000
0100
0000
0001
,
0000
1000
0000
0010
,
0000
0100
0000
0001
,
0000
1000
0000
0010
,
0000
0000
0000
2000
,
0000
0000
0000
3020
,
0000
0000
0000
0230
,
0000
0000
0000
0302
,
0000
0000
0000
0023
,
0000
0000
0000
2030
,
0000
0000
0000
3020
,
0000
0000
0000
0230
,
0000
0000
0000
0302
,
0000
0000
0000
0023
,
0000
0000
0000
0230
,
0000
0000
0000
0302
,
0000
0000
0000
2003
,
0000
0000
0000
3020
,
0000
0000
0000
0230
,
0000
0000
0000
0302
,
0000
0000
0000
1003
,
1000
1000
1000
1000
,
0001
0001
0001
0001
,
1000
1000
1000
0001
,
0001
0001
0001
1000
,
0000
0100
0000
0010
,
0000
0001
0000
0010
,
0000
0100
0000
1000
,
0000
0001
0000
0001
,
0001
0001
0001
1000
,
1000
1000
1000
0001
,
0001
0001
0001
1000
,
1000
1000
1000
0001
,
0000
0010
0000
0100
,
0000
1000
0000
0100
,
0000
0010
0000
0001
,
0000
0010
0000
1001
;

//--------------- dance-single - B. M'Rey ----------------
#NOTEDATA:;
#STEPSTYPE:dance-single;
#DESCRIPTION:B. M'Rey;
#CREDIT:B. M'Rey;
#DIFFICULTY:Easy;
#METER:7;
#RADARVALUES:0.225236,0.309998,0,0.350367,0,207,207,0,46,0,0,0.225236,0.309998,0,0.350367,0,207,207,0,46,0,0;
#NOTES:
0000
0000
0000
0000
,
0000
0000
0000
0000
,
0000
0000
0000
0000
,
0000
0000
0000
0000
,
0000
0000
0000
2000
,
0000
0000
0000
3002
,
0000
0000
0000
0023
,
0000
0000
0000
0230
,
0000
0000
0000
0301
,
1000
0001
1000
0100
,
0010
0100
0010
0001
,
1000
0001
1000
0010
,
0100
0010
0100
0001
,
1000
0001
1000
0010
,
0100
0010
0100
0001
,
1000
0001
1000
0010
,
0100
0010
0100
0001
,
0010
1000
0100
0010
,
1000
0001
0100
0010
,
1000
0001
1000
0010
,
1000
0010
0100
0010
,
1000
0001
0010
0100
,
0001
0100
0010
1000
,
0001
0100
0010
0002
,
0000
0000
0000
1003
,
0100
1000
0100
1000
,
0010
1000
0010
1000
,
0001
1000
0001
1000
,
0100
1000
0100
1000
,
0010
1000
0010
1000
,
0001
1000
0001
1000
,
0010
1000
0010
1000
,
0100
1000
0100
1000
,
0010
1000
0010
1000
,
0001
1000
0001
1000
,
0010
1000
0010
1000
,
0100
1000
0100
1000
,
0010
1000
0010
1000
,
0001
1000
0001
1000
,
0010
1000
0010
2000
,
0000
0000
0000
3002
,
0000
0000
0000
0203
,
0000
0302
0000
0000
0000
0000
0023
0000
,
0000
2030
0000
0000
0000
0000
3200
0000
,
0000
0302
0000
0000
0023
0000
0230
0000
,
0000
0000
0000
0320
,
0000
0032
0000
0000
0000
0000
2003
0000
,
0000
3020
0000
0000
0000
0030
0002
0000
,
0000
0203
0000
0000
0320
0000
0032
0000
,
0000
0000
0000
2003
,
0000
3020
0000
0000
0000
0000
0230
0000
,
0000
0302
0000
0000
0000
0000
0023
0000
,
0000
0230
0000
0000
0320
0000
0032
0000
,
0000
0000
0000
2003
,
0000
3020
0000
0000
0000
0000
0230
0000
,
0000
0302
0000
0000
0000
0000
2003
0000
,
0000
3020
0000
0000
0130
0000
2000
0000
,
0000
0000
0000
3200
,
0000
0000
0000
0320
,
0000
0000
0000
0032
,
0000
0000
0000
0013
,
0010
0000
1000
0001
1000
0000
0100
0000
,
0100
0000
0001
1000
0001
0000
0010
0000
,
0010
0000
0001
1000
0001
0000
0100
0000
,
0100
0000
0001
1000
0001
0000
0002
0000
,
0000
0000
0000
0023
,
0000
0000
0000
0230
,
0000
0000
0000
2300
,
0000
0000
0000
3100
,
0100
0000
0001
1000
0001
0000
0010
0000
,
0010
0000
1000
0001
1000
0000
0100
0000
,
0100
0000
1000
0001
1000
0000
0010
0000
,
0010
0000
1000
0001
1000
0000
0020
0000
,
0000
0000
0000
0030
;

//--------------- dance-single - B. M'Rey ----------------
#NOTEDATA:;
#STEPSTYPE:dance-single;
#DESCRIPTION:B. M'Rey;
#CREDIT:B. M'Rey;
#DIFFICULTY:Medium;
#METER:9;
#RADARVALUES:0.316636,0.366362,0,0.312283,0.053317,291,291,0,41,0,0,0.316636,0.366362,0,0.312283,0.053317,291,291,0,41,0,0;
#NOTES:
0000
0000
0000
0000
,
0000
0000
0000
0000
,
0000
0000
0000
0000
,
0000
0000
0000
0000
,
0000
0000
0000
1000
,
0000
0000
0000
0100
,
0000
0001
0000
0000
0000
0000
0010
0000
,
0000
1000
0000
0000
0000
0000
0100
0000
,
0000
0001
0000
0000
0010
0000
0100
0000
,
0001
0000
0010
1000
0100
0000
0001
0000
,
0010
0000
1000
0100
1000
0000
0010
0000
,
0100
0000
0001
1000
0010
0000
0100
0000
,
0001
0000
0010
0100
0001
0000
0010
0000
,
1000
0000
0100
0001
1000
0000
0010
0000
,
0100
0000
0010
0100
0010
0000
0001
0000
,
1000
0000
0010
0100
1000
0000
0100
0000
,
0001
0000
1000
0100
0010
0000
0001
0000
,
1000
0010
0100
0001
,
1000
0000
0010
0100
0001
0000
0010
0000
,
1000
0000
0100
0010
1000
0000
0001
0000
,
0100
0000
0010
0001
0100
0000
0010
0000
,
1000
0001
0010
0001
,
1000
0000
0010
0100
0001
0000
0010
0000
,
1000
0000
0010
0100
0001
0000
0010
0000
,
1000
0000
0100
0010
0001
0000
0010
0001
,
1000
0000
0010
0100
0001
0000
0010
1000
,
0100
0000
0010
0100
0010
0000
0001
1000
,
0010
0000
0100
0010
0100
0000
1000
0100
,
1000
0000
0001
0100
0010
0000
1000
0010
,
0100
0000
0001
0010
0001
0000
1000
0010
,
1000
0000
0010
0100
0001
0000
0010
1000
,
0010
0000
0001
1000
0010
0000
0100
0010
,
1000
0000
0001
0100
0001
0000
0010
0100
,
0010
0000
1000
0001
1000
0000
0010
0100
,
1000
0000
0100
0010
0001
0000
0010
0100
,
1000
0000
0001
0010
0100
0000
0001
0010
,
1000
0000
0001
1000
0100
0000
0010
1000
,
0100
0000
0001
0010
0001
0000
1000
0010
,
1000
0000
0010
0100
0010
0000
0001
0010
,
1000
0000
0100
0010
1000
0000
0002
0000
,
0000
0000
0000
2003
,
0000
0000
0000
3200
,
0000
0302
0000
0000
0000
0000
0023
0000
,
0000
2030
0000
0000
0000
0000
3200
0000
,
0000
0302
0000
0000
0023
0000
0230
0000
,
0000
0000
0000
0320
,
0000
0032
0000
0000
0000
0000
2003
0000
,
0000
3020
0000
0000
0000
0030
0002
0000
,
0000
0203
0000
0000
0320
0000
0032
0000
,
0000
0000
0000
2003
,
0000
3020
0000
0000
0000
0000
0230
0000
,
0000
0302
0000
0000
0000
0000
0023
0000
,
0000
0230
0000
0000
0320
0000
0032
0000
,
0000
0000
0000
2003
,
0000
3020
0000
0000
0000
0000
0230
0000
,
0000
0302
0000
0000
0000
0000
2003
0000
,
0000
3020
0000
0000
0130
0000
2000
0000
,
0100
0100
0100
3200
,
0010
0010
0010
0320
,
0001
0001
0001
0032
,
1000
0000
0000
0000
1000
0000
0000
0000
1000
0000
0000
0000
1003
0000
0000
0010
,
0000
0000
0100
0000
0001
0000
0010
0000
0100
0000
0000
1000
0000
0000
0001
0000
,
0000
0100
0000
0000
0010
0000
1000
0000
0010
0000
0000
0100
0000
0000
0001
0000
,
0000
0010
0000
0000
0100
0000
1000
0000
0010
0000
0000
0100
0000
0000
0010
0000
,
0000
1000
0000
0000
0001
0000
1000
0000
0001
0000
0000
0000
0002
0000
0000
0000
,
0010
0010
0010
0023
,
0100
0100
0100
0230
,
1000
1000
1000
2300
,
0001
0000
0000
0000
0001
0000
0000
0000
0001
0000
0000
0000
3001
0000
0000
0100
,
0000
0000
0010
0000
1000
0000
0100
0000
0010
0000
0000
0001
0000
0000
1000
0000
,
0000
0010
0000
0000
0100
0000
0001
0000
0100
0000
0000
0010
0000
0000
1000
0000
,
0000
0100
0000
0000
0010
0000
0001
0000
0100
0000
0000
0010
0000
0000
0100
0000
,
0000
0001
0000
0000
1000
0000
0001
0000
1000
0000
0001
0000
2000
0000
0000
0000
,
0000
0000
0000
3000
;

//--------------- dance-single - B. M'Rey ----------------
#NOTEDATA:;
#STEPSTYPE:dance-single;
#DESCRIPTION:B. M'Rey;
#CREDIT:B. M'Rey;
#DIFFICULTY:Hard;
#METER:11;
#RADARVALUES:0.47441,0.569346,0.1828,0.289433,0.129483,436,412,24,38,0,0,0.47441,0.569346,0.1828,0.289433,0.129483,436,412,24,38,0,0;
#NOTES:
0000
0000
0000
0000
,
0000
0000
0000
0000
,
0000
0000
0000
0000
,
0000
0000
0000
0000
,
0000
0000
1000
0002
,
0000
0000
0000
0023
,
0000
0230
0000
0000
0000
0000
2300
0000
,
0000
3002
0000
0000
0000
0000
0023
0000
,
0000
0230
0000
0000
0302
0000
0003
0000
,
0001
0000
0010
0100
0000
1000
0001
0000
0010
0100
0000
0001
0010
0000
0000
0000
,
0100
0000
0000
0000
1000
0000
0001
0010
0000
1000
0100
0000
0001
0000
0000
0000
,
1000
0000
0000
0000
0001
0000
1000
0010
0000
0100
0001
0000
0010
0000
0000
0000
,
0100
0000
0000
0000
1000
0000
0001
0010
0000
0100
1000
0000
0010
0000
0000
0000
,
1000
0000
0000
0000
0001
0000
0010
0100
0000
1000
0001
0000
0010
0000
0000
0000
,
0100
0000
0000
0000
1000
0000
0001
0010
0000
1000
0010
0000
0100
0000
0000
0000
,
0001
0000
0000
0000
1000
0000
0001
0010
0000
1000
0100
0000
0001
0000
0000
0000
,
0010
0000
0000
0000
1000
0000
0001
0010
0000
0100
0010
0000
1000
0000
0100
0000
,
1000
0000
0001
0010
0001
0000
0010
0100
,
0001
0000
0010
1000
0100
0000
0001
1000
,
0010
0000
0100
0001
1000
0000
0010
0100
,
0010
0000
0001
1000
0001
0000
0010
0001
,
0100
0000
0010
1000
0100
0000
0010
0100
,
0010
0000
0001
1000
0010
0000
0100
0001
,
1000
0000
0010
0100
0010
0000
0001
0010
,
0001
0000
1000
0010
1000
0000
1000
0010
,
1000
0010
1000
0010
1000
0010
1000
0001
,
1000
0001
1000
0001
1000
0001
0100
0001
,
0100
0001
0100
0001
0100
0001
0010
0001
,
0010
0001
0010
0001
0010
0001
1000
0010
,
1000
0010
1000
0010
1000
0010
1000
0100
,
1000
0100
1000
0100
1000
0100
0010
0100
,
0010
0100
0010
0100
0010
0100
0010
0001
,
0100
0001
0100
0001
0100
0001
1000
0010
,
1000
0010
1000
0010
1000
0010
1000
0001
,
1000
0001
1000
0001
1000
0001
0100
0001
,
0100
0001
0100
0001
0100
0001
0010
0001
,
0010
0001
0010
0001
0010
0001
1000
0010
,
1000
0010
1000
0010
1000
0010
1000
0100
,
1000
0100
1000
0100
1000
0100
0010
0100
,
0010
0100
0010
0100
0010
0100
0020
0000
,
0000
0000
0000
0032
,
0010
0010
0010
0023
,
0130
2000
0000
0000
3100
0000
0002
0000
,
0013
0200
0000
0000
0310
0000
2000
0000
,
3100
0002
0000
0000
0103
0000
0020
0000
,
0100
0100
0100
0230
,
0001
2300
0000
0000
3001
0000
0020
0000
,
1000
0032
0000
0000
0103
0000
0020
0000
,
0100
2030
0000
0000
3001
0000
2000
0000
,
0100
0100
0100
3200
,
0310
0002
0000
0000
0013
0000
2000
0000
,
3100
0020
0000
0000
0130
0000
0002
0000
,
0013
2000
0000
0000
3010
0000
0200
0000
,
0010
0010
0010
0320
,
1000
0032
0000
0000
1003
0000
0200
0000
,
0001
2300
0000
0000
3010
0000
0200
0000
,
0010
0302
0000
0000
1003
0000
0001
1000
,
0001
1000
0001
1000
0001
1000
0001
1000
,
0001
1000
0001
1000
0001
1000
0001
1000
,
0001
1000
0001
1000
0001
1000
0001
0010
,
0100
0000
0010
0000
0100
0000
0010
0000
0100
0000
0000
0110
0000
0000
0110
0000
,
0000
0110
0000
0000
0100
0000
0010
0000
0100
0000
0000
0011
0000
0000
1100
0000
,
0000
0110
0000
0000
0001
0000
1000
0000
0100
0000
0000
0011
0000
0000
1100
0000
,
0000
0110
0000
0000
0001
0000
1000
0000
0010
0000
0000
1100
0000
0000
1001
0000
,
0000
0110
0000
0000
0001
0000
1000
0000
0001
0000
0100
0000
0010
0000
0100
0000
,
0010
0100
0010
0100
0010
0100
0010
0100
,
0010
0100
0010
0100
0010
0100
0010
0100
,
0010
0100
0010
0100
0010
0100
0010
1000
,
0001
0000
1000
0000
0001
0000
1000
0000
0001
0000
0000
1001
0000
0000
1001
0000
,
0000
1001
0000
0000
0001
0000
1000
0000
0001
0000
0000
1010
0000
0000
0101
0000
,
0000
1001
0000
0000
0010
0000
0100
0000
0001
0000
0000
1010
0000
0000
0101
0000
,
0000
1001
0000
0000
0010
0000
0100
0000
1000
0000
0000
0101
0000
0000
0110
0000
,
0000
1001
0000
0000
0010
0000
0100
0000
0010
0000
0001
0000
2000
0000
0000
0000
,
0000
0000
0000
0000
,
0000
0000
3000
0000
;

//--------------- dance-single - B. M'Rey ----------------
#NOTEDATA:;
#STEPSTYPE:dance-single;
#DESCRIPTION:B. M'Rey;
#CREDIT:B. M'Rey;
#DIFFICULTY:Challenge;
#METER:14;
#RADARVALUES:0.663738,0.722822,0,0.266583,0.601717,610,610,0,35,0,0,0.663738,0.722822,0,0.266583,0.601717,610,610,0,35,0,0;
#NOTES:
0000
0000
0000
0000
,
0000
0000
0000
0000
,
0000
0000
0000
0000
,
0000
0000
0000
0000
,
0000
0000
0000
0001
,
1000
0010
0100
0020
,
0000
0130
0000
0001
1000
0000
0020
0000
,
0000
0130
0000
0001
0100
0000
0020
0000
,
0000
1030
0000
0001
1000
0000
1000
0000
,
0001
0000
1000
0100
0000
0010
0001
0000
0100
1000
0100
1000
0100
0000
0010
0000
,
0001
0000
0100
0010
0000
0001
1000
0000
0100
0010
0100
0010
0100
0000
1000
0000
,
0001
0000
1000
0100
0000
0001
0010
0000
0010
0100
0010
0100
0010
0000
0001
0000
,
1000
0000
0001
0010
0000
0100
0010
0000
1000
0001
1000
0001
1000
0000
0001
0000
,
0100
0000
0010
0001
0000
1000
0100
0000
0001
0100
0001
0100
0001
0000
0010
0000
,
1000
0000
0100
0010
0000
1000
0001
0000
0001
1000
0001
1000
0001
0000
0100
0000
,
0010
0000
1000
0100
0000
0001
0010
0000
0010
0100
0010
0100
0010
0000
1000
0000
,
0001
0000
0100
0010
0000
1000
0001
0000
0001
1000
0001
1000
0001
0000
0010
0000
,
0001
1000
0010
0100
0001
0010
1000
0001
,
0010
0000
0001
0000
0100
0000
0010
0000
1000
0001
1000
0001
1000
0000
0100
0000
,
0001
0000
0010
0000
1000
0000
0001
0000
0001
1000
0001
1000
0001
0000
0100
0000
,
0010
0000
1000
0000
0001
0000
0100
0000
0010
0100
0010
0100
0010
0000
0001
0000
,
1000
0010
0100
0001
0010
0001
0100
1000
,
0001
0000
0010
0000
0001
0000
0100
0000
0010
0100
0010
0100
0010
0000
0001
0000
,
1000
0000
0100
0000
1000
0000
0010
0000
0100
0001
0100
0001
0100
0000
0010
0000
,
1000
0000
0100
0000
0001
0000
0010
0000
0100
0010
0100
0010
0100
0001
0100
0000
,
0010
1000
0010
0000
0100
0010
0100
0000
0001
0010
0001
0000
1000
0010
1000
0000
,
0010
0100
0010
0000
0001
0010
0001
0000
0010
0100
0010
0000
1000
0100
1000
0000
,
0001
0010
0001
0000
0100
0010
0100
0000
0001
0010
0001
0000
1000
0100
1000
0000
,
0010
0100
0010
0000
0001
0010
0001
0000
1000
0100
1000
0000
0010
0100
0010
0000
,
0001
1000
0001
0000
0100
0001
0100
0000
0010
1000
0010
0000
0100
0010
0100
0000
,
0001
0010
0001
0000
0100
0010
0100
0000
0001
1000
0001
0000
0100
0001
0100
0000
,
0010
1000
0010
0000
0100
0010
0100
0000
0001
0010
0001
0000
0010
0001
0100
0000
,
0010
1000
0100
0000
0010
0100
0010
0000
0001
0010
0001
0000
1000
0001
1000
0000
,
0010
0100
1000
0000
0100
0010
0001
0000
0001
0010
0100
0000
1000
0100
0010
0000
,
0100
0010
0001
0000
0010
0001
0100
0000
0001
0010
0100
0000
0010
0100
1000
0000
,
0100
1000
0010
0000
0001
0100
0001
0000
0010
1000
0010
0000
0100
0001
0010
0000
,
0100
0010
1000
0000
0001
0010
0001
0000
0100
0010
1000
0000
0001
0010
0001
0000
,
0100
0010
1000
0000
0001
0100
0010
0000
1000
0100
0001
0000
0010
0100
1000
0000
,
0001
0010
0001
0000
0100
0010
0100
0000
1000
0001
0100
0000
0010
0001
0100
0000
,
0010
1000
0100
0000
0001
0010
0001
0000
0100
0010
0001
0000
2000
0000
0000
0000
,
3002
0000
0203
0000
0320
0000
2030
3100
,
0001
1000
0010
0100
0001
0010
2000
3100
,
0001
0020
1030
0010
0100
0001
0020
1030
,
0010
0200
0301
0010
0100
0001
2000
3010
,
0100
0002
0013
0001
2000
3010
0200
0301
,
0010
1000
0010
0001
0100
0010
2000
3010
,
0001
0020
0031
0100
0010
1000
0020
0130
,
0001
0020
1030
0010
0100
0001
0020
1030
,
0010
0200
0301
0010
2000
3100
0020
1030
,
0001
0010
0100
0001
0100
1000
0020
0130
,
0001
0020
0031
1000
0001
1000
0002
1003
,
0001
2000
3010
0100
0001
0100
0020
1030
,
0010
0200
0301
0010
2000
3001
0200
0310
,
1000
0010
0100
0001
0100
0010
2000
3010
,
0100
0002
0103
0010
0100
0001
2000
3010
,
0100
2000
3010
1000
0100
0001
0020
0130
,
0001
0000
0020
0000
1030
0000
0010
0000
0100
0000
0001
0000
1000
0001
0000
0010
,
0100
0000
1000
0100
0000
0001
0010
0000
0010
1000
0000
0100
0010
0000
0001
0010
,
0000
1000
0100
0000
0010
0100
0000
0001
0010
0000
1000
0100
0000
0001
0010
0000
,
0100
0010
0000
1000
0001
0000
0100
0010
0000
0001
1000
0000
0010
0100
0001
0100
,
0010
0000
1000
0100
0000
0001
0010
0000
0100
0000
1000
0000
0000
0000
0001
0000
,
0000
1000
0000
0000
0010
0000
0100
0000
0001
0000
0000
1000
0000
0000
0100
0000
,
0000
0001
0000
0000
0100
0000
0001
0000
1000
0000
0000
0100
0000
0000
0001
0000
,
0000
0010
0000
0000
1000
0000
0001
0000
0100
0000
0000
0010
0000
0000
1000
0000
,
0000
0001
0000
0000
0010
0000
1000
0000
0001
0000
0100
0000
0001
1000
0000
0100
,
0010
0000
0001
0010
0000
1000
0100
0000
0100
0001
0000
0010
0100
0000
1000
0100
,
0000
0001
0010
0000
0100
0010
0000
1000
0100
0000
0001
0010
0000
1000
0100
0000
,
0010
0100
0000
0001
1000
0000
0010
0100
0000
1000
0001
0000
0100
0010
1000
0010
,
0100
0000
0001
0010
0000
1000
0100
0000
0010
0000
0001
0000
0000
0000
1000
0000
,
0000
0001
0000
0000
0100
0000
0010
0000
1000
0000
0000
0001
0000
0000
0010
0000
,
0000
1000
0000
0000
0010
0000
1000
0000
0001
0000
0000
0010
0000
0000
1000
0000
,
0000
0100
0000
0000
0001
0000
1000
0000
0010
0000
0000
0100
0000
0000
0001
0000
,
0000
1000
0000
0000
0100
0000
0001
0000
1000
0000
0010
0000
0110
0000
0000
0000
;
