#TITLE:Follow Me;
#ARTIST:September;
#GENRE:Dance Pop;
#CREDIT:B. M'Rey;
#MUSIC:Follow Me.ogg;
#BANNER:Follow Me-bn.png;
#BACKGROUND:Follow Me-bg.png;
#CDTITLE:./CDTITLES/BMR Superstars.PNG;
#SAMPLESTART:59.331;
#SAMPLELENGTH:12;
#OFFSET:-0.360;
#BPMS:0=130.050;

//--------------- dance-single - B. M'Rey ----------------
#NOTES:
     dance-single:
     B. M'Rey:
     Beginner:
     2:
     0.142296,0.188446,0.020191,0.060572,0,148,145,3,9,0,0,0.142296,0.188446,0.020191,0.060572,0,148,145,3,9,0,0:
0000
0000
0000
0000
,
0000
0000
0000
0000
,
0000
0000
0000
0000
,
0000
0000
0000
0000
,
1000
0000
0000
0000
,
1000
0000
0000
0000
,
0010
0000
0000
0000
,
0020
0000
0000
0000
,
0130
0000
0010
0000
,
0010
0000
0001
0000
,
0010
0000
0001
0000
,
0100
0000
1000
0000
,
0001
0000
0001
0000
,
0001
0000
1000
0000
,
0001
0000
0100
0000
,
0100
0000
0010
0000
,
1100
0000
1000
0000
,
0001
0000
1000
0010
,
1000
0000
0010
0000
,
0001
0000
1000
0000
,
0001
0000
1000
0000
,
0010
0000
0100
0010
,
0100
0000
0100
0000
,
0200
0000
0000
0000
0000
0000
0000
0300
,
0110
0000
0001
0000
,
0100
0000
0010
0000
,
0001
0000
0001
0000
,
1000
0000
0001
0000
,
0002
0000
0000
0000
,
1003
0000
0100
0000
,
0100
0000
0010
0000
,
0000
0000
0001
0000
,
0100
0000
0010
0000
,
0001
0000
0001
0000
,
0100
0000
0100
0000
,
1000
0000
0020
0030
,
0010
0000
0001
0000
,
0001
0000
1000
0000
,
1000
0000
0100
0000
,
0100
0000
0002
0003
,
0010
0000
0100
0000
,
0001
0000
1000
0000
,
0001
0000
0100
0000
,
0001
0000
0100
0000
,
0100
0000
0010
0000
,
0001
0000
0100
0000
,
0100
0000
0001
0000
,
0010
0000
0100
0000
,
1010
0000
0000
0010
,
0000
0001
0000
0001
,
0100
0000
1000
0000
,
1000
0000
0001
0000
,
0001
0000
0100
0000
,
0000
1000
0000
0000
,
0001
0000
0010
0000
,
0100
0000
0010
0000
,
0010
0001
0010
0000
,
0100
0001
1000
0000
,
0010
0100
0010
0000
,
0100
0001
0100
0000
,
0000
0000
0000
0000
,
0000
0000
0001
0000
,
0100
0000
0010
0000
,
0001
0000
0001
0000
,
0100
0000
0100
0000
,
1000
0000
0020
0030
,
0010
0000
0001
0000
,
0001
0000
1000
0000
,
1000
0000
0100
0000
,
0100
0000
0002
0003
,
0010
0000
0100
0000
,
0001
0000
1000
0000
,
0001
0000
0100
0000
,
0001
0000
0100
0000
,
0100
0000
0010
0000
,
0001
0000
0100
0000
,
0100
0000
0001
0000
,
0010
0000
0100
0000
,
2000
0000
0000
0000
,
3020
0000
0000
0000
,
0030
0000
0000
0000
;

//--------------- dance-single - B. M'Rey ----------------
#NOTES:
     dance-single:
     B. M'Rey:
     Easy:
     4:
     0.2769,0.296129,0.087493,0.033651,0,288,275,13,5,0,0,0.2769,0.296129,0.087493,0.033651,0,288,275,13,5,0,0:
0000
0000
0000
0000
,
0000
0000
0000
0000
,
0000
0000
0000
0000
,
0000
0000
0000
0000
,
1000
0000
1000
1000
,
1000
0000
0100
1000
,
0010
0000
0001
0010
,
0010
0001
0110
1100
,
0100
0010
0010
0010
,
0010
0010
0001
0010
,
0010
1000
0001
0100
,
0100
0001
1000
0100
,
0001
1000
0001
0010
,
0001
0100
1000
0001
,
0001
1000
0100
1000
,
0100
0100
0010
0001
,
1100
1000
1000
0001
,
0001
0001
1000
0010
,
1000
0100
0010
1000
,
0001
0010
1000
0010
,
0001
0100
1000
0010
,
0010
0010
0100
0010
,
0100
1000
0100
0001
,
0200
0000
0000
0000
0000
0000
0000
0300
,
0110
0010
0001
0100
,
0100
0100
0010
1000
,
0001
0001
0001
1000
,
1000
0010
0001
1000
,
0002
0000
0023
0000
0230
0000
2300
3000
,
0000
0010
0100
0010
,
0100
0010
0010
0001
,
0000
0000
0001
0010
,
0100
0010
0010
1000
,
0001
1000
0001
0100
,
0100
1000
0100
0010
,
1000
0010
0110
1010
,
0010
0010
0001
0010
,
0001
0010
1000
0001
,
1000
0100
0100
1000
,
0100
0100
0011
0011
,
0010
0010
0100
0010
,
0001
0001
1000
0001
,
0001
0010
0100
0010
,
0001
0100
0100
0100
,
0100
0001
0010
0010
,
0001
0100
0100
1000
,
0100
0100
0001
0001
,
0010
1000
0100
0100
,
1010
1000
0000
0010
,
0000
0000
0000
0001
,
0100
0100
0000
1000
,
1000
0000
0001
0000
,
0001
0000
0000
0100
,
0000
0000
1000
0010
,
0001
0000
0000
0100
,
0100
0000
0010
1000
,
0010
0001
0010
1000
,
0100
0001
1000
0001
,
0010
0100
0000
0010
,
0100
0001
0100
0001
,
0000
0000
0000
0000
,
0000
0000
0001
0010
,
0010
0010
0100
0001
,
0100
0010
0100
0100
,
0001
0010
0100
1000
,
0001
0010
0110
1010
,
1000
0010
0100
0100
,
1000
0001
0001
0100
,
1000
0001
1000
1000
,
0001
1000
1100
0101
,
0001
0001
0010
0001
,
0100
0100
1000
0001
,
0001
0010
0001
0100
,
0100
1000
0001
1000
,
0010
1000
0010
0010
,
0100
0001
1000
0100
,
0100
0010
0100
0100
,
0001
0001
1000
0010
,
0100
0100
0010
0001
,
0100
0001
0100
0100
,
0010
0000
0000
0000
;

//--------------- dance-single - B. M'Rey ----------------
#NOTES:
     dance-single:
     B. M'Rey:
     Medium:
     7:
     0.427848,0.457654,0.087493,0.033651,0.003365,445,432,13,5,0,0,0.427848,0.457654,0.087493,0.033651,0.003365,445,432,13,5,0,0:
0000
0000
0000
0000
,
0000
0000
0000
0000
,
0000
0000
0000
0000
,
0000
0000
0000
0000
,
0010
0000
0100
1000
,
1000
0000
0010
0001
,
1000
0000
0001
0001
,
0010
0100
1001
1001
,
0001
0000
0100
0000
0001
0010
0100
1000
,
0100
0000
0010
0000
1000
0100
0010
0010
,
0100
0000
1000
0000
0010
0001
0010
0100
,
0010
0000
1000
0000
0100
0001
1000
0010
,
1000
0000
0001
0000
0010
1000
0001
0001
,
1000
0000
0010
0000
0010
1000
0100
0001
,
0100
0000
0001
0000
1000
0001
0010
0100
,
0010
0000
1000
0000
1000
0010
0001
0001
,
1001
0001
1000
1000
,
0100
0000
0100
1000
0010
1000
0001
0100
,
1000
0010
1000
0000
0100
1000
0001
0100
,
0001
0000
0010
0000
0100
0000
0001
0100
,
0001
0010
1000
0001
,
0100
0000
0001
0010
1000
0100
0001
1000
,
0010
1000
0001
0000
1000
0100
0001
0000
,
2000
0000
0000
0000
0000
0000
0000
3100
,
0110
0001
0100
0001
,
0010
0000
1000
0100
0001
1000
0100
0010
,
1000
0100
0001
0000
0010
0000
0100
0010
,
1000
0000
0001
0000
0100
0000
0001
1000
,
0200
0000
0320
0000
2030
0000
3002
0103
,
0000
0000
1000
0010
1000
0100
0001
1000
,
0010
1000
0100
0000
0001
0000
1000
0001
,
0000
1000
0000
0010
0010
0100
0100
1000
,
1000
0001
0010
0000
0100
0001
1000
0010
,
0001
0100
0001
0000
0010
1000
0001
0100
,
1000
0010
1000
0000
0100
0001
0010
0010
,
1000
1000
0001
0001
0110
0000
0110
0000
,
0001
1000
0001
0000
0100
0001
1000
0010
,
0001
0010
1000
0000
0001
1000
0010
0001
,
0001
0100
0001
0000
1000
0010
1000
0001
,
0100
0001
1000
0010
1100
0000
1100
0000
,
0001
0000
0100
0000
0001
0010
0100
1000
,
0100
0000
0010
0000
1000
0100
0010
0010
,
0100
0000
1000
0000
0010
0001
0010
0100
,
0010
0000
1000
0000
0100
0001
1000
0010
,
1000
0000
0001
0000
0010
1000
0001
0001
,
1000
0000
0010
0000
0010
1000
0100
0001
,
0100
0000
0001
0000
1000
0001
0010
0100
,
0010
0000
1000
0000
1000
0010
0001
0001
,
1001
0100
0010
1000
0000
0100
0001
1000
,
0000
0000
0000
0000
0000
0001
1000
0010
,
1000
0001
1000
0001
0000
0000
1000
0010
,
0001
0000
0000
0000
0000
0000
0010
0000
1000
0000
0100
0000
0000
0010
1000
0000
,
0100
0000
0000
0000
0000
0000
1000
0010
,
0000
0000
0000
0100
0001
0100
0001
1000
,
0001
0000
0000
0000
0000
0100
1000
0000
,
0100
0000
0000
0010
0010
1000
1000
0100
,
0010
0100
1000
0000
0010
0000
1000
0000
,
0100
0000
1000
0000
0100
0010
1000
0100
,
0001
0010
1000
0000
0000
0100
0001
1000
,
0100
0010
1000
0010
0001
0000
0001
0000
,
0000
0000
0000
0000
,
0000
0000
0000
0010
0010
0100
0100
1000
,
1000
0001
0010
0000
0100
0001
1000
0010
,
0001
0100
0001
0000
0010
1000
0001
0100
,
1000
0010
1000
0000
0100
0001
0010
0010
,
1000
1000
0001
0001
0110
0000
0110
0000
,
0001
1000
0001
0000
0100
0001
1000
0010
,
0001
0010
1000
0000
0001
1000
0010
0001
,
0001
0100
0001
0000
1000
0010
1000
0001
,
0100
0001
1000
0010
1100
0000
1100
0000
,
0001
0000
0100
0000
0001
0010
0100
1000
,
0100
0000
0010
0000
1000
0100
0010
0010
,
0100
0000
1000
0000
0010
0001
0010
0100
,
0010
0000
1000
0000
0100
0001
1000
0010
,
1000
0000
0001
0000
0010
1000
0001
0001
,
1000
0000
0010
0000
0010
1000
0100
0001
,
0100
0000
0001
0000
1000
0001
0010
0100
,
0010
0000
1000
0000
1000
0010
0001
0001
,
1000
0000
0010
0000
0001
0100
0001
1000
,
0010
0000
1000
0000
1000
0001
1000
0010
,
1000
0000
0000
0000
;

//--------------- dance-single - B. M'Rey ----------------
#NOTES:
     dance-single:
     B. M'Rey:
     Hard:
     9:
     0.638408,0.67302,0.040381,0.026921,0.598988,664,658,6,4,0,0,0.638408,0.67302,0.040381,0.026921,0.598988,664,658,6,4,0,0:
0000
0000
0000
0000
,
0000
0000
0000
0000
,
0000
0000
0000
0000
,
0000
0000
0000
0000
,
1000
0000
0000
0100
0000
0010
0001
0010
0001
0000
0010
0000
0100
0000
1000
0000
,
0100
0000
0000
0010
0000
0001
1000
0001
1000
0000
0100
0000
0010
0001
0010
0000
,
0100
0000
0000
1000
0000
0100
0010
0100
0010
0000
0001
0000
0010
0000
0100
0000
,
1000
0000
0000
0001
0000
0000
0010
0000
0100
0000
0010
0000
0100
0000
0010
0000
,
0100
0000
0000
0001
0000
1000
0010
1000
0010
0000
1000
0000
0001
0000
0100
0000
,
0001
0000
0000
1000
0000
0010
0100
0010
0100
0000
0001
0000
1000
0010
1000
0000
,
0001
0000
0000
0100
0000
0001
1000
0001
1000
0000
0010
0000
1000
0000
0001
0000
,
1000
0000
0000
0100
0000
0010
0001
0010
0001
0000
0010
0000
0100
1000
0100
0000
,
0100
0000
0000
0010
0000
0001
1000
0001
1000
0000
0100
0000
0010
0000
0010
0000
,
0100
0000
0000
1000
0000
0100
0010
0100
1000
0000
0100
0000
0001
0010
0001
0000
,
0001
0000
0000
0010
0000
1000
0100
1000
0100
0000
0010
0000
1000
0000
0001
0000
,
1000
0000
0000
0100
0000
0001
0010
0001
0100
0000
1000
0000
0010
0100
0010
0100
,
0010
0001
0010
0001
0100
1000
0100
0010
,
0000
0000
0000
0010
0001
0000
0100
0000
1000
0000
0100
0000
0010
0000
0001
0000
,
0100
1000
0000
0001
0000
0100
0010
0001
,
0000
0000
0100
0000
0000
0000
0001
1000
0001
0000
0100
0000
0010
0000
0001
0000
,
0010
0000
1000
0000
0100
0000
0010
0001
,
0000
0000
0000
0100
0010
0000
1000
0000
0100
0000
0001
0000
0010
0000
0100
0000
,
1000
0100
0000
1000
0000
0001
0010
0000
,
0100
0000
0100
1000
0000
0100
0000
0001
0000
0010
1000
0100
0010
0000
1001
0000
,
1001
0100
0010
1000
0001
0100
0010
0001
,
1000
0000
0010
1000
0100
0000
0001
0000
0010
0000
0100
0000
0001
0000
1000
0000
,
0100
0001
0010
0100
1000
0100
0001
1000
,
0100
0000
0001
0000
0010
0000
0100
1000
0001
0000
1000
0000
0010
0000
0100
0000
,
0002
0000
2003
0000
3200
0000
0320
0031
,
0000
0000
0100
1000
0100
0001
0010
0100
,
1000
0100
0001
0000
0010
0000
0100
0010
,
0000
0100
0000
1000
1000
0001
0001
0100
,
0100
0000
0010
0000
1000
0000
0100
0000
0001
0000
0010
0100
0000
1000
0000
0100
,
0010
0000
0001
0000
0010
0000
0100
0000
1000
0000
0100
0010
0000
0001
0000
0010
,
0100
1000
0100
0010
0001
0010
1000
1000
,
0100
0100
0010
0010
1001
0000
1001
0000
,
0010
0000
0100
0000
0010
0000
1000
0000
0001
0000
0010
0100
0000
1000
0000
0100
,
0010
0000
1000
0000
0100
0000
0001
0000
0010
0000
0100
1000
0000
0010
0000
0100
,
0010
0001
0010
1000
0100
1000
0100
0010
,
0001
0010
0100
1000
0100
0010
0001
1000
,
0100
0000
0000
0001
0000
1000
0010
1000
0010
0000
1000
0000
0001
0000
0100
0000
,
0001
0000
0000
1000
0000
0010
0100
0010
0100
0000
0001
0000
1000
0010
1000
0000
,
0001
0000
0000
0100
0000
0001
1000
0001
1000
0000
0010
0000
1000
0000
0001
0000
,
1000
0000
0000
0100
0000
0010
0001
0010
0001
0000
0010
0000
0100
1000
0100
0000
,
0100
0000
0000
0010
0000
0001
1000
0001
1000
0000
0100
0000
0010
0000
0010
0000
,
0100
0000
0000
1000
0000
0100
0010
0100
1000
0000
0100
0000
0001
0010
0001
0000
,
0001
0000
0000
0010
0000
1000
0100
1000
0100
0000
0010
0000
1000
0000
0001
0000
,
1000
0000
0000
0100
0000
0001
0010
0001
0100
0000
1000
0000
0010
0100
0010
0100
,
0010
0001
1000
0100
0000
0001
0010
0100
,
1000
0100
1000
0100
1000
0000
0010
0001
0010
0001
0010
0000
0100
0000
1000
0000
,
0100
0000
0010
0100
0010
0100
0010
0000
0001
0010
0001
0010
0001
0000
1000
0000
,
0010
0001
0010
0001
0010
0000
1000
0100
0000
0001
0000
0100
0000
1000
0100
0000
,
0001
0000
0100
1000
0100
0000
0001
0010
0001
0010
0000
0000
0100
0000
1000
0000
,
0010
0100
0010
0100
0010
0000
0001
0010
0001
0010
0001
0000
1000
0000
0100
0000
,
0010
0100
0010
0100
0010
0000
0001
1000
0001
1000
0001
0000
0100
0000
0010
0000
,
0001
0010
0001
0010
0001
0000
0100
1000
0100
1000
0100
0000
0010
0000
0001
0000
,
1000
0001
0100
0010
1000
0001
0100
0010
,
0001
0000
1000
0000
0100
0000
0010
0000
0001
0000
1000
0100
0000
0001
0000
0100
,
0010
1000
0100
0000
0000
0001
0010
0100
,
0001
1000
0100
1000
0010
0000
0010
0000
,
0000
0000
0000
0000
,
1000
0001
0000
1000
0001
0000
0001
1000
0001
1000
0001
1000
0001
1000
0001
1000
,
0001
0000
0010
0000
1000
0000
0100
0000
0001
0000
0010
0100
0000
1000
0000
0100
,
0010
0000
0001
0000
0010
0000
0100
0000
1000
0000
0100
0010
0000
0001
0000
0010
,
0100
1000
0100
0010
0001
0010
1000
1000
,
0100
0100
0010
0010
1001
0000
1001
0000
,
0010
0000
0100
0000
0010
0000
1000
0000
0001
0000
0010
0100
0000
1000
0000
0100
,
0010
0000
1000
0000
0100
0000
0001
0000
0010
0000
0100
1000
0000
0010
0000
0100
,
0010
0001
0010
1000
0100
1000
0100
0010
,
0001
0010
0100
1000
0100
0010
0001
1000
,
0100
0000
0000
0001
0000
1000
0010
1000
0010
0000
1000
0000
0001
0000
0100
0000
,
0001
0000
0000
1000
0000
0010
0100
0010
0100
0000
0001
0000
1000
0010
1000
0000
,
0001
0000
0000
0100
0000
0001
1000
0001
1000
0000
0010
0000
1000
0000
0001
0000
,
1000
0000
0000
0100
0000
0010
0001
0010
0001
0000
0010
0000
0100
1000
0100
0000
,
0100
0000
0000
0010
0000
0001
1000
0001
1000
0000
0100
0000
0010
0000
0010
0000
,
0100
0000
0000
1000
0000
0100
0010
0100
1000
0000
0100
0000
0001
0010
0001
0000
,
0001
0000
0000
0010
0000
1000
0100
1000
0100
0000
0010
0000
1000
0000
0001
0000
,
1000
0000
0000
0100
0000
0001
0010
0001
0100
0000
1000
0000
0010
0100
0010
0100
,
1000
0000
0000
0100
0000
0010
0001
0010
0001
0000
0010
0000
0100
0000
1000
0000
,
0100
0000
0000
0010
0000
0001
1000
0001
1000
0000
0100
0000
0010
0001
0010
0000
,
0100
0000
0000
0000
;
