#TITLE:Fiesta de la Noche;
#ARTIST:O-Zone;
#GENRE:Eurodance;
#CREDIT:B. M'Rey;
#MUSIC:fiesta de la noche.ogg;
#BANNER:Fiesta de la Noche-bn.png;
#BACKGROUND:Fiesta de la Noche-bg.png;
#CDTITLE:./CDTITLES/BMR Superstars.PNG;
#SAMPLESTART:87.391;
#SAMPLELENGTH:12;
#OFFSET:-0.074;
#BPMS:0=129.973;

//--------------- dance-single - B. M'Rey ----------------
#NOTES:
     dance-single:
     B. M'Rey:
     Beginner:
     1:
     0.078439,0.160705,0.060264,0.040176,0,82,73,9,6,0,0,0.078439,0.160705,0.060264,0.040176,0,82,73,9,6,0,0:
0000
0000
0000
0000
,
0000
0000
0000
0000
,
0000
0000
0000
0000
,
0000
0000
0000
0000
,
0000
0000
0000
0000
,
0000
0000
0000
0000
,
0000
0000
0000
0000
,
0000
0000
0000
0000
,
0100
0000
0000
0000
,
1000
0000
0000
0000
,
0001
0000
0000
0000
,
0100
0000
0000
0000
,
0010
0000
0000
0000
,
0001
0000
0000
0000
,
1000
0000
0000
0000
,
0010
0000
0000
0000
,
0100
0000
0000
0000
,
0001
0000
0000
0000
,
0010
0000
0000
0000
,
1000
0000
0000
0000
,
0001
0000
0000
0000
,
0010
0000
0000
0000
,
0100
0000
0000
0000
,
0010
0000
0000
0000
,
1000
0000
0000
0000
,
0001
0000
0000
0000
,
0010
0000
0000
0000
,
0001
0000
0000
0000
,
0100
0000
0000
0000
,
0010
0000
0000
0000
,
2000
0000
0000
0000
,
3200
0000
0000
0000
,
1300
0000
0000
0000
,
0001
0000
0000
0000
,
0010
0000
0000
0000
,
0001
0000
0000
0000
,
0100
0000
0000
0000
,
0010
0000
0000
0000
,
1000
0000
0000
0000
,
0001
0000
0000
0000
,
0010
0000
0000
0000
,
0100
0000
0000
0000
,
0001
0000
0000
0000
,
1000
0000
0000
0000
,
0010
0000
0000
0000
,
0100
0000
0000
0000
,
0001
0000
0000
0000
,
0010
0000
0000
0000
,
1001
0000
0000
0000
,
1001
0000
0000
0000
,
0110
0000
0000
0000
,
0110
0000
0000
0000
,
0011
0000
0000
0000
,
0011
0000
0000
0000
,
1100
0000
0000
0000
,
1100
0000
0000
0000
,
0200
0000
0000
0000
,
0320
0000
0000
0000
,
0031
0000
0000
0000
,
1000
0000
0000
0000
,
0200
0000
0000
0000
,
0320
0000
0000
0000
,
0031
0000
0000
0000
,
1001
0000
0000
0000
,
1000
0000
0000
0000
,
0001
0000
0000
0000
,
0010
0000
0000
0000
,
0100
0000
0000
0000
,
0001
0000
0000
0000
,
1000
0000
0000
0000
,
0010
0000
0000
0000
,
0100
0000
0000
0000
,
0001
0000
0000
0000
,
0010
0000
0000
0000
,
1000
0000
0000
0000
,
0100
0000
0000
0000
,
0001
0000
0000
0000
,
0010
0000
0000
0000
,
0001
0000
0000
0000
,
0100
0000
0000
0000
,
0010
0000
0000
0000
;

//--------------- dance-single - B. M'Rey ----------------
#NOTES:
     dance-single:
     B. M'Rey:
     Easy:
     3:
     0.196098,0.482115,0.154009,0.093745,0,205,182,23,14,0,0,0.196098,0.482115,0.154009,0.093745,0,205,182,23,14,0,0:
0000
0000
0000
0000
,
0000
0000
0000
0000
,
0000
0000
0000
0000
,
0000
0000
0000
0000
,
0000
0000
0000
0000
,
0000
0000
0000
0000
,
0000
0000
0000
0000
,
0000
0000
0000
0000
,
1000
0000
0001
0000
,
0100
0000
0010
0000
,
1000
0000
0001
0000
,
0010
0000
0001
0000
,
0100
0000
0010
0000
,
1000
0000
0100
0000
,
1000
0000
0001
0000
,
0010
0000
0100
0000
,
0002
1003
0100
0000
,
0020
0130
1000
0000
,
0002
0013
0100
0000
,
2000
3100
0010
0000
,
1002
0000
0000
0000
,
1003
0010
0100
0000
,
0001
0010
0100
0000
,
1000
0001
1000
0000
,
0210
0000
0000
0000
,
0310
0001
1001
0000
,
0100
0010
1000
0000
,
1001
0001
0010
0000
,
2000
0000
0000
0000
,
0000
0000
0000
0000
0000
3020
0000
0000
,
1030
0000
0110
0000
,
1000
0001
1000
0001
,
1000
0001
0001
0001
,
0000
0100
0100
0100
,
0000
1000
0000
0100
0001
0000
1000
0000
,
0000
0001
0000
0010
0000
0100
0000
0010
,
0001
1000
0100
1000
,
0000
0001
0100
0001
,
0010
0100
0010
0100
,
0000
1000
0000
0100
0000
1000
0000
1000
,
0100
0100
0010
0010
,
0000
0010
0001
0010
,
0002
0000
0013
1000
,
0001
0010
0100
1000
,
0100
1000
0100
0010
,
0000
0100
0010
1000
,
0010
1000
0000
0100
,
0110
0000
0000
0000
,
0010
0001
0010
0001
,
0010
0001
0010
0001
,
0010
0000
0100
0000
0000
1000
0001
0000
,
0100
0100
0001
0010
,
0100
1000
0100
1000
,
0100
1000
0100
1000
,
0100
0000
0010
0000
0000
0001
1000
0000
,
0010
0010
1000
0100
,
0020
0000
0000
0130
0000
0000
0000
0000
,
0002
0000
0000
0010
0003
0000
0000
0000
,
2000
0000
3000
0010
,
0002
0000
0103
0000
,
0200
0000
0000
1300
0000
0000
0000
0000
,
0020
0000
0000
0031
0000
0000
0000
0000
,
1000
0000
0001
0000
,
0100
0000
0010
0010
,
0010
0100
0001
1000
,
0100
1000
0001
0100
,
0010
0100
0001
0100
,
0010
1000
0010
1000
,
0100
1000
0010
0100
,
0001
1000
0100
1000
,
0010
1000
0001
0100
,
0010
1000
0010
0100
,
0010
0100
0001
1000
,
0010
1000
0010
0100
,
0001
0100
0001
0100
,
0010
1000
0010
0100
,
0100
0010
0100
0000
,
0001
0000
0010
0000
,
0100
0000
0010
0000
,
1000
0000
0001
0000
,
0100
0000
0000
0000
;

//--------------- dance-single - B. M'Rey ----------------
#NOTES:
     dance-single:
     B. M'Rey:
     Medium:
     6:
     0.272624,0.455331,0.154009,0.140617,0,285,262,23,21,0,1,0.272624,0.455331,0.154009,0.140617,0,285,262,23,21,0,1:
0000
0000
0000
0000
,
0000
0000
0000
0000
,
0000
0000
0000
0000
,
0000
0000
0000
0000
,
0000
0000
0000
0000
,
0000
0000
0000
0000
,
0000
0000
0000
0000
,
0000
0000
0000
0000
,
0001
0000
1000
0000
0010
0000
0000
0100
,
0000
0000
0010
0100
0001
0010
0000
0000
,
1000
0010
0100
0001
,
0010
0000
0100
0000
0001
0100
0000
0000
,
1001
0000
0000
0000
0010
0100
0010
0000
,
0100
0000
0000
0000
0001
0010
0001
0000
,
0010
0000
0000
0000
1000
0100
1000
0000
,
0010
0000
0000
0000
0100
0010
0100
0000
,
0001
1000
0010
0100
,
0010
0000
1000
0000
1000
0010
0001
0010
,
0001
0010
0100
0000
0010
0000
0100
0000
,
1000
0010
0001
0010
0100
0000
0010
1000
,
0002
0010
0100
0013
,
0001
0000
1000
0100
1000
0000
0010
0000
,
0100
0001
0010
1000
,
0001
0000
0100
0010
0100
1000
0100
1000
,
0020
0100
0001
0130
,
1000
0100
0010
0000
0110
0000
0001
0000
,
0010
0000
1000
0100
0010
0000
1000
0000
,
0101
0000
0100
1000
0001
0000
0010
0100
,
0002
1000
0100
1003
,
0010
0000
0000
0000
0100
0000
0000
0000
0001
0000
0010
0000
0000
1000
0000
0000
,
1010
0000
0101
0000
,
0110
1001
0101
0110
,
0001
0010
0001
0000
1000
0100
1000
0000
,
0010
0100
0010
0001
0100
0100
0010
0100
,
0001
0010
0000
1000
0100
1000
0100
1000
,
0000
0010
0000
0100
0000
0001
0010
0001
,
1000
0000
0010
0000
0100
0001
0100
0010
,
0000
1000
0010
0100
0010
0100
0001
0000
,
1000
0010
0100
1001
,
0000
0010
0000
0100
0000
0001
0010
0001
,
2000
3200
0320
2030
,
3000
0000
0001
0010
0000
0200
0000
0000
,
0320
0000
0000
0000
0031
0010
0000
1000
,
0000
0010
0000
0100
0000
0001
0010
0001
,
1001
0000
0010
0100
1001
0000
1001
0000
,
0010
0000
0100
0001
0000
0010
1000
0000
,
1001
0000
0010
0101
0000
0000
0010
0000
,
1001
0000
0000
0010
0100
0000
0001
0000
,
1001
0000
0010
0001
0011
0000
0110
0000
,
0010
0000
1000
0010
1010
0000
1010
0000
,
0010
0000
0100
0000
0000
0001
0010
0000
,
1000
0000
0010
0100
0010
0100
0001
1000
,
1001
0000
0010
0100
0101
0000
1010
0000
,
0010
0000
0100
0010
0101
0000
1010
0000
,
0010
0000
0100
0000
0000
1000
0100
0000
,
0010
0000
0001
0010
0001
1000
0100
1000
,
0020
0000
0000
0130
0000
0001
1000
0000
,
0020
0000
0000
0130
0000
1000
0001
0000
,
0020
0100
0001
2030
,
3020
0000
0200
0000
,
0331
0000
1000
0001
0000
0010
0100
0000
,
0001
0000
1000
0010
0000
0100
0010
0000
,
0002
0000
2003
0000
,
3020
0000
0000
0000
0100
0000
0100
0030
,
0010
1000
0010
1000
0100
1000
0010
0100
,
0010
0000
0100
0000
0001
0000
0100
0000
0010
0000
1000
0000
0000
0001
0000
0000
,
0010
1000
0100
0010
0001
0010
0100
0010
,
0001
1000
0000
0010
0000
0100
0001
0010
,
1000
0000
0100
0000
0010
0001
0010
0001
,
1000
0100
1000
0010
0100
0010
0100
0001
,
0010
1000
0000
0100
0000
0010
2000
0000
,
0000
3001
0000
0100
0000
0010
0001
0010
,
0001
0000
0100
0010
0100
0000
1000
0100
,
1000
0100
1000
0000
0000
0010
0100
0000
,
1001
0000
0000
0101
0000
0000
0110
0000
,
0010
1000
0000
0100
0000
0010
0100
0001
,
1000
0010
0100
1000
,
0010
0100
0001
0000
1000
0000
0010
0000
,
0100
0010
1000
0001
0100
0010
0000
0000
,
1000
0100
1000
0100
1000
0000
0000
0000
,
0010
0100
0000
0001
0000
0000
0000
0000
;

//--------------- dance-single - B. M'Rey ----------------
#NOTES:
     dance-single:
     B. M'Rey:
     Hard:
     8:
     0.470636,0.616036,0.040176,0.361586,0.284582,492,486,6,54,0,0,0.470636,0.616036,0.040176,0.361586,0.284582,492,486,6,54,0,0:
0000
0000
0000
0000
,
0000
0000
0000
0000
,
0000
0000
0000
0000
,
0000
0000
0000
0000
,
0000
0000
0000
0000
,
0000
0000
0000
0000
,
0000
0000
0000
0000
,
0000
0000
0000
0000
,
0001
0000
0000
0010
1000
0000
0000
0000
0100
0000
0000
0001
0010
0000
0000
0000
,
0100
0000
0000
1000
0010
0000
0000
0000
0100
0000
0000
0001
1000
0000
0000
0000
,
0001
0000
0000
1000
0010
0000
0000
0000
0001
0000
0000
0100
1000
0000
0000
0000
,
0100
0000
0000
0001
1000
0000
0000
0000
0100
0000
0000
1000
0010
0000
0000
0000
,
0001
0000
0010
0000
0001
0010
1000
0100
,
0010
0000
0100
0000
0010
0001
0100
0000
,
0010
0000
0000
0000
1000
0000
0000
0000
0001
0000
0010
0000
1000
0000
0000
0001
,
0100
0000
1000
0000
0100
0001
0010
1000
,
0001
1000
0001
0000
1000
0000
0000
0000
0100
0010
0100
0000
0010
0000
0000
0000
,
0100
0010
0100
0000
1000
0000
0000
0000
0010
0100
0010
0000
1000
0000
0000
0000
,
0010
0001
0010
0000
1000
0000
0000
0000
0100
1000
0100
0000
0010
0000
0000
0000
,
0001
0010
0001
0000
1000
0000
0000
0000
0001
0010
0001
0000
0100
0000
0000
0000
,
0020
1000
0100
0001
,
0001
0000
0000
0000
0100
0000
0000
0000
1030
0000
0000
0000
0010
0000
0000
0001
,
0000
0000
0000
1000
0010
0000
0000
0000
0100
0000
0000
0100
0010
0000
0000
0000
,
0001
0000
0000
0010
0100
0000
1000
0000
0001
0000
0010
0000
1000
0000
0100
0000
,
0120
0100
0100
1000
,
1030
0000
1000
0001
0101
0000
1000
0000
,
0001
0010
0100
1000
0001
0100
0010
0000
,
0101
0000
1000
0010
0100
0000
1000
0100
,
0010
0001
1000
0000
0010
0000
0100
0000
,
0010
0000
0000
0000
1000
0000
0000
0000
0100
0000
0001
0000
0000
1000
0000
0000
,
0110
0100
1001
0010
,
0101
1010
0101
1001
,
0001
0100
0001
1000
0100
0010
0100
0010
,
0000
0010
0001
0100
0001
1000
0100
1000
,
0010
1000
0000
0100
0001
1000
0010
0100
,
0000
1010
0000
1001
0000
0100
0010
0100
,
0001
0000
0100
1000
0000
0010
0001
0100
,
0000
0000
1000
0000
0100
0000
0010
0000
0001
0000
1000
0000
0001
0000
0000
1000
,
0001
0000
0000
0100
0010
0000
1000
0100
0010
0000
0000
1000
0010
0000
1000
0000
,
0000
1001
0000
0101
0000
0010
0001
1000
,
0020
0230
0320
0032
,
0013
0000
0001
2000
0000
3002
0000
1003
,
0001
0000
0001
0010
0100
0010
0000
0010
,
0000
1000
0000
1010
0000
0110
1000
0100
,
0101
0000
0010
1000
1100
0000
0101
0000
,
0001
0000
0100
0010
0000
0010
0000
1000
,
0010
0000
0010
1000
0000
0000
0110
0000
,
1100
0000
0000
0000
0010
0000
0001
0000
0100
0000
0000
0001
1000
0000
0100
0000
,
0010
0100
1000
0000
0100
1000
0100
0000
0100
0000
0010
0000
0001
0000
0010
0000
,
0001
1000
0001
0000
0010
0100
0010
0000
0010
0000
0100
0000
0001
0000
0010
0000
,
0101
0000
0101
0000
0010
1000
0010
0000
,
0110
0000
0001
0100
0010
1000
0010
1000
,
0100
1000
0100
0000
0100
0010
0100
0000
0001
0000
0010
0000
0001
0000
0010
0000
,
0100
1000
0100
0000
0001
0010
0001
0000
0100
0000
1000
0000
0010
0000
0100
0000
,
1001
0000
1100
0000
0010
1000
0001
0000
,
1001
0000
0100
1000
0100
0010
0001
0100
,
0010
0100
0010
0100
0000
0010
0001
0000
,
0010
0100
0010
1000
0000
0010
0100
0000
,
1100
1010
0110
0110
,
1001
0000
1010
0000
,
0100
1000
0100
0010
0000
0010
0001
0000
,
0010
0100
0010
1000
0000
0010
0100
0000
,
0100
1000
0010
0100
,
0020
0000
0230
2300
,
3001
0010
0100
0010
0100
0010
0001
1000
,
0100
0010
0100
0010
0001
0000
0100
0000
0001
0000
0101
0000
0000
0011
0000
0000
,
0100
0010
0100
1000
0100
0010
0001
0010
,
0001
1000
0010
1000
0100
0000
1000
0000
0100
0000
0010
0000
0001
0000
1000
0000
,
0100
0010
0100
1000
0100
1000
0010
0100
,
0010
0100
0010
0100
0001
0000
1000
0000
0100
0000
1001
0000
0000
0011
0000
0000
,
0001
0010
0100
0010
0100
1000
0100
1000
,
0001
1000
0010
0001
0100
0000
1000
0000
0001
1000
0001
1000
0001
0000
0100
0000
,
0010
0100
0010
1000
0100
1000
0100
1000
,
0001
0100
0001
0100
0001
0000
1000
0000
0010
0000
1001
0000
0000
0101
0000
0000
,
0010
1000
0010
0100
0010
0100
0001
0010
,
0100
0010
1000
0010
0100
0000
1000
0000
0010
0000
0100
0000
0010
0000
1000
0000
,
0001
1000
0100
1000
,
0010
1000
0100
0001
0010
0000
0100
0000
,
0001
0010
1000
0100
0010
0001
0100
0000
,
0001
1000
0010
0001
0100
0000
1000
0000
,
0001
0010
0000
0100
0000
0000
0000
0000
;
