#TITLE:Feels Just Like It Should;
#SUBTITLE:(Timo Maas Remix);
#ARTIST:Jamiroquai;
#GENRE:Progressive Techno;
#CREDIT:B. M'Rey;
#MUSIC:Feels Just Like It Should (Timo Maas Remix).ogg;
#BANNER:Feels Just Like It Should (Timo Maas Remix)-bn.png;
#BACKGROUND:Feels Just Like It Should (Timo Maas Remix)-bg.png;
#CDTITLE:./CDTITLES/Need For Speed Most Wanted Soundtrack.PNG;
#SAMPLESTART:20.891;
#SAMPLELENGTH:12;
#OFFSET:-0.437;
#BPMS:0=117.689;

//--------------- dance-single - B. M'Rey ----------------
#NOTES:
     dance-single:
     B. M'Rey:
     Beginner:
     1:
     0,0,0,0,0:
0000
0000
0000
0000
,
0000
0000
0000
0000
,
1000
0000
0010
0000
,
0100
0000
0001
0000
,
1001
0000
0010
0000
,
0100
0000
0010
0000
,
1010
0000
0100
0000
,
0001
0000
0010
0000
,
0101
0000
0010
0000
,
1000
0000
0001
0000
,
1000
0000
0000
0000
,
0010
0000
0000
0000
,
0100
0000
0000
0000
,
0001
0000
0000
0000
,
0010
0000
0000
0000
,
0001
0000
0000
0000
,
1000
0000
0000
0000
,
0100
0000
0000
0000
,
1000
0000
0000
0000
,
0010
0000
0000
0000
,
0100
0000
0000
0000
,
0001
0000
0000
0000
,
1000
0000
0000
0000
,
0010
0000
0000
0000
,
0100
0000
0000
0000
,
0001
0000
0000
0000
,
1000
0000
1000
0000
,
0001
0000
0001
0000
,
0100
0000
0100
0000
,
0010
0000
0010
0000
,
1000
0000
0000
0000
,
0001
0000
0000
0000
,
0100
0000
0000
0000
,
0010
0000
0000
0000
,
0001
0000
0001
0000
,
0010
0000
0010
0000
,
0100
0000
0100
0000
,
1000
0000
1000
0000
,
1001
0000
0010
0000
,
0000
0100
0000
0001
,
0000
0000
1000
0000
,
0000
0001
0100
0000
,
0000
0000
0010
0000
,
0000
1000
0000
0001
,
0000
0000
0100
0000
,
0000
0000
0010
1000
,
0001
0000
0001
0000
,
0001
0000
0000
0000
,
1000
0000
1000
0000
,
1000
0000
0000
0000
,
0100
0000
0100
0000
,
0100
0000
0000
0000
,
0010
0000
0010
0000
,
0010
0000
0000
0000
,
0011
0000
0001
0000
,
0001
1000
0001
1001
,
0010
0000
0100
0000
,
0001
0000
1000
0000
,
0010
0000
0100
0000
,
0001
0000
0010
0000
,
0001
0000
0100
0000
,
0010
0000
1000
0000
,
0100
0000
1000
0000
,
0010
0000
0100
0000
,
1001
0000
0000
0000
,
0000
0000
0000
0000
,
0100
0000
0000
0000
,
0000
0000
0000
0000
,
0001
0000
0000
0000
,
1000
0000
0000
0000
,
0010
0000
0000
0000
,
0100
0000
0000
0000
,
0011
0000
0000
0000
,
0000
0000
0000
0000
,
1000
0000
0000
0000
,
0000
0000
0000
0000
,
0010
0000
0000
0000
,
0100
0000
0000
0000
,
0001
0000
0000
0000
,
1000
0000
0000
0000
,
0110
0000
0000
0000
,
0000
0000
0000
0001
,
0000
1000
0000
0010
,
0000
0000
0000
0100
,
0000
0010
0000
1000
,
0000
0000
0000
1001
;

//--------------- dance-single - B. M'Rey ----------------
#NOTES:
     dance-single:
     B. M'Rey:
     Easy:
     3:
     0,0,0,0,0:
0000
0000
0000
0000
,
0000
0000
0000
0000
,
0100
0001
0100
0000
,
0100
0010
1000
0000
,
0010
0100
1000
0000
,
0100
0001
0100
0000
,
0010
0100
0010
0000
,
0010
0100
1000
0000
,
0100
0010
0100
0000
,
0100
0000
0010
0000
,
1000
0010
1000
0000
,
0010
0100
1000
0000
,
0010
0100
0010
0000
,
1000
0001
0100
0000
,
0010
0100
0010
0000
,
0010
0001
1000
0000
,
0010
0001
1000
0000
,
0010
0100
0010
0000
,
0010
0100
1000
0000
,
1000
0100
1000
0000
,
0010
0001
1000
0000
,
1000
0100
1000
0000
,
0010
0001
0100
0000
,
1000
0001
1000
0000
,
0010
0100
1000
0000
,
0010
0100
1000
0000
,
0010
0000
1000
0000
,
0010
0000
0100
0000
,
0011
0000
0010
0000
,
1000
0000
0100
0000
,
0100
0010
1000
0000
,
0010
0001
0010
0000
,
1000
0010
0100
0000
,
0100
0001
0010
0000
,
0010
0000
1000
0000
,
0010
0000
1000
0000
,
1001
0000
0010
0000
,
0001
0000
1000
0000
,
0110
0000
1000
0010
,
0100
0000
0100
0010
,
0100
0000
0010
0001
,
1000
0000
0010
0000
,
1000
0000
0100
0001
,
0100
0000
1000
0010
,
1000
0000
0100
0010
,
1000
0000
0100
0001
,
0101
0000
0110
0000
,
1001
0000
0010
0100
,
1001
0000
0110
0000
,
0110
0000
0100
0001
,
0110
0000
1010
0000
,
1001
0000
0100
0001
,
1100
0000
0011
0000
,
0011
0000
1000
0100
,
0011
0000
1100
0000
,
1001
0001
1000
1001
,
0010
0001
0010
0100
,
1000
0001
0100
0010
,
0100
0010
1000
0100
,
0010
0001
0100
0010
,
1000
0010
0100
0010
,
0100
0001
1000
0010
,
1000
0010
1000
0100
,
0010
0001
0100
1001
,
1001
0001
0010
0100
,
1000
0010
0100
0001
,
0010
0001
0010
0001
,
1000
0010
0100
0010
,
1000
0001
0010
0000
,
0010
0001
0100
0000
,
0100
0001
1000
0000
,
1000
0001
0100
0000
,
1000
0001
0100
0010
,
1000
0100
0010
0001
,
0010
0001
0010
0100
,
1000
0001
0010
0100
,
1000
0010
1000
0000
,
1000
0001
0100
0000
,
0100
0010
1000
0000
,
0100
0010
0000
0100
,
0010
0000
1000
0000
,
0000
0000
0000
0010
,
0000
0001
0000
0100
,
0000
0000
0000
0001
,
0000
0010
0000
0001
,
0000
0000
0000
0101
;

//--------------- dance-single - B. M'Rey ----------------
#NOTES:
     dance-single:
     B. M'Rey:
     Medium:
     6:
     0,0,0,0,0:
0000
0000
0000
0000
,
0000
0000
0000
0000
,
0110
0100
0010
0001
,
0100
0001
1000
0100
,
0110
0001
0100
0010
,
1000
0100
0010
0001
,
0101
0001
1000
0100
,
1000
0010
0100
0001
,
1100
0100
1000
0010
,
0100
0000
0010
0000
,
0100
0010
1000
0010
,
1000
0001
1000
0001
1000
0000
0001
0000
,
0010
0100
0010
0100
,
0010
0001
0010
0001
1000
0000
0001
0000
,
1000
0001
0010
0100
,
0010
0100
0010
0100
0010
0000
0001
0000
,
0100
0001
1000
0001
,
1000
0100
1000
0100
1000
0000
0010
0000
,
0100
0010
0100
0010
,
1000
0100
1000
0100
0010
0000
0100
0000
,
0010
0100
1000
0010
,
1000
0010
1000
0010
1000
0000
0001
0000
,
0010
0100
0010
0100
,
0010
0001
0010
0001
0100
0000
0001
0000
,
0100
0001
0010
0100
,
0010
0100
0010
0100
0010
0000
0001
0000
,
0010
0100
1000
0010
,
0100
0000
0001
0000
1000
0000
0100
0001
,
0110
0100
1000
0001
,
0100
0001
0100
0010
,
1000
0100
0010
0001
,
0010
0001
0010
0001
0100
0000
0010
0000
,
1000
0010
0100
0010
,
1000
0001
1000
0001
0100
0000
0010
0000
,
0100
0001
1000
0100
,
0010
0001
0010
0100
,
1000
0001
0100
0010
,
1000
0010
0100
0010
,
1100
0000
1000
0000
0100
0001
1000
0100
,
0010
1000
0100
0010
,
0001
0000
1000
0000
0100
0001
1000
0010
,
0100
0001
1000
0000
,
1000
0000
0000
0000
0100
0010
0100
0001
,
1000
1000
0010
0100
,
0001
0000
0010
0000
1000
0001
1000
0010
,
1000
0000
0010
0000
0100
0010
0100
0000
,
1001
0000
0000
0010
0100
0000
0000
0001
,
0100
0000
0010
0000
1000
0001
0000
0010
,
0100
0000
0000
0010
1000
0000
0000
0100
,
0010
0000
0100
0000
1000
0010
0000
0100
,
1000
0000
0000
0010
1000
0000
0000
0001
,
0100
0000
1000
0000
0100
0001
0000
0100
,
1000
0000
0000
0100
0010
0000
0000
0001
,
0100
0000
1000
0000
0100
0010
0000
0010
,
1000
0000
0000
0100
1000
0000
1000
0100
,
0000
0001
0100
0000
1000
0000
0101
0000
,
0010
0000
0100
0010
1000
0000
0010
0100
,
0010
0000
0010
0001
0100
0000
0100
0001
,
1000
0000
0010
0100
1000
0000
1000
0010
,
0100
0000
0100
0010
1000
0000
0010
0001
,
0010
0000
1000
0010
1000
0000
0100
0001
,
1000
0000
0100
0001
0010
0000
0010
0001
,
0100
0000
1000
0010
0100
0000
1000
0001
,
0010
0000
1000
0100
1000
0000
0100
0001
,
1000
0001
0100
0001
0100
0001
1000
0001
,
1000
0001
1000
0001
0010
0001
0010
0001
,
0010
1000
0010
1000
0010
1000
0010
0001
,
0010
0001
0010
0001
0010
1000
0010
1000
,
0100
0010
1000
0010
,
1000
0001
1000
0001
1000
0000
0001
0000
,
0010
0100
0010
0100
,
0010
0001
0010
0001
1000
0000
0001
0000
,
0100
0001
0100
0001
0100
0001
0100
0001
,
0100
0001
0100
0001
0100
0001
0100
0001
,
0100
0010
0100
0010
0100
0010
0100
0010
,
0100
0010
0100
0010
0100
0010
0100
0010
,
1000
0001
0010
0100
,
0010
0100
0010
0100
0010
0000
0001
0000
,
0100
0001
1000
0001
,
1000
0100
1000
0100
1000
0000
0001
0000
,
1000
0001
0010
0100
,
0010
0100
1000
0011
,
0000
1010
0000
1010
,
0000
0000
0001
0100
,
0000
0110
0000
0110
,
0100
1000
0001
1001
;

//--------------- dance-single - B. M'Rey ----------------
#NOTES:
     dance-single:
     B. M'Rey:
     Hard:
     8:
     0.567219,0.801646,0.441171,0.122858,0.47747,711,632,79,22,9,5,0.567219,0.801646,0.441171,0.122858,0.47747,711,632,79,22,9,5:
0000
0000
0000
0000
,
0000
0000
0000
0000
,
0010
1000
0001
1000
0001
1000
0100
0010
,
0100
0010
0001
0010
0100
1000
0100
1000
,
0100
0010
0001
0100
0010
0100
0010
0100
,
0001
1000
0100
1000
0100
0010
0100
1000
,
0001
0010
0001
0100
0001
0010
0100
1000
,
0001
0100
0001
0100
0010
0100
0010
1000
,
0100
1000
0100
0010
0001
0010
0001
0010
,
0100
1000
0001
0010
,
0001
1000
0001
1000
0001
0100
0010
0000
,
0010
0100
0001
0010
0001
0000
0100
0000
,
0010
0100
0010
0100
0001
1000
0001
0000
,
0001
0010
0100
0010
0001
0000
0100
0000
,
0001
0100
0010
0100
0001
0010
0100
0000
,
0100
0010
0001
1000
0010
0000
0100
0000
,
0001
0100
0001
0100
0001
0010
0100
0000
,
0100
1000
0100
0010
0001
0000
0010
0000
,
0100
1000
0100
1000
0100
0010
0001
0000
,
0001
0100
0001
1000
0100
0000
0001
0000
,
0001
0010
0001
0010
0100
0010
0100
0000
,
0001
1000
0010
1000
0010
0000
0100
0000
,
0001
1000
0001
1000
0001
0100
0010
0000
,
0010
1000
0010
1000
0001
0000
0010
0000
,
0001
1000
0010
1000
0001
1000
0010
0000
,
0001
0100
0001
0100
0010
0000
0010
1000
,
0010
0100
0001
0010
,
0100
1000
0100
1000
,
0001
0100
0001
0010
,
0100
0010
0001
0100
,
0001
1000
0001
1000
0001
0010
0100
0000
,
0100
0010
0001
1000
0001
0000
0000
0000
,
0100
0010
0100
1000
0100
1000
0001
0000
,
0001
0100
0001
0100
0010
0000
0000
0000
,
0001
0100
0010
1000
,
0100
0010
0001
0100
,
0010
0100
0010
1000
,
0001
0010
0001
1000
,
0001
0000
0000
0100
0010
0001
0100
0001
,
0010
0000
0010
0100
0010
0001
1000
0100
,
0010
0000
0100
0000
1000
0001
0100
0010
,
1000
0000
0100
0010
1000
0100
0000
0000
,
1000
0000
0100
0000
0010
0001
1000
0010
,
1000
0000
1000
0010
0100
0001
0010
0100
,
0010
0000
1000
0000
0100
0010
1000
0100
,
1000
0000
0010
0000
0010
0100
1000
0000
,
1100
0000
1000
0100
1001
0000
0010
0001
,
0110
0000
0010
0000
1000
0010
1000
0010
,
1010
0000
0100
0010
1100
0000
0010
0100
,
1100
0000
0001
0000
1000
0001
0100
0001
,
0110
0000
0100
0010
1010
0000
0100
0001
,
1001
0000
0100
0000
1000
0001
0010
0001
,
0101
0000
0010
0100
0110
0000
0010
0001
,
1010
0000
0010
0000
1000
0001
0100
0001
,
0110
0000
0100
0010
1010
0000
1000
0100
,
0110
0110
1001
1100
,
1000
0001
1000
0001
1000
0010
0100
0010
,
0100
0010
1000
0001
1000
0001
1000
0100
,
0010
0100
0010
0100
1000
0010
1000
0010
,
1000
0001
0010
0001
0010
0100
0010
0100
,
1000
0100
1000
0001
1000
0001
0010
0001
,
0010
0100
0010
0100
1000
0100
1000
0001
,
1000
0001
0010
0001
0010
0100
0010
0100
,
1000
0100
1000
0001
1000
0001
0010
0110
,
0110
0001
0010
0000
1000
0100
1000
0000
0010
0001
0010
0000
0010
0100
1000
0000
,
1000
0100
0010
0000
0010
0001
0010
0000
1000
0100
0010
0000
1000
0010
1000
0000
,
1000
0100
0010
0000
0010
0001
0010
0000
1000
0100
1000
0000
0010
0001
0010
0000
,
0010
0100
1000
0000
1000
0100
0010
0000
0010
0001
0010
0000
1000
0100
0010
0000
,
1000
0001
1000
0010
1000
0010
0100
0010
,
0100
0001
0100
0001
0010
0001
0010
0100
,
0010
0100
1000
0100
1000
0001
1000
0001
,
0010
0001
0010
0100
0010
0100
1000
0100
,
1000
0001
1000
0000
1000
0010
0100
0000
0100
0010
1000
0000
1000
0001
1000
0000
,
0100
0010
0100
0000
1000
0001
1000
0000
1000
0100
0010
0000
0010
0100
1000
0000
,
1000
0001
1000
0000
0100
0010
0100
0000
1000
0001
1000
0000
1000
0100
0010
0000
,
0010
0001
1000
0000
1000
0100
0010
0000
0010
0001
0010
0000
1000
0100
1000
0000
,
1000
0001
1000
0001
1000
0100
0010
0100
,
1000
0100
0010
0001
0010
0001
0010
0100
,
1000
0100
1000
0100
0010
0001
0100
0001
,
0100
0001
1000
0010
1000
0010
0100
0010
,
0010
0100
1000
0010
,
0100
0001
0100
0010
,
0000
0100
0010
0000
0000
1000
0100
0000
,
0001
0000
0010
0000
0000
0001
0100
0000
,
0000
0010
1000
0000
0000
0100
0010
0000
,
1001
0110
0101
0110
;

//--------------- dance-single - B. M'Rey ----------------
#NOTES:
     dance-single:
     B. M'Rey:
     Challenge:
     9:
     0,0,0,0,0:
0000
0000
0000
0000
,
0000
0000
0000
0000
,
1000
0000
1000
0010
1000
0000
0100
0010
0100
0000
0100
0001
1000
0000
0100
0010
,
0100
0000
0100
0010
1000
0000
1000
0010
1000
0000
0100
0010
0100
0000
0010
0000
,
1001
0000
1000
0100
1000
0000
0100
0001
1000
0000
0100
0010
0100
0000
1000
0001
,
0100
0000
0100
0001
1000
0000
1000
0010
0100
0000
0100
0001
1000
0000
0001
0000
,
0110
0000
0100
0001
0100
0000
1000
0010
1000
0000
0100
0001
0100
0000
0100
0010
,
1000
0000
1000
0010
0100
0000
0100
0010
0100
0000
1000
0010
1000
0000
0010
0000
,
0011
0000
0100
0010
0100
0000
0100
0001
0010
0000
1000
0001
1000
0000
1000
0010
,
0100
0000
0001
0000
0010
1000
0001
0100
,
0100
0000
0100
0001
0000
0010
1000
0000
1000
0010
0100
0001
1000
0000
0001
0000
,
0010
0100
0010
0000
0010
0001
1000
0000
0100
0000
0010
0000
0100
0000
0010
0000
,
1000
0000
1000
0001
0000
0100
0010
0000
0010
0001
1000
0001
1000
0000
0001
0000
,
0100
0001
1000
0000
1000
0100
1000
0000
0010
0000
0100
0000
0010
0000
0100
0001
,
0100
0000
0100
0001
0000
0001
0100
0000
0100
0010
0100
0010
1000
0000
0001
0000
,
1000
0001
0010
0000
0010
0100
0010
0000
1000
0000
0001
0000
0100
0000
0010
0001
,
0010
0000
1000
0100
0000
0100
0010
0000
0010
0001
0010
0100
1000
0000
0010
0000
,
1000
0010
0100
0000
0100
0001
0100
0000
0010
0000
0001
0000
0010
0000
1000
0100
,
0010
0000
0010
0001
0000
0100
1000
0000
0100
0001
0100
0001
1000
0000
0001
0000
,
1000
0010
0100
0000
0100
0010
1000
0000
0100
0000
1000
0010
0100
0000
0010
0000
,
1000
0000
1000
0100
0000
0010
0100
0000
0010
0001
0010
0001
1000
0000
0100
0000
,
1000
0001
0100
0000
1000
0001
1000
0000
1000
0000
0010
0100
0000
0001
0010
0000
,
1000
0000
1000
0010
0000
0010
0100
0000
0100
0001
0100
0001
1000
0000
0010
0000
,
1000
0001
0100
0000
0100
0001
1000
0000
0010
0000
1000
0000
0010
0000
0010
0100
,
1000
0000
1000
0010
0000
0001
0010
0000
0010
0001
1000
0010
0100
0000
0010
0000
,
1000
0100
1000
0000
0010
0100
0010
0000
0001
0000
0100
0000
0010
0000
1000
0010
,
1000
0100
1000
0100
1000
0001
1000
0001
,
0100
0001
0100
0010
0100
0010
1000
0010
,
0100
0001
0100
0001
0100
0010
1000
0010
,
1000
0010
0100
0001
0100
0001
1000
0001
,
0010
0000
0010
0001
0000
0100
1000
0000
1000
0001
1000
0001
0100
0000
0010
0000
,
0100
0010
1000
0000
1000
0100
1000
0000
0010
0000
0000
0001
0000
0000
0100
0000
,
0001
0000
0010
0100
0000
0100
0010
0000
1000
0100
1000
0100
1000
0000
0010
0000
,
0010
0001
0010
0000
0100
0001
0100
0000
0010
0000
0000
0100
0000
0000
1000
0000
,
0010
0100
1000
0100
0010
0100
0010
0001
,
0010
0001
0100
0010
0100
0010
0100
0001
,
0010
0001
0010
0001
1000
0010
0100
0010
,
0100
0010
1000
0001
1000
0001
1000
0010
,
0110
0000
0000
0000
0100
0000
0000
0010
1000
0000
0100
0010
0000
1000
0100
0000
,
0010
0000
0100
0010
1000
0010
1000
0010
1000
0000
0010
1000
0000
1000
0100
0000
,
0010
0000
0000
0000
0001
0000
0000
0001
0010
0000
0100
1000
0000
1000
0001
0000
,
0010
0000
0001
0010
0001
0010
0001
0010
0100
0000
0010
0000
0100
0000
0010
0000
,
0100
0000
0000
0000
1000
0000
0000
0001
1000
0000
0001
0100
0000
0100
0010
0000
,
0100
0000
0100
0001
0100
0001
0100
0001
0010
0000
0100
1000
0000
1000
0100
0000
,
0010
0000
0000
0000
0001
0000
0000
0001
0010
0000
0100
1000
0000
1000
0100
0000
,
1001
0000
0000
0000
0110
0000
0000
0000
0100
0001
0100
0001
0100
0000
0001
0000
,
1000
0000
0001
0000
0100
0000
0010
0100
0010
0000
0010
0000
0100
0000
0001
1000
,
0001
0000
0001
0000
0100
0010
0100
0010
,
0100
0000
0001
1000
0001
0000
0001
0000
0010
0000
0001
0010
0001
0000
0100
0000
,
0010
0000
1000
0000
0100
0010
1000
0010
,
0100
0000
0010
0100
0010
0000
0001
0000
0010
0000
0001
1000
0001
0000
0001
0000
,
1000
0000
0010
0000
0100
0001
0100
0001
,
1000
0001
1000
0100
0010
0100
0010
0100
,
1000
0001
1000
0001
1000
0100
0010
0100
,
0010
0100
1000
0010
1000
0010
1000
0001
,
0100
0001
0101
0000
0110
0000
0011
0000
,
0010
0000
0001
1000
0000
1000
0001
0000
1000
0010
0000
0010
1000
0000
0010
0100
,
0000
0100
0010
0000
0100
0001
0000
0001
0100
0000
0001
1000
0000
1000
0001
0000
,
0100
0010
0000
0010
0100
0000
0010
1000
0000
1000
0010
0000
1000
0001
0000
0001
,
1000
0000
0001
0010
0000
0010
0001
0000
0010
0100
0000
0100
0010
0000
0100
1000
,
0000
1000
0001
0000
1000
0001
0000
0001
1000
0000
0010
0100
0000
0100
0010
0000
,
0100
0010
0000
0010
1000
0000
0100
1000
0000
1000
0100
0000
1000
0010
0000
0010
,
0100
0000
0010
0100
0000
0100
0010
0000
1000
0001
0000
0001
1000
0000
0001
1000
,
0000
1000
0010
0000
0100
0010
0000
0010
0100
0000
0010
0000
1000
0000
1001
0000
,
0100
0001
1000
0001
1000
0001
0100
0010
0100
0010
0100
0010
1000
0001
1000
0001
,
0010
0001
0010
0100
0010
0100
1000
0100
1000
0010
1000
0010
0100
0010
0100
0001
,
0100
0001
0010
0001
0010
0100
0010
0100
1000
0100
1000
0010
1000
0001
0010
0001
,
0010
0001
0010
0100
1000
0100
1000
0100
1000
0010
0100
0010
0100
0010
0100
0001
,
0100
0000
0100
0001
0000
0010
1000
0000
1000
0010
0100
0001
1000
0000
0001
0000
,
0010
0100
0010
0000
0010
0001
1000
0000
0100
0000
0010
0000
0100
0000
0010
0000
,
1000
0000
1000
0001
0000
0100
0010
0000
0010
0001
1000
0001
1000
0000
0001
0000
,
0100
0001
1000
0000
1000
0100
1000
0000
0010
0000
0100
0000
0010
0000
0100
0001
,
1000
0001
1000
0001
1000
0001
0010
0100
1000
0100
1000
0100
1000
0001
0100
0001
,
0100
0010
0100
0010
1000
0010
0100
0001
0100
0001
0100
0001
1000
0010
1000
0100
,
1000
0100
0010
0100
0010
0001
0010
0001
1000
0001
1000
0100
0010
0100
0010
0100
,
0010
0001
1000
0001
0010
0001
0100
0010
1000
0010
1000
0010
0100
0001
0100
0001
,
0100
0000
0100
0001
0000
0001
0100
0000
0100
0010
0100
0010
1000
0000
0001
0000
,
1000
0001
0010
0000
0010
0100
0010
0000
1000
0000
0001
0000
0100
0000
0010
0001
,
0010
0000
1000
0100
0000
0100
0010
0000
0010
0001
0010
0100
1000
0000
0010
0000
,
1000
0010
0100
0000
0100
0001
0100
0000
0010
0000
0001
0000
0010
0000
1000
0000
,
0110
0000
1000
0000
0010
0100
1000
0000
,
1000
0000
0010
0000
1000
0001
1000
0000
,
0010
0100
0010
0000
0010
0001
1000
0000
,
0000
0001
0100
0000
0100
0010
0100
0000
,
1000
0001
1000
0000
0010
0100
0010
0000
,
0011
0101
1100
1001
;
