#VERSION:0.83;
#TITLE:Fantasy (Tritonal Air Up There Remix);
#ARTIST:Nadia Ali;
#GENRE:Uplifting Trance;
#CREDIT:B. M'Rey;
#MUSIC:Fantasy (Tritonal Air Up There Remix).ogg;
#BANNER:Fantasy (Tritonal Air Up There Remix)-bn.png;
#BACKGROUND:Fantasy (Tritonal Air Up There Remix)-bg.png;
#CDTITLE:./CDTITLES/A State Of Trance.PNG;
#SAMPLESTART:32.371;
#SAMPLELENGTH:15;
#OFFSET:-0.152;
#BPMS:0=67.5,8=135,192=67.5,224=135;

//--------------- dance-single - B. M'Rey ----------------
#NOTEDATA:;
#STEPSTYPE:dance-single;
#DESCRIPTION:B. M'Rey;
#CREDIT:B. M'Rey;
#DIFFICULTY:Beginner;
#METER:3;
#RADARVALUES:0,0,0,0,0;
#NOTES:
0000
0000
0000
0000
,
0000
0000
0000
0000
,
0001
0000
0000
0000
,
1000
0000
0000
0000
,
0100
0000
1000
0000
,
0010
0000
0000
0000
,
0001
0000
0000
0000
,
0100
0000
0000
0000
,
0010
0000
1000
0000
,
0100
0000
0000
0000
,
0001
0000
0010
0000
,
0100
0000
0000
0000
,
0010
0000
1000
0000
,
0100
0000
0001
0000
,
0010
0000
0000
0000
,
0000
0000
0000
0000
,
1000
0000
0001
0000
,
0100
0100
0100
0000
,
0010
0000
1000
0000
,
0001
1000
0001
0000
,
0010
0000
0100
0000
,
0001
0000
0000
0000
,
1000
0000
0010
0000
,
0100
0000
0000
0000
,
1001
0000
0000
0000
,
0010
0000
0000
0000
,
0001
0000
0100
0000
,
0010
0000
1000
0000
,
0100
0000
0000
0000
,
1000
0000
0000
0000
,
0001
0000
0100
0000
,
0010
0000
1000
0000
,
0001
0000
0010
0000
,
0100
0000
0000
0000
,
1000
0000
0001
0000
,
0100
0000
0000
0000
,
0010
0000
1000
0000
,
0100
0000
0001
0000
,
0010
0000
0100
0000
,
0000
0000
0000
0000
,
1000
0000
0001
0000
,
0010
0010
0010
0000
,
0100
0000
0001
0000
,
1000
0000
0010
0000
,
0100
0000
0001
0000
,
1000
0000
0000
0000
,
0010
0000
0100
0000
,
0001
0000
0000
0000
,
1000
0000
0000
0000
,
0010
0000
0000
0000
,
0001
0000
0000
0000
,
0100
0000
0000
0000
,
1000
0000
0100
0000
,
0001
0000
0010
0000
,
0100
0000
0010
0000
,
1000
0000
0001
0000
,
0100
0000
0100
0000
,
0010
0010
0010
0000
,
0001
0000
1000
0000
,
0100
0100
0100
0000
,
0010
0000
1000
0000
,
0001
0000
0000
0000
,
0100
0000
0010
0000
,
0100
0000
0000
0000
,
0001
0000
1000
0000
,
0000
0000
0000
0000
,
0010
0000
0010
0000
,
0000
0000
0000
0000
,
0001
0000
0100
0000
,
0000
0000
0000
0000
,
0010
0000
0001
0000
,
0010
0000
0000
0000
,
1000
0000
0010
0000
,
0100
0000
0001
0001
,
0010
0000
0100
0000
,
0010
0000
1000
1000
,
0100
0000
0001
0000
,
0010
0000
0100
0100
,
1000
0000
0010
0000
,
0100
0000
0001
0001
,
0010
0000
0100
0000
,
0001
0000
0010
0010
,
0100
0000
1000
0000
,
0001
0000
0100
0010
,
0100
0000
1000
0000
,
0001
0000
0010
0010
,
0001
0000
0100
0000
,
0010
0000
1000
0000
,
0100
0000
0001
0000
,
0000
0000
0000
0000
,
1000
0000
0010
0000
,
0000
0000
0000
1000
,
0010
0000
0100
0000
,
0001
0010
0000
1000
,
0100
0000
0010
0000
,
0100
0000
0001
0000
,
0000
1000
0001
0000
,
0000
0000
0000
0000
,
0100
0000
1000
0000
,
0000
0000
0000
0000
,
0100
0000
0010
0000
,
1000
0000
0001
0000
,
0100
0000
0010
0000
,
0000
0000
0000
0000
,
1000
0001
0010
0000
,
0000
0000
0000
0000
,
0100
0000
1000
0000
,
0000
0000
0000
0001
,
0010
0000
0100
0000
,
1000
0000
0010
0000
,
0100
0001
0000
0000
,
0010
0000
1000
0000
,
0001
0010
0100
0000
,
0000
0000
0000
0000
,
0010
0000
0001
0000
,
1000
0000
0010
0000
,
1000
0001
1000
0000
,
0001
1000
0001
0000
,
0001
1000
0001
0000
,
1000
0001
1000
0000
,
0220
0000
0000
0000
,
0000
0000
0000
0000
,
0000
0000
0000
0000
,
0000
0000
0000
0000
,
0330
0000
0000
0000
;

//--------------- dance-single - B. M'Rey ----------------
#NOTEDATA:;
#STEPSTYPE:dance-single;
#DESCRIPTION:B. M'Rey;
#CREDIT:B. M'Rey;
#DIFFICULTY:Easy;
#METER:5;
#RADARVALUES:0,0,0,0,0;
#NOTES:
0000
0000
0000
0000
,
0000
0000
0000
0000
,
1000
0100
0010
0000
,
1000
0001
0100
0000
,
1000
0010
0000
0001
,
0100
0000
1000
0000
,
0100
0001
1000
0000
,
0002
0000
2003
0000
,
3100
0010
0100
0010
,
1000
0100
0000
0001
,
0000
0010
0100
0010
,
0100
0001
0010
0000
,
0010
0100
0000
0100
,
1000
0001
0010
0000
,
1000
0001
0200
0000
,
0000
0000
0000
0000
2000
0000
0000
3300
,
0010
1000
0001
0010
,
0100
1000
0001
0000
,
0010
0100
0001
0100
,
0010
0000
0100
0000
,
0001
0100
0010
1000
,
0010
0000
0001
0100
,
0001
1000
0000
0100
,
0010
0100
0001
0010
,
1001
0010
0100
1000
,
0000
0010
0000
0100
,
0010
0100
0001
0000
,
0100
0000
0001
0000
,
0100
1000
0100
0000
,
0100
0010
0001
0000
,
0001
1000
0010
0000
,
0001
0000
0010
0100
,
0010
1000
0010
0100
,
0001
1000
0100
0000
,
0001
0100
0010
1000
,
0010
0100
0010
0000
,
0001
1000
0100
1000
,
0010
0000
0010
0100
,
0001
0100
0010
1000
,
0001
0000
0010
0000
,
0001
0010
0001
0010
,
0001
0200
0000
0300
,
0010
0000
0100
0000
0001
0000
0000
1000
,
0000
0000
0000
0010
0000
0000
0000
0000
,
0100
1000
0001
0100
,
0002
0000
0003
0010
,
0100
1000
0001
0000
,
0010
0000
0001
0000
,
0010
1000
0000
0000
,
0010
0000
0000
0000
,
0100
0000
0001
0000
,
0010
0000
0000
0000
,
1000
0001
0010
0000
,
0100
0010
1000
0000
,
0001
0010
0100
1000
,
0100
0010
0000
0000
,
0001
1000
0010
0100
,
0010
1000
0000
0000
,
0001
0010
0000
0000
,
0100
0000
0010
0000
,
1000
0100
1000
0000
,
0010
0000
0000
0100
,
0010
0100
0001
0000
,
0010
0000
1000
0000
,
0010
0100
0001
0000
,
0000
0000
0000
0000
0000
0000
0000
1000
,
0000
0010
0000
0100
0000
0000
0000
0000
,
0010
0000
1000
0000
,
0100
0000
1001
0000
,
0000
0000
0000
0000
0000
0000
0000
0100
,
0000
0010
0000
0100
0000
0000
0000
0001
,
0000
1000
0000
0001
0000
0000
0000
0000
,
1000
0010
1000
0001
,
1000
0000
0010
0000
0100
0000
0001
0010
,
0010
0001
0100
0001
,
1000
0000
0100
0000
1000
0000
0100
0100
,
0010
0001
0100
0010
,
0100
0000
0010
0000
1000
0000
0100
0100
,
1000
0001
1000
0100
,
0010
0000
0001
0000
0100
0000
0001
0010
,
0010
0001
0100
0010
,
0100
0000
0001
0000
1000
0000
0010
0010
,
1000
0010
1000
0001
,
0010
0000
0001
0000
0010
0000
0100
0100
,
0010
0100
1000
0100
,
0010
0000
0001
0000
0100
0000
0001
0001
,
0010
0100
1000
0010
,
1000
0001
0100
0010
,
0100
0001
1000
0000
,
0000
0000
0000
0000
0000
0000
0000
0001
,
0000
0010
0000
0100
0000
0000
0000
0000
,
0010
0000
1000
0001
,
0010
0100
0010
0000
,
0001
1000
0010
0000
,
0100
0010
0100
0000
,
1000
0000
0001
0000
,
0100
0010
0100
0000
,
0000
0000
0000
0000
0000
0000
0000
0001
,
0000
0010
0000
1000
0000
0000
0000
0000
,
0100
0000
0001
0000
,
0010
0100
0010
0000
,
1000
0100
1000
0000
,
0001
0000
0100
0000
,
0010
0000
1000
0000
,
1001
0001
0100
0000
,
0000
0010
0000
0000
0000
0000
0000
1000
,
0000
0100
0000
1000
0000
0000
0000
0000
,
0010
0000
0100
0001
,
0100
0000
0010
0000
,
1000
0100
1000
0000
,
0010
0000
0100
0000
,
0001
0010
0001
0000
,
0100
0010
1000
0000
,
0001
0000
0000
0000
0000
0000
0000
0100
,
0000
1000
0000
0010
0000
0000
0000
0000
,
0100
0000
0001
0000
,
1000
0001
1000
0001
,
1000
0100
0010
0100
,
0010
0100
1000
0001
,
1000
0001
0010
0001
,
0020
0000
0000
0000
,
0000
0200
0000
0000
,
0000
0000
0000
0000
,
0000
0000
0000
0000
,
0330
0000
0000
0000
;

//--------------- dance-single - B. M'Rey ----------------
#NOTEDATA:;
#STEPSTYPE:dance-single;
#DESCRIPTION:B. M'Rey;
#CREDIT:B. M'Rey;
#DIFFICULTY:Medium;
#METER:9;
#RADARVALUES:0,0,0,0,0;
#NOTES:
0000
0000
0000
0000
,
0001
0100
0010
0100
,
0001
0100
0010
0100
0001
0000
0100
0000
,
0001
1000
0001
0100
0010
0000
0001
0000
,
0010
0100
0000
0010
0000
0100
0001
0010
,
0000
1000
0000
0010
0000
0000
0100
0010
,
0000
1000
0000
0100
0000
1000
0100
0010
,
0001
0100
0001
0010
,
0001
1000
0100
0010
0000
0100
0000
0010
,
0000
1000
0000
0100
0000
0110
0000
0110
,
0000
1000
0001
0010
0000
1000
0000
0010
,
0000
0100
0000
0001
0100
0000
0010
0000
,
0010
0100
0010
0100
0000
0010
0000
0001
,
0000
1000
0010
1000
0000
0010
0001
1000
,
0000
0100
0001
0000
0020
0000
0000
0000
,
0000
0000
0200
0000
,
0330
0100
0001
0010
0000
1000
0000
0100
,
0001
0100
0000
1001
0000
0100
0010
0000
,
0010
0100
0000
0010
0000
1000
0000
1000
,
0010
0000
1000
0010
0100
0000
1010
0000
,
0001
0010
0000
0100
0000
1000
0001
0010
,
0100
0000
0001
0000
0010
1000
0000
0100
,
0000
0000
1000
0000
0001
0000
0010
0000
0000
0000
0010
0000
0100
0000
0000
0001
,
0000
0000
0100
0000
0001
0000
0000
0100
0000
0000
0010
0000
0100
0000
1000
0000
,
0010
0000
0001
0100
0000
1000
0100
0010
,
0000
1000
0010
1000
0000
1000
0100
0010
,
0000
0000
1000
0000
0000
0000
0010
0000
0001
0000
0010
0000
0100
0000
0000
0010
,
0000
0000
1000
0000
0010
0000
0000
0001
0000
0000
0010
0000
0100
0000
0000
0010
,
0000
0100
0010
1000
0000
0100
0001
1000
,
0000
1000
0001
0010
0000
1000
0001
1000
,
0000
0100
0000
1000
0000
0010
0100
0000
,
0001
0000
0010
0000
0001
0100
0010
0100
,
0000
1000
0010
1000
0000
1100
0000
0011
,
0000
0110
0000
1010
0000
1000
0010
0000
,
0001
0100
0001
0100
0000
0010
0000
0110
,
0000
0011
0000
0110
0000
1000
0100
0000
,
0100
0010
0100
1000
0000
0010
0000
1000
,
0000
1000
0100
0000
0100
0010
0000
0100
,
0000
0000
0101
0000
0000
0000
1010
0000
0000
0000
0110
0000
1000
0000
0000
0001
,
0000
0000
1000
0000
0100
0000
0000
0010
0000
0000
0010
0000
0100
0000
0000
1000
,
0000
0010
0100
1000
0001
0010
0001
1000
,
0000
0010
0000
1000
0000
0010
0100
0000
,
0001
0010
0001
1000
0010
1000
0100
0020
,
0000
0030
0100
0010
0100
0000
0010
0100
,
0000
1000
0010
1000
0100
1000
0001
0100
,
0010
0000
0001
0000
0010
0000
0001
1000
,
0100
0000
0010
0000
0100
0000
0010
0000
0001
0000
0000
0000
0100
0000
0000
0010
,
0000
0000
0100
0000
0001
0000
0000
0010
0000
0000
1000
0000
0100
0000
0000
0010
,
0000
0000
0001
0000
0100
0000
0000
0000
0000
0000
0000
0000
0000
0000
0000
1000
,
0000
0001
0000
0010
0000
0000
0000
0000
0000
0000
0000
0000
0000
0001
0000
0100
,
0000
0010
0000
1000
0000
0000
0000
0010
0000
0100
0000
0010
0000
0000
0000
1000
,
0000
0100
0000
0010
0000
0000
0010
0000
0000
0000
0100
0000
0000
0000
1000
0000
,
0000
0000
0001
0000
0100
0000
0000
0000
0000
0010
0000
0000
0000
0000
0100
0000
,
0010
0100
0000
1000
0000
0001
0000
0100
,
1000
0100
0000
0010
1000
0001
0000
0100
,
0000
0001
0010
0000
1000
0001
0000
0000
,
1000
0010
0001
0010
0000
0100
0000
0010
,
0000
0100
0000
0001
0000
0100
0001
0010
,
0100
0001
0000
1000
0000
0100
0001
1000
,
0000
1000
0100
1000
0001
0000
1000
0000
,
0010
0001
0000
1000
0000
0001
0000
0100
,
1000
0000
0001
0000
0100
0010
0000
0010
,
0000
0100
0000
1000
0000
0010
0100
0010
,
0100
0000
0000
0001
0000
0000
1000
0000
0000
0001
0000
0000
1000
0000
0100
0000
,
0010
0000
0010
0100
0010
0000
0100
0000
,
0010
0000
0100
0000
0001
0000
1000
0100
,
0001
1000
0100
0010
0100
0000
0010
0000
,
0100
1000
0001
0010
,
0100
0010
0001
0100
0010
0000
1000
0000
,
0001
0000
1000
0000
0100
0000
0010
0001
,
0000
0010
0000
1000
0000
0000
0100
1000
,
0000
0100
0000
0010
0000
0000
0010
0000
,
0001
1000
0001
1000
0001
0100
0010
0100
,
0010
0100
0001
0010
0001
0010
0001
0100
,
0010
0100
0010
0100
0001
0010
0001
0010
,
0001
1000
0100
1000
0100
1000
0001
0100
,
0001
0100
0010
0100
0010
1000
0010
0100
,
0001
0100
0001
1000
0001
1000
0100
1000
,
0010
0100
0010
0100
0010
1000
0001
1000
,
0001
1000
0100
0010
0100
0010
0100
0000
,
0001
1000
0001
1000
0010
0100
0010
0100
,
0010
1000
0001
1000
0001
1000
0100
0010
,
0100
0010
0100
1000
0001
1000
0010
1000
,
0001
0100
0001
0100
0001
0010
0100
0010
,
0000
0010
0001
1000
0100
0010
0100
0010
,
0100
1000
0001
1000
0001
1000
0010
0100
,
0010
0000
0100
0000
0010
0000
0000
0100
0000
0000
1000
0000
0100
0000
0000
0001
,
0000
0000
0100
0000
0001
0000
0000
0100
0000
0000
1000
0000
0010
0000
0000
1000
,
0000
0010
0001
0000
0200
0000
0010
0000
,
0010
0000
0001
0000
0001
0000
0310
1000
,
0010
0100
0000
0010
0000
1000
0010
0000
,
0100
0010
0100
0000
0010
0100
0000
0001
,
0000
0010
0001
0100
0010
0000
0010
1000
,
0000
0001
0000
1000
0000
0100
0001
0100
,
0000
1000
0000
0010
0000
0010
0100
1000
,
0000
0100
0000
0010
0000
1000
0100
1000
,
0100
0010
0002
0010
,
0010
0003
2000
0000
0001
0000
3100
0010
,
0000
0001
0000
0100
0000
1000
0010
0000
,
0010
0100
0001
0000
0010
1000
0100
0000
,
0001
0010
1000
0000
0100
0000
1000
0000
,
0010
0100
0000
0010
0001
1000
0000
0001
,
0000
0010
0000
0010
0001
0000
0010
0100
,
0001
0000
0001
0100
0001
0000
0100
1000
,
1100
0001
0002
0100
,
0023
0000
0100
0000
0100
0000
0130
1000
,
0000
0011
0000
1010
0000
0100
0001
0000
,
0010
0001
0010
0000
0010
1000
0000
0100
,
0000
0010
0001
0100
0010
0000
0100
1000
,
0000
0010
0000
1000
0000
0100
0001
1000
,
0100
0000
0100
1000
0100
0000
0001
0000
,
1000
0000
0001
0010
0100
0000
0001
0100
,
0010
0000
0001
0100
0002
0000
0100
0000
,
0100
0000
0100
0000
0100
0000
0103
1000
,
0000
0001
0000
0100
0000
1000
0010
0000
,
0100
0000
0001
1000
0001
0000
0010
0000
,
1000
0001
1000
0001
0010
0100
0010
0100
,
1000
0001
0100
0010
1000
0001
1000
0001
,
0100
0010
0100
0010
1000
0001
1000
0001
,
0100
0010
1000
0010
1000
0001
0010
0001
,
0010
0002
0000
0000
0000
0000
0000
0010
,
0000
0000
0100
0203
0000
0000
1000
0000
,
0000
0000
0000
0000
,
0000
0000
0000
0000
,
0300
0000
0000
0000
;

//--------------- dance-single - B. M'Rey ----------------
#NOTEDATA:;
#STEPSTYPE:dance-single;
#DESCRIPTION:B. M'Rey;
#CREDIT:B. M'Rey;
#DIFFICULTY:Hard;
#METER:13;
#RADARVALUES:0,0,0,0,0;
#NOTES:
0000
0000
0000
0000
,
0100
0010
0100
0000
0100
1000
0010
0000
,
0010
1000
0001
1000
0100
0000
0001
0010
,
0100
1000
0100
0010
0100
0000
0001
0000
,
0001
0100
0001
0010
0100
0000
0010
0100
,
0001
0000
0010
1000
0001
0000
0100
0010
,
0100
1000
0010
1000
0100
0000
0001
1000
,
0100
0010
0100
1000
,
0001
0100
0010
0100
0000
1000
0001
0010
,
0000
1001
0000
0110
0000
1010
0000
0110
,
0000
1000
0010
1000
0000
0010
0001
0101
,
0000
0110
0000
1010
0000
1000
0001
0000
,
0001
0100
0001
1000
0000
0100
0010
0100
,
0001
0000
0001
1000
0001
0000
0010
0100
,
0000
1000
0000
0001
0010
0000
1000
0000
,
0001
0000
0000
0000
0010
0000
0000
0000
0100
0000
0000
0000
0010
1000
0010
1000
,
0010
0000
0001
1000
0001
0000
0001
0100
0010
0000
0010
0100
0001
0000
0001
1000
,
0001
0000
0100
0010
0100
0000
0001
0100
0001
0000
1000
0000
0010
0000
0010
0100
,
0010
0000
0100
1000
0100
0000
0001
0100
0001
0000
0001
0010
0100
0000
0100
0010
,
0001
0000
0001
1000
0100
0000
0100
0010
0100
0000
0001
0000
0010
0000
0001
0000
,
0100
0000
0100
1000
0100
0000
0001
1000
0001
0000
0001
0010
0100
0000
0100
1000
,
0100
0000
0001
0000
0010
0000
0001
0000
0010
0000
0100
1000
0100
0000
0001
0100
,
0001
0000
0001
1000
0100
0000
0100
1000
0010
0000
0001
1000
0001
0000
0001
0100
,
0000
0000
0010
0000
0001
0000
0001
1000
0000
0000
0010
0000
0100
0000
1000
0000
,
0001
0000
0100
1000
0010
0100
0010
0100
,
0010
1000
0100
0010
0100
0010
0100
1000
,
0001
0000
1000
0000
0100
0000
1000
0001
0000
0000
0100
0000
0010
0000
0100
0010
,
0000
0000
0100
0000
0001
0000
1000
0100
0000
0000
1000
0000
0010
0000
0100
0010
,
0000
0100
0010
1000
0001
0010
0001
0100
,
0001
0100
0010
1000
0100
0010
0100
0010
,
0001
1000
0100
1000
0010
1000
0100
0010
,
0100
0000
0010
0000
0001
0010
0100
0010
,
0001
0100
0001
0100
0010
1000
0001
1001
,
0000
0110
0000
0110
0000
0010
0001
0000
,
0001
0100
0001
1000
0100
1000
0001
0101
,
0000
0110
0000
0101
0000
1000
0100
0000
,
0100
0010
0100
0010
0001
1000
0010
1000
,
0100
0000
0001
0000
0001
0010
0100
1000
,
0010
0000
0100
0000
0000
0000
1000
0000
0000
0000
0001
0000
0010
0000
0100
0010
,
0000
0000
0100
0000
0010
0000
0100
0001
0000
0000
1000
0000
0010
0000
1000
0100
,
1000
0000
1000
0000
0100
0000
0010
0000
0100
0000
1000
0000
0001
0000
1000
0100
,
0000
0000
0010
0001
0000
0000
0010
0100
0000
0000
0010
0000
0100
0000
0000
0000
,
0010
0000
1000
0000
0100
0000
1000
0000
0001
0000
0010
0000
0100
0000
0010
0100
,
0010
0000
1000
0000
0001
0000
0010
0001
0010
0000
0010
0000
0001
0000
0100
0000
,
0000
0000
1000
0001
1000
0000
0010
0100
0010
0000
1000
0001
1000
0000
1000
0000
,
0001
0010
0001
1000
0100
1000
0010
0100
,
0001
0000
1000
0000
0010
0000
0100
0000
0010
0000
1000
0000
0010
0000
1000
0100
,
0000
0000
1000
0000
0001
0000
0010
0001
0000
0000
0100
0000
0001
0000
0010
0100
,
0001
0000
1000
0000
0020
0000
0000
0000
0000
0000
0000
0000
0000
0000
0000
0130
,
0000
0010
0000
2000
0000
0000
0000
0000
0000
0000
0000
0000
0000
3001
0000
0010
,
0000
0001
0000
0100
0000
0000
0000
0010
0000
1000
0000
0100
0000
0000
0000
0010
,
0000
1000
0000
0100
0000
0000
0000
0001
0000
0010
0000
0001
0000
0000
0010
0100
,
0010
0000
0010
0000
2000
0000
0000
0000
0000
3002
0000
0000
0000
0000
0000
0013
,
0000
0001
0000
0100
0000
0000
0001
0000
0010
0000
0000
0000
1000
0000
0100
0000
,
0001
0000
0010
0000
1000
0000
0000
0000
0001
0000
0010
0000
0001
0000
0000
0100
,
0000
0000
0010
0000
1000
0100
0001
0000
,
0001
0010
0001
0010
0001
0100
0010
0100
,
0010
0100
0001
1000
0001
1000
0001
0100
,
0010
0100
0010
0100
0001
1000
0001
1000
,
0001
0100
0010
0100
0010
1000
0010
1000
,
0001
1000
0100
0010
0100
0010
0100
1000
,
0010
1000
0010
1000
0100
0010
0100
0010
,
0100
1000
0010
1000
0010
1000
0100
0010
,
0100
0010
0100
1000
0010
1000
0010
1000
,
0001
0010
0100
0010
0100
1000
0100
1000
,
0001
1000
0001
0010
0001
0010
0100
1000
,
0100
1000
0001
1000
0001
0100
0001
0100
,
0010
0100
0010
1000
0010
1000
0100
1000
,
0100
0010
0100
0010
0001
0010
0001
1000
,
0001
0100
0010
0100
0010
0100
0001
0010
,
0001
0010
0001
1000
0010
1000
0010
1000
,
0000
0100
0000
0100
0000
0010
0001
0010
,
0001
0000
1000
0000
0001
0000
0100
0001
0000
0000
1000
0000
0100
0000
1000
0100
,
0000
0000
1000
0000
0001
0000
0100
0010
0000
0000
0100
0000
0010
0000
0100
0001
,
0000
0000
1000
0000
0010
0000
1000
0010
0000
0000
1000
0000
0100
0000
0010
0100
,
0000
0000
1000
0000
0001
0000
1000
0001
0000
0000
0100
0000
0001
0000
0100
0010
,
0000
0000
1000
0000
0010
0000
1000
0010
0000
0000
0100
0000
0001
0000
1000
0001
,
0000
0000
0100
0000
0001
0000
0100
0010
0000
0000
0100
0000
0010
0000
1000
0010
,
0000
0000
1000
0000
0001
0000
1000
0001
0000
0001
0010
0000
0001
0000
0010
0100
,
0000
0100
0010
0000
0100
0000
1000
0100
0000
0100
0010
0000
0001
0000
0010
0001
,
0010
0000
1000
0000
0010
0000
1000
0010
0000
0000
1000
0000
0001
0000
0100
0001
,
0000
0000
1000
0000
0001
0000
1000
0010
0000
0000
1000
0000
0010
0000
0100
0010
,
0000
0000
0100
0000
0001
0000
0100
0001
0000
0000
1000
0000
0001
0000
1000
0010
,
0000
0000
1000
0000
0010
0000
0100
0010
0000
0000
0100
0000
0001
0000
0100
0001
,
0000
0000
0010
0000
0001
0000
0010
0100
0000
0000
0010
0000
0100
0000
1000
0100
,
0000
0000
1000
0000
0001
0000
0100
0010
0000
0000
0100
0000
0001
0000
0100
0001
,
0000
0000
1000
0000
0001
0000
1000
0010
0000
0010
1000
0000
0010
0000
0100
0010
,
0000
0010
0100
0000
0001
0000
0100
0001
0000
0001
0010
0000
0001
0000
0010
0000
,
0110
0000
1000
0100
1000
0000
0010
0000
0001
0000
0100
0010
0100
0000
0100
0000
,
0001
0000
0100
0001
0100
0000
1000
0000
0100
0000
0010
0100
0010
0000
1000
0000
,
0010
0000
0100
0010
0100
0000
0100
0001
0100
0000
0010
0000
0100
0000
0010
0001
,
0000
0000
0010
0000
0100
0000
1000
0010
0000
0000
1000
0000
0010
0000
0100
0000
,
0010
0000
1000
0001
1000
0000
0100
0000
0010
0000
1000
0000
0001
0000
1000
0001
,
1000
0000
0100
0010
0100
0000
1000
0010
1000
0000
0100
0000
0001
0000
0010
0000
,
0100
0000
1000
0100
1000
0000
0010
0100
0010
0000
1000
0000
0010
0000
0100
0010
,
0000
0000
1000
0000
0100
0000
1000
0010
0000
0000
0100
0000
0001
0000
1000
0010
,
0000
0000
1000
0000
0010
0000
1000
0100
1000
0000
0010
0100
0010
0000
0010
0000
,
0100
0000
1000
0001
1000
0000
1000
0001
1000
0000
0100
0000
0001
0000
0010
0100
,
0010
0000
1000
0010
1000
0000
0100
0010
0100
0000
1000
0000
0100
0000
0010
0100
,
0000
0000
1000
0000
0001
0000
0100
0001
0000
0000
0010
0000
0001
0000
0010
0100
,
0010
0000
0010
0000
0100
0000
1000
0100
1000
0000
0010
0000
0001
0000
0100
0010
,
0100
0000
0100
0000
0010
0000
1000
0001
1000
0000
1000
0000
0100
0000
0010
0100
,
0010
0000
1000
0000
0010
0000
1000
0000
0010
1000
0010
0000
0001
0000
0010
0100
,
0000
0000
0010
0000
0001
0000
0100
0010
0000
0000
1000
0000
0010
0000
0100
0010
,
0000
0000
0100
0000
0001
0000
0100
0000
0010
0000
1000
0010
1000
0000
1000
0100
,
1000
0000
0010
0000
0001
0000
0010
0000
0100
0000
0010
0000
0001
0000
1000
0001
,
1000
0000
1000
0100
1000
0000
0010
0100
0010
0000
1000
0000
0010
0000
0100
0001
,
0000
0000
0010
0000
0100
0000
0010
0001
0000
0000
0100
0000
0010
0000
1000
0000
,
0100
0000
0010
0001
0010
0000
1000
0010
1000
0000
1000
0000
0100
0000
1000
0000
,
0100
0000
0010
0100
0010
0000
0010
0001
0010
0000
1000
0000
0001
0000
0100
0000
,
0010
0000
0100
0010
0100
0000
1000
0010
1000
0000
0100
0000
0001
0000
1000
0010
,
0000
0000
0100
0000
0010
0000
1000
0010
0000
0000
0100
0000
0001
0000
0100
0001
,
0010
0000
0100
0000
0001
0000
0100
0000
0010
0100
0010
0000
0010
0000
1000
0000
,
0010
1000
0001
0000
0001
0000
1000
0000
0010
0100
0010
0000
0010
0000
0100
0001
,
0100
0000
0010
0001
0010
0000
0010
0001
0010
0000
0100
0000
0010
0000
1000
0001
,
0000
0000
0010
0000
0100
0000
1000
0010
0000
0000
0100
0000
0010
0000
0001
1000
,
0001
0000
0001
0010
0100
0000
0100
0010
0001
0000
0010
0100
0010
0000
0001
1000
,
0001
0000
0001
0010
0100
0000
0100
0010
0001
0000
0001
0010
0001
0000
0100
1000
,
0001
0000
0001
0100
0001
0000
0010
0100
0010
0000
0010
1000
0100
0000
0010
0100
,
0010
0000
0001
0010
0100
0000
0100
0010
0100
0000
0010
1000
0010
0000
0001
0000
,
0200
0000
0000
0000
0000
0000
0000
0320
,
0000
0000
0000
0032
0000
0000
2000
0000
,
0000
0000
0000
0000
,
0000
0000
0000
0000
,
3003
0000
0000
0000
;

//--------------- dance-single - B. M'Rey ----------------
#NOTEDATA:;
#STEPSTYPE:dance-single;
#DESCRIPTION:B. M'Rey;
#CREDIT:B. M'Rey;
#DIFFICULTY:Challenge;
#METER:17;
#RADARVALUES:0.689776,0.983724,0.226529,0.113265,0.539056,1151,1097,54,27,0,1,0.689776,0.983724,0.226529,0.113265,0.539056,1151,1097,54,27,0,1;
#NOTES:
0000
0000
0000
0000
,
1000
0000
0010
0000
0100
0000
0001
0000
1000
0000
0010
0000
0000
0000
0001
0100
,
0001
0000
0010
0000
0100
0000
1000
0010
1000
0000
0000
0000
0001
0000
1000
0000
,
0001
0000
0010
0000
0100
0000
0010
0001
0010
0000
0000
0000
0100
0000
0000
0000
,
0001
0000
0010
0000
0100
0000
1000
0001
1000
0000
0010
0000
0001
0000
1000
0010
,
1000
0100
0010
1000
0010
0000
0001
0100
,
0010
0100
0001
0010
0001
0000
0100
0010
,
0400
0000
M000
0000
034M
0000
0000
0M00
0034
0000
0000
00M0
4003
0000
000M
0000
,
3010
0100
0010
0001
0100
0001
1000
0010
,
0100
0000
0001
0000
0010
0000
0001
0000
0100
0010
0100
0000
0100
0010
0100
0000
,
1000
0100
1000
0001
0010
0001
1000
0100
,
0010
0001
0100
0001
1100
0000
1100
0000
,
1010
0000
0100
0010
0100
0001
1000
0100
,
0010
0000
0100
0001
1000
0000
0100
0010
,
0100
0000
0010
0000
1000
0000
0100
0000
0040
0000
000M
0000
0430
M000
0000
0000
,
0304
00M0
0000
0000
0043
0M00
0000
0000
403M
0000
00M0
0000
3100
0001
0100
0001
,
0100
0000
0100
0010
0100
0010
0100
0010
0100
0010
0001
0010
0001
0010
0001
0100
,
0001
0100
0001
0100
0010
0100
0010
0100
0010
1000
0010
1000
0010
0100
0001
0010
,
0001
0010
0001
0010
0100
0010
0100
0010
0100
1000
0001
0010
0001
0010
0001
0010
,
0001
0010
0001
0010
0100
1000
0100
1000
0100
1000
0100
0010
0100
0010
0001
0000
,
0001
1000
0001
0010
0001
0000
0001
0100
0010
0000
0001
1000
0010
0000
0100
0000
,
0010
0000
0001
0100
0010
0000
0100
0010
0000
0000
0001
1000
0001
0000
0001
0100
,
0000
0000
0001
0100
0010
0000
0100
1000
0100
0000
0010
0100
0010
0000
0010
0100
,
0000
0000
1000
0000
0010
0000
0010
1000
0000
0000
0001
0010
0100
1000
0100
0010
,
0001
0000
0001
0000
1000
0001
1000
0000
0100
0000
0010
0000
0100
0000
0001
0000
,
1000
0100
1000
0001
0010
0100
1000
0001
,
1000
0000
0001
0000
0010
0000
0100
1000
0000
1000
0100
0000
1000
0000
0100
0010
,
0000
0010
0001
0000
0100
0000
0010
1000
0000
1000
0001
0000
0100
0000
0010
0100
,
0000
0100
0010
0000
0100
0000
0001
0010
0001
0000
0001
0000
0010
0000
0001
0000
,
1000
0000
0010
0000
1000
0100
1000
0000
0010
0000
0100
0000
1000
0000
0010
0000
,
0100
0000
0010
0000
1000
0000
0010
0100
0000
0100
0001
0000
0100
0000
0001
1000
,
0000
1000
0100
0000
1000
0000
0100
0000
0010
0000
0100
0000
0010
0000
0001
0000
,
0110
0000
0010
1000
0010
0000
0100
0010
0100
0000
0001
1000
0001
0000
0100
0010
,
0100
0000
0001
1000
0001
0000
0010
0100
0010
0000
0010
0000
0100
0000
0001
0000
,
0010
0000
0001
0100
0001
0000
0001
0010
0001
0000
0100
1000
0100
0000
0001
0010
,
0001
0000
0100
1000
0100
0000
0001
1000
0001
0000
0100
0000
0010
0000
0100
0000
,
1000
0000
0100
1000
0100
0000
0001
1000
0001
0000
0100
0010
0100
0000
0001
0100
,
0001
0010
1000
0001
0100
0001
0100
0001
,
0010
0000
0100
1000
0100
0000
0001
0010
0001
0000
0001
1000
0001
0000
0100
1000
,
0000
1000
0100
0000
1000
0000
0010
0100
0000
0100
0001
0000
0100
0000
0010
0100
,
0010
0000
0010
0100
0001
0000
0001
1000
0001
0000
0010
0100
0001
0000
0100
0010
,
0001
0000
0010
0100
0001
0000
0001
1000
0100
0000
0010
0000
0001
0000
0100
0000
,
0010
0000
0001
0100
0001
0000
0100
0010
0100
0000
0001
1000
0100
0000
0001
1000
,
0010
0000
0100
1000
0100
0000
0001
0010
0100
0000
0001
1000
0100
0000
0010
1000
,
0010
0000
0010
1000
0100
0000
0100
0010
0100
0000
0001
1000
0010
0000
0001
0100
,
0001
0000
0100
1000
0001
0000
0001
0010
0100
0000
0100
1000
0001
0000
0001
0010
,
0001
0010
0001
0100
0010
0100
0010
0100
0010
1000
0100
1000
0100
0000
0100
0010
,
0000
0010
0001
0010
0001
0000
0100
1000
0000
1000
0100
0000
0001
0010
0100
0010
,
0200
0000
03M2
0000
2M03
0000
000M
0000
00M0
0000
0M00
0000
000M
0000
0M00
3040
,
0M00
0034
M000
0403
00M0
0000
M000
0000
00M0
0000
000M
0000
00M0
0301
1000
0001
,
1000
0010
1000
0010
0100
0000
1000
0100
1000
0100
0010
0001
0000
0100
0010
0001
,
0000
0101
0000
1010
0000
0000
0010
1000
0000
1000
0001
1000
0001
0000
0001
1000
,
0011
0000
0000
1000
0000
0000
0010
0000
0000
0100
0000
0000
0010
0000
0100
0000
0010
0000
0000
0001
0000
0000
0010
0000
0000
0001
0000
0000
1000
0000
0001
0000
,
1000
0000
0000
0010
0000
0000
0100
0000
0000
0010
0000
0000
1000
0000
0010
0000
1000
0000
0000
0100
0000
0000
0010
0000
0000
0100
0000
0000
0010
0000
0100
0000
,
0010
0000
0000
0001
0000
0000
0010
0000
0000
0001
0000
0000
0100
0000
0001
0000
0100
0000
0000
0010
0000
0000
0100
0000
0000
1000
0000
0000
0010
0000
0100
0000
,
0010
0000
0000
1000
0000
0000
0001
0000
0000
1000
0000
0000
0001
0000
0100
0000
1000
0000
0000
0010
0000
0000
0100
0000
0000
0010
0000
0000
0100
0000
1000
0000
,
0001
0000
0000
1000
0000
0000
0100
0000
0000
0001
0000
0000
0010
0000
1000
0000
,
0001
0000
0000
0100
0000
0000
1000
0000
0000
0001
0000
0000
0010
0000
1000
0000
,
0010
0000
0000
1000
0000
0000
0001
0000
0000
0100
0000
0000
0010
0000
1000
0000
,
0010
0000
0000
0100
0000
0000
0001
0000
0000
0010
0000
0000
0001
0000
1000
0000
,
0001
0000
0000
0100
0000
0000
0010
0000
0000
0001
0000
0000
1000
0000
0010
0000
,
0001
0000
0000
0100
0000
0000
1000
0000
0000
0001
0000
0000
0010
0000
1000
0000
,
0010
0000
0000
0100
0000
0000
1000
0000
0000
0001
0000
0000
0001
0000
0100
0000
,
0001
0000
0000
0010
0000
0000
1000
0000
0000
0100
0000
0000
0001
0000
0010
0000
,
0001
0100
0001
0100
0001
0100
0010
1000
,
0010
1000
0001
1000
0001
1000
0100
1000
,
0001
0010
0100
0010
0100
0010
0001
1000
,
0100
1000
0100
1000
0001
0010
0100
1000
,
0001
0100
0001
0100
0010
1000
0010
1000
,
0010
1000
0001
1000
0001
1000
0100
1000
,
0001
0000
0100
0000
0001
0000
02M0
0000
0000
0000
03M0
0000
1000
0M00
0001
0000
,
M000
0000
02M0
0000
0000
000M
0340
0000
M000
0000
M000
0000
0130
0000
0M01
0000
,
0001
0010
0M01
0010
0001
0010
0M01
1000
0001
1000
0M01
0010
0001
0010
0M01
1000
,
0010
1000
010M
1000
0100
1000
01M0
1000
0001
1000
00M1
1000
0001
0100
M010
0100
,
0010
0100
M010
0100
0001
0100
00M1
1000
0001
1000
00M1
1000
0100
1000
010M
0010
,
0100
0010
0100
1000
0001
1000
00M1
1000
0001
1000
0100
1000
0100
0010
M001
0010
,
0100
1000
01M0
1000
0100
1000
00M1
1000
0001
1000
0M01
1000
0010
1000
0M01
1000
,
0001
1000
0M10
1000
0001
0010
0M01
0010
0001
0010
0001
1000
01M0
1000
010M
1000
,
0100
1000
001M
1000
0M10
1000
0001
1000
0M10
1000
0M10
1000
001M
1000
0100
0010
,
010M
0010
M100
0010
0100
1000
00M1
1000
0001
0100
00M1
0100
M001
0100
0010
0100
,
M010
0100
0010
0100
M001
0100
00M1
1000
0M01
0010
0001
1000
0M01
0010
0001
1000
,
0M01
1000
0001
1000
0M01
0010
0001
0100
M010
0100
0010
0100
0001
0100
00M1
0100
,
0001
0010
M001
0100
0010
0100
001M
0100
0010
1000
001M
0100
0010
1000
0M01
1000
,
00M1
1000
0M01
1000
0010
1000
010M
1000
0100
1000
01M0
1000
0001
0100
M0M1
0100
,
0001
0100
00M1
1000
0001
0010
M001
0100
0001
0100
00M1
0100
0001
1000
0M01
1000
,
0010
1000
001M
1000
0010
1000
010M
1000
0100
1000
01M0
1000
0001
1000
00M1
0100
,
0001
0100
M001
0100
0001
1000
00M1
1000
0M01
1000
0M01
0010
0001
1000
01M0
1000
,
010M
1000
010M
1000
001M
1000
0M1M
1000
0010
1000
0M01
1000
001M
1000
0M10
1000
,
0001
0000
0010
0100
0010
0000
0010
1000
0100
0000
0100
0010
0100
0000
0001
1000
,
0001
0000
0001
1000
0010
0000
0001
0100
0010
0000
0001
1000
0001
0000
0001
0100
,
0010
0000
0010
1000
0100
0000
0100
1000
0100
0000
0001
0000
0010
0000
1000
0100
,
0000
0000
0001
0000
0010
0000
0100
1000
0000
0000
0010
1000
0100
0000
0001
0100
,
0010
0000
0001
0010
0001
0000
0100
0010
0100
0000
0010
0000
0100
0000
0010
1000
,
0001
0000
0001
0100
0001
0000
0100
1000
0001
0000
0010
0000
0100
0000
0001
0010
,
0001
0000
0010
1000
0001
0000
0001
0100
0001
0000
0100
1000
0001
0000
0001
0100
,
0000
0000
0010
0000
1000
0000
0010
0100
0000
0000
0100
0000
0001
0000
0010
0100
,
0001
0000
0010
0000
0100
0000
0010
1000
0001
0000
0001
1000
0001
0000
0010
1000
,
0001
0000
0010
0100
0010
0000
0001
1000
0010
0000
0010
1000
0001
0000
0001
1000
,
0001
0000
0010
1000
0010
0000
0001
0010
0000
0000
0100
0000
0010
0000
0010
0001
,
0000
0000
0001
0000
0010
0000
0100
1000
0000
0000
0001
0000
0010
0000
0001
0100
,
0001
0000
0100
1000
0100
0000
0001
0010
0100
0000
0001
0000
0100
0000
0010
0100
,
0010
0000
0001
0100
0001
0000
0001
0010
0100
0000
0010
1000
0010
0000
0001
0000
,
0100
0000
0001
1000
0001
0000
0001
1000
0010
0000
0010
0000
0100
0000
0010
1000
,
0100
0000
0010
0000
0001
0000
0100
0010
0001
0000
0010
0000
0001
0000
0010
1000
,
0001
0000
0010
0100
0010
0000
0010
1000
0100
0000
0100
0010
0001
0000
0010
1000
,
0001
0000
0001
0010
0100
0000
0100
0010
0001
0000
0100
1000
0010
0000
0001
1000
,
0100
0000
0100
1000
0010
0000
0001
1000
0010
0000
0010
1000
0100
0000
0100
0010
,
0001
0000
0001
1000
0010
0000
0001
1000
0001
0000
0010
1000
0001
0010
0100
0010
,
0001
0000
0010
0100
0001
0100
0010
1000
0100
0000
0001
0010
0001
1000
0001
0010
,
0100
0000
0100
0010
0001
0100
0001
0010
0001
0000
0100
0010
0001
0000
0001
0010
,
0100
0000
0100
1000
0100
0000
0010
1000
0001
0000
0010
0100
0001
0000
0001
0100
,
0000
0000
0100
0010
0100
0000
0001
0010
0000
0000
0100
1000
0100
0000
0001
1000
,
0000
0000
0001
1000
0100
0000
0001
0010
0001
0010
0100
0010
0001
0100
0001
1000
,
0100
0000
0001
0100
0001
0000
0010
1000
0001
0000
0001
0010
0001
0000
0010
0100
,
0001
0000
0100
1000
0010
0000
0001
0100
0001
0000
0010
0100
0010
0000
0010
0100
,
0001
0000
0010
1000
0001
0000
0001
0100
0010
0000
0100
0010
0001
0000
1000
0000
,
0100
1000
0100
1000
0100
0010
0001
0010
0001
0010
0100
1000
0100
1000
0100
0010
,
0001
0010
0001
0010
0001
1000
0010
1000
0010
1000
0010
0100
0001
0100
0001
0100
,
0001
1000
0010
1000
0001
1000
0100
0010
0100
0010
0100
0010
0001
0100
0001
0100
,
0001
0000
0000
0000
0000
0000
0000
0000
0000
0000
0000
0000
0100
0000
0000
0000
0000
0000
0000
0000
0000
0000
0000
0000
0010
0000
0000
0000
0000
0000
0000
0000
0000
0000
0000
0000
1000
0000
0000
0000
0000
0000
0000
0000
0000
0000
0000
0000
0010
0000
0000
0000
0000
0000
0000
0000
0000
0000
0000
0000
1000
0000
0000
0000
0000
0000
0000
0000
0000
0000
0000
0000
0010
0000
0000
0000
0000
0000
0000
0000
0000
0000
0000
0000
1000
0000
0000
0000
0000
0000
0000
0000
0000
0000
0000
0000
0100
0000
0000
0000
0000
0000
0000
0000
0000
0000
0000
0000
0010
0000
0000
0000
0000
0000
0000
0000
0000
0000
0000
0000
0100
0000
0000
0000
0000
0000
0000
0000
0000
0000
0000
0000
0010
0000
0000
0000
0000
0000
0000
0000
0000
0000
0000
0000
0001
0000
0000
0000
0000
0000
0000
0000
0000
0000
0000
0000
0010
0000
0000
0000
0000
0000
0000
0000
0000
0000
0000
0001
0001
0000
0000
0000
0000
0000
0000
0000
0000
0000
0000
0000
0000
0000
0000
0000
0000
0000
0000
0000
0000
0000
0000
0000
,
0000
M002
00M0
0M00
M000
00M0
0M00
M020
,
0M00
M000
M100
M233
M0M0
000M
20M0
000M
,
00M0
000M
00M0
000M
00M0
000M
00M0
000M
,
00M0
000M
00M0
000M
00M0
000M
00M0
000M
,
33M0
0000
0000
0000
;
