#VERSION:0.83;
#TITLE:Eternity;
#ARTIST:Paul van Dyk feat. Owl City;
#GENRE:Vocal Trance;
#CREDIT:B. M'Rey;
#MUSIC:eternity.ogg;
#BANNER:Eternity-bn.png;
#BACKGROUND:Eternity-bg.png;
#CDTITLE:./CDTITLES/BMR Superstars.PNG;
#SAMPLESTART:41.811;
#SAMPLELENGTH:15;
#OFFSET:-0.134;
#BPMS:0=128;

//--------------- dance-single - B. M'Rey ----------------
#NOTEDATA:;
#STEPSTYPE:dance-single;
#DESCRIPTION:B. M'Rey;
#CREDIT:B. M'Rey;
#DIFFICULTY:Beginner;
#METER:3;
#RADARVALUES:0.127259,0.128933,0,0.007814,0,114,114,0,1,0,0,0.127259,0.128933,0,0.007814,0,114,114,0,1,0,0;
#NOTES:
0000
0000
0000
0000
,
0000
0000
0000
0000
,
0000
0000
0000
0000
,
0000
0000
0000
0000
,
0000
0000
0000
0000
,
0000
0000
0000
0000
,
0000
0000
0000
0000
,
0000
0000
0000
0000
,
0000
0000
0000
0000
,
0000
0000
0000
1000
,
0000
0100
0000
0001
,
0000
0010
0000
0001
,
0000
0100
0000
0010
,
0000
1000
0000
0100
,
0000
1000
0000
0001
,
0000
0010
0000
0001
,
0000
0100
0000
0010
,
0000
1000
0000
0100
,
0000
1000
0000
0001
,
0000
0010
0000
0001
,
0000
0100
0000
0010
,
0000
0100
0000
1000
,
0000
0010
0000
0100
,
0000
0001
0000
0010
,
0000
0001
0000
0100
,
0000
1000
0000
0010
,
0000
0100
0000
0001
,
0000
0010
0000
0001
,
0000
0100
0000
0010
,
0000
1000
0000
0100
,
0000
1000
0000
0001
,
0000
0010
0000
0001
,
0000
0100
0000
0010
,
0000
1000
0000
0100
,
0000
1000
0000
0001
,
0000
0010
0000
0001
,
0000
0100
0000
0010
,
0000
1000
0000
0100
,
0000
1000
0000
0010
,
0000
0001
0000
0100
,
0000
0010
0000
1000
,
0000
0010
0000
0100
,
0000
0010
0000
1000
,
0000
0001
0000
0010
,
0000
0001
0000
0100
,
0000
0010
0000
1000
,
0000
0010
0000
0100
,
0000
0001
0000
0010
,
0000
0001
0000
0100
,
0000
0010
0000
1000
,
0000
0100
0000
1000
,
0000
0010
0000
0100
,
0000
0001
0000
0010
,
0000
0001
0000
0100
,
0000
0010
0000
1000
,
0000
0100
0000
1000
,
0000
0001
0000
1000
,
0000
0001
0000
1000
,
0000
0010
0000
0100
,
0000
0010
0000
1000
,
0000
0001
0000
0010
,
0000
0001
0000
0100
,
0000
0010
0000
1000
,
0000
0100
0000
0001
,
0000
0010
0000
0100
,
0000
1000
0000
0010
,
0000
0002
0000
0000
,
0000
0003
0000
0000
;

//--------------- dance-single - B. M'Rey ----------------
#NOTEDATA:;
#STEPSTYPE:dance-single;
#DESCRIPTION:B. M'Rey;
#CREDIT:B. M'Rey;
#DIFFICULTY:Easy;
#METER:5;
#RADARVALUES:0,0,0,0,0;
#NOTES:
0000
0000
0000
0000
,
0000
0000
0000
0000
,
0000
0000
0000
0000
,
0000
0000
0000
0000
,
0000
0000
0000
0000
,
0000
0000
0000
0000
,
0000
0000
0000
0000
,
0000
0000
0000
0000
,
0000
0000
0000
0000
,
0000
0000
0000
0100
,
0010
0001
1000
0000
,
0100
0000
0010
0000
,
0100
0000
0001
0000
0100
0000
0000
0010
,
0000
0000
0000
1000
0000
0000
0100
0000
,
0010
0100
0010
0001
,
0010
0001
1000
0000
,
0010
0000
0000
0000
1000
0000
0000
0001
,
0000
1001
0000
0001
,
0010
0100
1000
0000
,
1000
0001
1000
0000
,
0010
0000
0001
0000
0010
0000
0000
1000
,
0000
0100
0000
0001
,
0010
0001
1000
0001
,
0100
0010
0100
0001
,
1000
0010
1000
0000
,
0001
0000
0000
0000
0010
0000
0000
1000
,
0000
0001
0000
0000
,
1000
0100
0010
0100
,
0010
0001
0000
0000
,
1000
0100
1000
0001
,
1000
0100
0000
0000
,
1000
0001
1000
0000
,
0100
0000
1000
0001
,
1000
0000
0100
0000
,
0010
0000
0100
0000
,
1000
0001
0100
0010
,
0100
0001
0000
0001
,
0010
0001
0100
0010
,
0100
0010
0000
0001
,
1000
0100
1000
0100
,
0010
0100
1000
0000
,
0010
0000
0100
0010
,
1000
0000
0001
0010
,
0100
0010
1000
0100
,
0010
0001
1000
0000
,
0010
0000
0100
0000
,
1000
0000
0010
0100
,
0010
0001
1000
0100
,
1000
0100
0010
0000
,
0100
0000
0010
0000
,
0001
0000
1000
0000
,
1000
0100
0010
0001
,
0010
0100
0000
0000
,
0010
0100
1000
0001
,
1000
0100
0000
0000
,
1000
0001
0010
0001
,
0010
0001
0100
0000
,
1000
0000
0010
0001
,
0100
0000
1000
0000
,
1000
0010
0100
0001
,
0010
0100
1000
0000
,
0010
0000
0100
0001
,
0100
0000
0010
0000
,
0001
0000
1000
0001
,
1000
0001
1000
0000
,
0100
0000
0100
0001
,
0010
0001
0000
0000
;

//--------------- dance-single - B. M'Rey ----------------
#NOTEDATA:;
#STEPSTYPE:dance-single;
#DESCRIPTION:B. M'Rey;
#CREDIT:B. M'Rey;
#DIFFICULTY:Medium;
#METER:8;
#RADARVALUES:0.323729,0.335862,0,0.007814,0,290,290,0,1,0,0,0.323729,0.335862,0,0.007814,0,290,290,0,1,0,0;
#NOTES:
0000
0000
0000
0000
,
0000
0000
0000
0000
,
0000
0000
0000
0000
,
0000
0000
0000
0000
,
0000
0000
0000
0000
,
0000
0000
1000
0000
,
0001
0000
0100
0000
,
0010
0000
1000
0000
,
0001
0000
0010
0000
,
0100
0000
1000
0001
,
0010
0000
0001
1000
0100
0000
0010
0000
,
1000
0100
1000
0001
,
0010
1000
0100
0000
0010
0000
1000
0010
,
0100
0000
0001
0000
0010
1000
0100
0000
,
0010
0000
1000
0000
0100
0000
0001
0100
,
0010
0000
1000
0001
0100
0000
0001
0000
,
1001
0010
0100
1000
,
0001
0000
0010
0000
1000
0100
1000
0000
,
0001
0010
0100
0000
1000
0001
1000
0000
,
0010
0100
0010
0000
0001
0010
1000
0000
,
0100
1000
0010
0000
0100
0001
0010
0000
,
0100
1000
0100
0000
0001
0010
0001
0000
,
1000
0010
0100
0000
0001
0010
0100
0000
,
1000
0100
1000
0000
0001
0010
0100
0000
,
0010
0100
1000
0000
0100
1000
0010
0000
,
0001
0000
0000
0000
0100
0000
0000
1000
,
0000
0100
0010
0000
,
0001
1000
0010
0100
,
0001
0100
0000
0000
,
1000
0010
0100
0001
,
0010
0100
0000
0000
,
0010
0100
0001
0010
,
1000
0100
0010
1000
,
1001
0000
0100
1000
,
0010
0100
0101
0000
,
0100
1000
0010
0100
,
0011
0011
0100
1000
,
0001
0010
0100
0010
,
1001
1001
0100
0010
,
1000
0100
0001
0010
,
0100
1000
0010
0100
,
1001
0010
1000
0010
,
0100
0000
0110
0000
0001
1000
0010
0000
,
0100
0010
1000
0000
0001
0010
0001
0000
,
0100
0010
1000
0000
0100
1000
0010
0000
,
0100
0010
0100
0000
0001
0010
0100
0000
,
1000
0100
1000
0000
0001
0010
0100
0000
,
0001
0100
0010
0000
1000
0100
1000
0000
,
0100
0010
0001
0000
1000
0100
0010
0000
,
0001
0010
1000
0000
0010
0100
0001
0000
,
1000
0010
0100
0000
1000
0010
0100
0000
,
0001
0010
0100
0000
1000
0100
1000
0000
,
0001
0010
0100
0000
0010
1000
0100
0000
,
0001
0010
0100
0000
0010
1000
0100
0000
,
0001
0010
0100
0000
0010
1000
0100
0000
,
0010
0001
0100
0000
0010
0100
1000
0000
,
0010
0100
1000
0000
0010
0100
0010
0000
,
0001
0010
0001
0000
0100
0010
0100
0000
,
1000
0100
1000
0000
0001
0010
0001
0000
,
0010
0100
0100
0000
1000
0100
0100
0000
,
0001
0010
0010
0000
0100
1000
1000
0000
,
0001
1000
1000
0000
0100
0001
0001
0000
,
0010
0001
0001
0000
0010
0100
0100
0000
,
1000
0100
1000
0000
0001
0010
0100
0000
,
0001
1000
0100
0000
1000
0010
0100
0000
,
0001
0010
0100
0000
1000
0100
1000
0000
,
0001
0010
0200
0000
0000
0000
0000
0000
,
0000
0000
0000
0300
0000
0000
0000
0000
;

//--------------- dance-single - B. M'Rey ----------------
#NOTEDATA:;
#STEPSTYPE:dance-single;
#DESCRIPTION:B. M'Rey;
#CREDIT:B. M'Rey;
#DIFFICULTY:Hard;
#METER:11;
#RADARVALUES:0.386242,0.438374,0.015628,0.539176,0.125026,346,344,2,69,0,0,0.386242,0.438374,0.015628,0.539176,0.125026,346,344,2,69,0,0;
#NOTES:
0000
0000
0000
0000
,
0000
0000
0000
0000
,
0000
0000
0000
0000
,
0000
0000
0000
0000
,
0000
0000
0000
0000
,
0000
0000
1000
1000
,
1000
0001
0001
0001
,
0010
0010
0010
0100
,
0100
0100
0001
0001
,
0001
0000
1000
0000
1000
0000
1000
0100
,
0001
0000
0000
0010
0000
0000
0100
0000
1000
0000
0100
0000
1000
0000
0000
0000
,
0001
0010
0001
0000
1000
0100
1000
0100
,
0010
0000
0000
0001
0000
0000
0200
0000
0000
0000
0000
0000
0300
0000
2000
0000
,
0000
0000
0000
3000
0000
0000
0002
0000
0000
0000
0003
0000
0100
0000
0000
0000
,
0001
0010
0001
1000
0010
0100
0010
1000
,
0100
0000
0000
0001
0000
0000
0020
0000
0000
0000
0000
0000
0000
0000
0030
0000
,
0200
0000
0300
0000
2000
0000
3000
0002
,
0000
0003
0000
0000
0100
0000
0000
0000
0010
0000
1000
0000
0001
0000
0010
0000
,
0100
0000
0000
1000
0000
0000
0001
0000
0010
0000
0001
0000
0010
0000
0100
0000
,
0010
0100
0010
0100
1000
0100
1000
0100
,
0001
0000
0000
0010
0000
0000
0100
0000
1000
0000
0100
0000
1000
0000
0200
0000
,
0000
0300
0002
0000
0000
0000
0013
0100
,
1000
0100
0010
0001
0010
0100
1000
0100
,
0010
0100
0010
0001
0010
0001
0010
0100
,
1000
0000
0000
0100
0000
0000
0020
0000
0000
0000
0000
0000
0000
0000
0030
0000
,
0002
0000
0003
0000
0020
0000
0030
2000
,
0000
3000
0200
0000
0300
0000
0000
0001
,
0010
0000
0000
0100
0000
0000
1000
0000
0000
0000
0100
0000
0000
0000
0001
0000
,
0010
0001
0010
0000
0000
0000
0000
1000
,
0100
0000
0000
1000
0000
0000
0010
0000
0000
0000
0100
0000
0000
0000
0001
0000
,
0010
0000
0100
0000
0000
0000
0000
1000
,
0100
0000
0000
0010
0000
0000
0001
0000
0000
0000
0010
0000
0000
0000
0100
0000
,
1000
0000
0000
0000
0100
0000
0000
0000
0010
0000
0000
0010
0000
0000
0010
0000
,
0100
0000
0000
0000
0000
0000
0001
0000
1000
0000
0000
0100
0000
0000
0010
0000
,
0001
0000
0000
0100
0000
0000
1000
0000
0100
0000
0000
0000
0010
0000
1000
0000
,
0100
0000
0000
0010
0000
0000
0001
0000
0000
0000
0100
0000
0000
0000
1000
0000
,
0100
0000
1000
0000
0010
0000
0001
1000
,
0010
0000
0000
0001
0000
0000
0100
0000
0000
0000
1000
0000
0000
0000
0001
0000
,
1000
0000
0010
0000
0001
0000
0100
1000
,
0010
0000
0000
0001
0000
0000
0100
0000
0000
0000
1000
0000
0000
0000
0001
0000
,
0010
0000
0000
0000
0100
0000
0000
0000
0001
0000
0000
1000
0000
0000
0100
0000
,
0010
0000
0000
0000
0010
0000
0000
0000
0001
0000
0000
1000
0000
0000
0100
0000
,
0010
0000
1001
0000
1000
0100
1000
0001
,
0100
0001
0010
0100
1000
0100
0001
0010
,
0100
1000
0100
1000
0010
0001
0100
0010
,
0100
0000
1000
0000
0100
0000
1000
0000
0020
0000
0000
0032
0000
0000
0203
0000
,
2300
0000
0000
3200
0000
0000
0310
0000
0001
0000
1000
0000
0010
0000
0100
0000
,
0001
0010
0001
0100
0010
0100
1000
0100
,
0001
0010
0001
0010
1000
0000
2000
3100
,
0002
0000
0013
0000
0200
0000
1300
0000
0200
0000
0000
0320
0000
0000
0032
0000
,
2003
0000
0000
3200
0000
0000
0310
0000
0100
0000
0000
0000
1000
0000
0001
0000
,
0020
0000
0000
0230
0000
0000
2300
0000
0000
0000
0000
3020
0000
0000
0032
0000
,
0023
0000
0130
0010
0100
0010
0001
0010
,
0200
0000
0000
2300
0000
0000
3200
0000
0000
0000
0301
0000
0100
0000
1000
0000
,
0100
0000
0110
0000
0100
0001
0100
1000
,
0020
0000
0000
2030
0000
0000
3200
0000
0000
0000
0320
0000
0000
0000
0230
0000
,
0302
0000
0000
0000
2003
0000
0000
0000
3020
0000
0000
2030
0000
0000
3020
0000
,
0032
0000
0000
0000
0103
0000
0010
0000
0200
0000
0000
0320
0000
0000
0032
0000
,
0023
0000
0000
0230
0000
0000
0301
0000
1000
0000
0100
0000
0001
0000
0010
0000
,
0100
1000
0100
0010
0100
0001
0010
0100
,
1000
0001
0010
0100
1000
0000
0200
0310
,
0002
0000
0013
0000
2000
0000
3100
0000
0020
0000
0000
0032
0000
0000
0023
0000
,
0230
0000
0000
2300
0000
0000
3001
0000
1000
0000
0100
0000
0001
0000
0010
0000
,
0001
0100
0010
1000
0100
0001
0010
0100
,
1000
0100
0010
0001
1000
0000
0002
0013
,
0200
0000
0310
0000
2000
0000
3100
0000
0002
0000
0000
0023
0000
0000
0230
0000
,
2300
0000
0000
3200
0000
0000
0320
0000
0000
0000
0000
0000
0000
0000
0000
0000
,
0000
0030
0000
0000
;
