#TITLE:Dub-I-Dub;
#ARTIST:Me & My;
#GENRE:Eurodance;
#CREDIT:B. M'Rey;
#MUSIC:DUB-I-DUB.ogg;
#BANNER:DUB-I-DUB-bn.png;
#BACKGROUND:DUB-I-DUB-bg.png;
#CDTITLE:./CDTITLES/Dancemania Sparkle.PNG;
#SAMPLESTART:60.613;
#SAMPLELENGTH:12;
#OFFSET:-0.172;
#BPMS:0=136;

//--------------- dance-single - B. M'Rey ----------------
#NOTES:
     dance-single:
     B. M'Rey:
     Beginner:
     2:
     0,0,0,0,0:
0000
0000
0000
0000
,
0000
0000
0000
0000
,
0000
0000
0000
0000
,
0000
0000
0000
0000
,
0000
1000
0000
0010
,
0000
0100
0000
0001
,
0000
0010
0000
0001
,
0000
0100
0000
0110
,
0000
0001
0001
0001
,
0000
1000
1000
1000
,
0000
0010
0010
0010
,
0000
0110
0000
0101
,
0000
0010
0010
0010
,
0000
1000
1000
1000
,
0000
0100
0100
0100
,
0000
0101
0000
0110
,
0000
0020
0000
0000
,
0000
0200
0000
0030
,
1300
0001
0000
0100
,
0000
0010
0000
1000
,
0000
0100
0000
1000
,
0000
0010
0000
0100
,
0000
0001
0000
0010
,
0000
0001
0000
0100
,
0000
0010
0000
1000
,
0000
0100
0000
1000
,
0000
0001
0000
1000
,
0000
0010
0010
0000
,
0100
0001
0000
1000
,
0000
0010
0000
0000
,
0000
0100
0000
0010
,
0000
1000
1000
0000
,
0001
0010
0000
0100
,
0000
0010
0000
1000
,
0000
0001
0001
1001
,
0000
1000
1000
1100
,
0000
0010
0010
0110
,
0000
0101
0000
0110
,
0000
1000
1000
1100
,
0000
0001
0001
0011
,
0000
0010
0010
0110
,
0000
1000
0000
0001
,
0000
0002
0000
0000
,
0000
0023
0000
0000
,
0130
1000
0000
0001
,
0000
0010
0000
0001
,
0000
0100
0000
0010
,
0000
1000
0000
0100
,
0000
0001
0000
0010
,
0000
0100
0000
0001
,
0000
1000
0000
0010
,
0000
0100
0000
0000
,
0000
0001
0000
1000
,
0000
0010
0010
0000
,
0100
0001
0000
1000
,
0000
0010
0000
0000
,
0000
0100
0000
0010
,
0000
1000
1000
0000
,
0001
0010
0000
0100
,
0000
0010
0000
1000
,
0000
0001
0001
1001
,
0000
1000
1000
1100
,
0000
0010
0010
0110
,
0000
0101
0000
0110
,
0000
1000
1000
1100
,
0000
0001
0001
0011
,
0000
0010
0010
0110
,
0000
1000
0000
0001
,
0000
0002
0000
0013
,
0000
0020
0000
0130
,
0100
0200
0000
1300
,
0000
2000
0000
3100
,
0100
0200
0000
0310
,
0000
0002
0000
0013
,
0010
0020
0000
0130
,
0000
1100
0000
0000
,
0000
1000
0000
0001
,
0000
0100
0000
0010
,
0010
1000
0000
0100
,
0000
0001
0000
0010
,
0010
0020
0000
0000
,
0000
0200
0000
0030
,
1300
0000
0000
0000
;

//--------------- dance-single - B. M'Rey ----------------
#NOTES:
     dance-single:
     B. M'Rey:
     Easy:
     5:
     0,0,0,0,0:
0000
0000
0000
0000
,
0000
0000
0000
0000
,
0000
0000
0000
0000
,
0000
0000
0000
0000
,
0000
0010
0010
0000
,
0100
0000
0100
0000
,
1001
0000
0001
0000
,
1000
0000
0001
0000
,
0000
0010
0010
1100
,
0101
0100
1000
1100
,
0101
0010
0010
1000
,
0100
0101
1100
0101
,
1100
0000
0010
0000
0001
0000
1000
0001
,
0001
0000
0010
0000
1000
0000
0001
1000
,
1000
0000
0010
0000
1000
0000
0001
0100
,
0100
0000
1000
0000
0010
0000
0001
0100
,
0100
0020
0000
0000
,
0000
0200
0000
0030
,
1300
0010
0000
1000
,
0000
0100
0000
0001
,
0000
0010
0010
1000
,
1000
0100
0100
0010
,
1001
0010
0000
0100
,
0000
0010
0000
0100
,
0000
0001
0001
1000
,
1000
0001
1000
0100
,
1001
1000
1000
0100
,
1001
0001
0001
0100
,
1001
1000
1000
0001
,
0001
1000
0001
1000
,
1001
0010
0010
0100
,
0100
0010
0101
0010
,
1100
0001
0100
1000
,
0100
0100
0011
0100
,
1010
0100
0100
0011
,
1010
0010
0001
0011
,
1010
0100
0100
0001
,
0010
1010
0011
1010
,
0011
0000
0100
0000
1000
0000
0001
1000
,
1000
0000
0100
0000
0001
0000
1000
0001
,
0001
0000
0100
0000
0001
0000
1000
0010
,
0010
0000
0001
0000
0100
0000
1000
0010
,
0010
0020
0000
0000
,
0000
0200
0000
0030
,
0301
0020
0000
1030
,
0000
0200
0000
0301
,
0000
0010
0010
1000
,
1000
0100
0100
0010
,
1001
0020
0000
0130
,
0000
0200
0000
0310
,
0000
0001
0001
1000
,
1000
0001
1000
0100
,
1001
1000
1000
0100
,
1001
0001
0001
0100
,
1001
1000
1000
0001
,
0001
1000
0001
1000
,
1001
0010
0010
0100
,
0100
0010
0101
0010
,
1100
0001
0100
1000
,
0100
0100
0011
0100
,
1010
0010
0010
1100
,
0101
0100
1000
1100
,
0101
0010
0010
1000
,
0100
0101
1100
0101
,
1100
0000
0010
0000
0001
0000
1000
0001
,
0001
0000
0010
0000
1000
0000
0001
1000
,
1000
0000
0010
0000
1000
0000
0001
0100
,
0100
0000
1000
0000
0010
0000
0001
0100
,
0100
1000
0000
0001
,
0000
0100
0000
0010
,
1000
0001
0000
0100
,
0000
0010
0000
1000
,
0010
0100
0000
0001
,
0000
0010
0000
0100
,
0010
1000
0000
0001
,
0000
0010
0000
0100
,
0000
0100
0100
0011
,
1010
0010
0001
0011
,
1010
0100
0100
0001
,
0010
1010
0011
1010
,
0011
0020
0000
0000
,
0000
0200
0000
0030
,
1300
0000
0000
0000
;

//--------------- dance-single - B. M'Rey ----------------
#NOTES:
     dance-single:
     B. M'Rey:
     Medium:
     7:
     0,0,0,0,0:
0000
0000
0000
0000
,
0000
0000
0000
0000
,
0000
0000
0000
0000
,
0000
0000
0000
0000
,
0000
0010
0010
0100
,
0100
0010
0100
0010
,
1001
0101
0101
1100
,
1100
0011
0101
0000
,
0000
0000
0010
0000
0010
0000
0100
1000
,
0100
0000
0010
0000
0010
0000
0100
0001
,
0100
0101
0101
1100
,
1100
0000
0110
0000
1001
0000
0001
0100
,
1000
0000
0010
0000
0010
0000
0100
1000
,
0100
0000
0010
0000
0010
0000
0100
0001
,
0100
0101
0101
1100
,
1100
0000
0110
0000
1001
0000
1000
0100
,
0001
0101
0000
0101
,
0000
0000
0010
0000
0001
0000
0001
0100
,
1100
0000
0100
0001
0101
0000
0010
1000
,
1100
0000
0100
0001
0101
0000
1010
0000
,
0101
0000
0010
1000
0100
0010
0001
0100
,
0010
1000
0100
0010
0001
0100
0010
1000
,
1000
0000
0010
1001
0100
0000
1000
0110
,
0001
0000
0010
0001
0001
0000
0010
1000
,
1000
0000
0010
0001
0100
0010
1000
0100
,
0010
0001
0100
0010
1000
0100
0010
0001
,
0001
0001
0002
1003
,
2000
3001
0010
1000
,
0010
0000
0002
0100
0103
0000
2000
0100
,
3100
0000
0002
0100
0103
0000
2000
0100
,
3100
0000
0010
0001
0100
0000
0001
0010
,
0001
0000
0010
1000
0100
0000
1000
0100
,
1000
0020
1000
0130
,
0101
0020
0001
0130
,
1100
0000
0010
0000
0010
0000
0100
1000
,
0100
0000
0010
0000
0010
0000
0100
0001
,
0100
0101
0101
1100
,
1100
0000
0110
0000
1001
0000
0001
0100
,
1000
0000
0010
0000
0010
0000
0100
0001
,
0100
0000
0010
0000
0010
0000
0100
1000
,
0100
1100
1100
0101
,
0101
0000
0110
0000
1001
0000
1000
0100
,
0001
0000
0010
1000
0001
0010
1000
0100
,
0010
1000
0001
0010
0100
0001
1000
0100
,
0110
0000
0100
0001
0100
0000
0010
1000
,
0010
0000
0100
0001
0100
0000
0010
1000
,
0010
0000
1000
0010
1000
0010
1000
0100
,
1000
0100
1000
0001
0100
0001
0200
0001
,
0301
0000
0010
1000
1000
0000
1000
0100
,
0100
0000
0100
0001
0001
0000
0001
0010
,
0010
0000
0001
0010
0001
0010
0001
0100
,
0001
0100
0001
1000
0100
1000
0200
1000
,
1300
0001
0002
1003
,
2000
3001
0010
1000
,
0010
0000
0002
0100
0103
0000
2000
0100
,
3100
0000
0002
0100
0103
0000
2000
0100
,
3100
0000
0010
0001
0100
0000
0001
0010
,
0001
0000
0010
1000
0100
0000
1000
0100
,
1000
0020
1000
0130
,
0101
0020
0001
0130
,
1100
0000
0010
0000
0010
0000
0100
1000
,
0100
0000
0010
0000
0010
0000
0100
0001
,
0100
0101
0101
1100
,
1100
0000
0110
0000
1001
0000
0001
0100
,
1000
0000
0010
0000
0010
0000
0100
0001
,
0100
0000
0010
0000
0010
0000
0100
1000
,
0100
1100
1100
0101
,
0101
0000
0110
0000
1001
0000
1000
0100
,
0001
0100
0010
0100
,
0010
0001
1000
0001
,
1000
0001
0100
0010
,
0100
0010
0100
0001
,
1000
0001
1000
0001
,
0010
0100
0010
0100
,
0010
0001
1000
0001
,
1000
0010
1000
0001
,
0110
0000
1010
0000
0110
0000
0100
1000
,
0101
0000
0011
0000
0110
0000
0100
0001
,
1100
0000
0101
0000
0101
0000
1100
0010
,
0101
0000
0110
0000
1001
0000
0110
1001
,
0110
0000
0010
1000
0001
0010
1000
0100
,
0010
1000
0001
0010
0100
0001
1000
0100
,
1100
0000
0000
0000
;

//--------------- dance-single - B. M'Rey ----------------
#NOTES:
     dance-single:
     B. M'Rey:
     Hard:
     8:
     0,0,0,0,0:
0000
0000
0000
0000
,
0000
0000
0000
0000
,
0000
0000
0000
0000
,
0000
0000
0000
0000
,
0000
0000
0100
1000
0001
0100
1000
0010
,
1000
0000
0001
1000
0010
1000
1010
0000
,
0011
0000
0001
1000
0010
1000
0001
1000
,
0001
0000
0001
0100
0010
0100
0000
1000
,
0001
0000
0100
1000
0010
0100
1010
1010
,
1010
0000
0001
1000
0001
0010
0011
0000
,
0110
0000
0100
1000
0100
1000
1010
1010
,
1010
0000
0001
0100
0001
1000
0000
0100
,
0001
0000
0100
0010
0001
0010
1001
1001
,
1001
0000
0001
0010
0001
0100
0110
0000
,
0011
0000
0100
0010
0001
0010
1100
1100
,
1100
0000
0001
0010
0001
1000
0000
0100
,
0010
0100
0010
0000
1000
0000
0100
0000
,
0010
0001
0100
0000
0010
0000
0001
0100
,
1010
0000
0100
1000
0010
0000
0001
0100
,
0010
0000
0100
1000
0100
1000
0010
0100
,
0001
0010
0001
0000
0001
0100
0010
0000
,
0001
1000
0010
0000
0001
0010
0001
0000
,
0100
0000
0100
1000
0001
0000
0010
1000
,
0010
0000
0001
0100
0001
0100
0010
1000
,
0100
0010
0000
0010
0100
0010
0000
1000
,
0000
0100
0010
1000
0000
0100
0001
0000
,
1100
0000
0001
1000
0001
0100
0000
1000
,
0000
0010
0100
1000
0010
1000
0000
1000
,
0100
0010
0000
1000
0100
1000
0000
0100
,
0010
1000
0100
0000
0001
0000
0100
1000
,
0001
0100
0010
0000
0001
0010
0000
0010
,
0100
1000
0001
1000
0000
0010
0000
0100
,
0001
0100
0000
0010
0001
0000
0010
0100
,
0010
0100
0000
1000
0001
0100
0000
1000
,
0100
0000
0100
0010
0100
0010
0101
0101
,
0101
0000
0001
1000
0010
1000
0110
0000
,
1100
0000
0100
0010
0001
0010
1001
1001
,
1001
0000
0100
0010
0100
1000
0000
1000
,
0010
0000
0100
0010
0001
1000
0110
0110
,
0110
0000
0100
1000
0001
0100
1010
0000
,
0110
0000
0100
0010
0001
0010
1100
1100
,
1100
0000
0010
1000
0001
0010
0000
1000
,
0001
0010
0100
0010
,
1000
0001
0100
0000
1000
0000
0010
1000
,
1001
0000
0100
0010
0100
0000
0100
1000
,
0001
0000
0100
0010
0100
0010
0001
0010
,
0100
1000
0000
0001
1000
0001
0100
0000
,
0100
1000
0000
1000
0100
0010
0001
0000
,
0100
1000
0001
0000
0010
0100
0010
0000
,
0001
0020
0000
0030
0100
2000
0000
3100
,
0010
1000
0000
0010
0100
1000
0010
1000
,
0100
2000
0000
3020
0000
1030
0000
1000
,
0001
0010
0100
1000
0001
1000
0000
0100
,
0000
1000
0001
0010
0100
0010
0000
0100
,
0010
0100
0000
0100
0001
0010
0000
0010
,
0100
0010
0100
0000
0001
0000
0001
0010
,
0001
1000
0100
0000
0100
0010
0000
0010
,
0001
1000
0100
0010
0000
0100
0000
1000
,
0010
1000
0010
0000
0100
0000
1000
0010
,
0100
1000
0000
0010
0000
0100
0000
1000
,
0001
0000
0010
0100
0010
1000
0110
0110
,
0110
0000
0100
0010
0001
0010
0011
0000
,
1100
0000
0001
0100
0010
1000
1001
1001
,
1001
0000
0010
0100
0001
0100
0000
0100
,
0010
0000
0010
1000
0100
1000
0110
0110
,
0110
0000
0001
1000
0001
1000
0110
0000
,
0101
0000
0001
1000
0100
1000
1001
1001
,
1001
0000
0100
1000
0010
0100
0000
0100
,
0010
0001
0010
0100
,
1000
0100
0010
0001
,
1000
0010
0100
0010
,
0100
0001
1000
0100
,
0010
0001
1000
0010
,
0100
0010
1000
0100
,
0010
0001
1000
0100
,
1000
0001
0100
0010
,
1001
0000
0100
0010
0100
1000
0110
0110
,
0110
0000
0100
0010
0001
0010
0101
0000
,
0110
0000
0001
1000
0001
1000
1001
1001
,
1001
0000
0100
0010
0001
1000
0000
0010
,
0001
0100
0010
1000
,
0100
1000
0010
0000
0001
0000
0010
0100
,
1001
0000
0000
0000
;

//--------------- dance-single - B. M'Rey ----------------
#NOTES:
     dance-single:
     B. M'Rey:
     Challenge:
     10:
     0,0,0,0,0:
0000
0000
0000
0000
,
0000
0000
0000
0000
,
0000
0000
0000
0000
,
0000
0000
0000
0000
,
0000
0000
0000
0000
0001
0000
0010
0100
0000
0100
0001
0010
0001
0000
0100
0000
,
0100
0000
0000
0000
0001
0000
0100
0010
0100
0000
0100
1000
0001
0000
0000
0000
,
1001
0000
0000
0000
0001
0000
0010
1000
0000
1000
0100
0010
0100
0000
0001
0000
,
0001
0000
0000
0000
0100
0000
0100
1000
0010
0000
0100
0000
0001
0000
1000
0000
,
0110
0000
0000
0000
0100
0000
0100
1000
0000
0010
0001
0010
0001
0000
0100
1000
,
0001
0000
0010
0000
0001
0000
0100
0010
0000
1000
0001
1000
0001
0000
0000
0000
,
0110
0000
0000
0000
0001
0000
0001
0010
0000
1000
0010
1000
0010
0000
0001
0100
,
0001
0000
0010
0000
0100
1000
0001
0000
0100
1000
0010
0000
0010
0100
0010
0000
,
0001
1000
0001
0000
0001
0000
0100
0010
0000
1000
0010
1000
0001
0000
0100
0010
,
0100
0000
0001
0000
0010
0000
0010
1000
0000
1000
0100
0010
0100
0000
0000
0000
,
1001
0000
0000
0000
0100
0000
0100
0010
0000
1000
0001
0010
0001
0000
0001
1000
,
0100
0000
0100
0000
0001
0010
0001
0000
0001
0100
0010
0000
0010
0100
0001
0000
,
0010
1000
0010
0000
1000
0000
0000
0010
0000
0000
0100
0000
0000
0001
0000
0000
,
0100
0000
0001
0000
0100
0000
0000
0010
0000
0000
1000
0000
0000
0010
0000
0000
,
0100
0000
0010
0000
0010
0100
1000
0000
0001
0000
0100
0000
0001
0010
0100
0000
,
0010
0000
0100
0000
0001
0100
1000
0000
0001
0010
1000
0000
0100
0000
0010
0000
,
0100
0000
1000
0000
0001
0000
0000
0000
0010
0000
1000
0000
0100
0010
0100
0000
,
0001
0000
1000
0010
1000
0000
1000
0000
0010
0100
0010
0000
0010
1000
0010
0000
,
0100
0000
0010
0000
0100
0010
0100
0000
0100
0000
1000
0000
0001
0010
0001
0000
,
0100
0000
0010
0000
0001
1000
0001
0000
0001
0000
0010
0000
0001
0000
0010
0000
,
0100
0010
0001
0000
0001
0100
0001
0100
,
0010
0100
0010
1000
0001
0100
0001
0000
,
0010
0000
1000
0000
0001
0100
0010
0000
0010
0100
0001
0000
0100
1000
0001
0000
,
0001
0010
0001
0000
0100
0010
0100
0000
0001
0010
0001
0000
0001
0010
0100
0000
,
0100
0010
0001
0000
0010
1000
0001
0010
0100
0000
0001
0010
0001
0100
0001
1000
,
0100
0000
0010
1000
0001
0000
0010
0000
0100
0000
0000
0000
0001
0000
0010
0000
,
0100
0000
0000
0000
0100
0000
0100
0010
0001
0000
0010
1000
0001
0000
0100
0010
,
0100
0000
0001
0010
0100
0000
0100
1000
0100
0000
0001
0010
0001
0000
0100
1000
,
0100
0000
0010
1000
0100
0000
0100
0000
0010
0000
1000
0000
0010
0100
1000
0000
,
0001
0010
0001
0000
0001
0000
1000
0000
0010
1000
0010
0000
0100
0010
0100
0000
,
0101
0000
0000
0000
0010
0000
0010
0001
0000
0100
1000
0100
1000
0000
0010
0001
,
1000
0000
0100
0000
1000
0000
0010
0100
0000
0001
1000
0001
1000
0000
0000
0000
,
0110
0000
0000
0000
1000
0000
1000
0100
0000
0001
0100
0001
0100
0000
1000
0010
,
1000
0000
0100
0000
0010
0001
1000
0000
0010
0001
0100
0000
0100
0010
0100
0000
,
1000
0001
1000
0000
1000
0000
0010
0100
0000
0001
0100
0001
1000
0000
0010
0100
,
0010
0000
1000
0000
0100
0000
0100
0001
0000
0001
0010
0100
0010
0000
0000
0000
,
1001
0000
0000
0000
0010
0000
0010
0100
0000
0001
1000
0100
1000
0000
1000
0001
,
0010
0000
0010
0000
1000
0100
1000
0000
1000
0010
0100
0000
0100
0010
1000
0000
,
0100
0001
0100
0000
0001
0000
0000
0100
0000
0000
0010
0000
0000
1000
0000
0000
,
0010
0000
1000
0000
0010
0000
0000
0100
0000
0000
0001
0000
0000
0100
0000
0000
,
0010
0000
0100
0000
0001
1000
0001
0000
0001
0000
0100
0000
0001
1000
0001
0000
,
0010
0000
1000
0000
0001
1000
0001
0000
0010
0100
0001
0000
0001
0100
0001
0000
,
0010
1000
0010
0000
0100
0000
1000
0000
0100
0000
1000
0001
1000
0000
0010
0000
,
0001
0010
0001
0000
0001
0000
0000
0000
0100
0000
1000
0000
0001
0000
0000
0000
,
0001
0000
0010
0000
0001
0010
0100
0000
0010
0000
1000
0000
0100
1000
0100
0000
,
0100
0000
1000
0001
1000
0000
0010
0000
0001
0100
0001
0000
0001
0000
1000
0100
,
1000
0000
1000
0000
0100
0000
0010
0000
0100
0000
1000
0010
1000
0000
1000
0100
,
1000
0000
0010
0100
0010
0000
0010
0000
0100
0000
1000
0000
0010
0000
0100
0000
,
0010
0000
1000
0000
0001
0100
0010
0000
0010
0100
0001
0000
0100
1000
0001
0000
,
0001
0010
0001
0000
0100
0010
0100
0000
0001
0010
0001
0000
0001
0010
0100
0000
,
0100
0010
0001
0000
0010
1000
0001
0010
0100
0000
0001
0010
0001
0100
0001
1000
,
0100
0000
0010
1000
0001
0000
0010
0000
0100
0000
0000
0000
0001
0000
0010
0000
,
0100
0000
0000
0000
0100
0000
0100
0010
0001
0000
0010
1000
0001
0000
0100
0010
,
0100
0000
0001
0010
0100
0000
0100
1000
0100
0000
0001
0010
0001
0000
0100
1000
,
0100
0000
0010
1000
0100
0000
0100
0000
0010
0000
1000
0000
0010
0100
1000
0000
,
0001
0010
0001
0000
0001
0000
1000
0000
0010
1000
0010
0000
0100
0010
0100
0000
,
0101
0000
0000
0000
0001
0000
0100
1000
0000
0010
0001
0010
0001
0000
0100
1000
,
0001
0000
0010
0000
0001
0000
0100
0010
0000
1000
0001
1000
0001
0000
0000
0000
,
0110
0000
0000
0000
0001
0000
0001
0010
0000
1000
0010
1000
0010
0000
0001
0100
,
0001
0000
0010
0000
0100
1000
0001
0000
0100
1000
0010
0000
0010
0100
0010
0000
,
0001
1000
0001
0000
0001
0000
0100
0010
0000
1000
0010
1000
0001
0000
0100
0010
,
0100
0000
0001
0000
0010
0000
0010
1000
0000
1000
0100
0010
0100
0000
0000
0000
,
1001
0000
0000
0000
0100
0000
0100
0010
0000
1000
0001
0010
0001
0000
0001
1000
,
0100
0000
0100
0000
0001
0010
0001
0000
0001
0100
0010
0000
0010
0100
0001
0000
,
0010
1000
0010
0000
0001
1000
0001
0000
0010
0000
1000
0000
0010
0100
0010
0000
,
0010
0000
0100
0000
0001
0100
0001
0000
0001
0000
1000
0000
1001
0000
0000
0000
,
1010
0000
0000
0000
0010
0100
0010
0000
0010
0000
0100
0000
0001
1000
0001
0000
,
0001
0000
1000
0000
0001
0010
0001
0000
0100
0000
0010
0000
0110
0000
0000
0000
,
1001
0000
0000
0000
0100
0010
0100
0000
0100
0000
0010
0000
0100
1000
0100
0000
,
0001
0000
0010
0000
0001
0010
0001
0000
0100
0000
0010
0000
1100
0000
0000
0000
,
1100
0000
0000
0000
0001
1000
0001
0000
0010
0000
0100
0000
0001
0100
0001
0000
,
0010
0000
0100
0000
0010
1000
0010
0000
0010
0000
1000
0000
0001
0000
1000
0000
,
0010
0000
0000
0000
0001
1000
0001
1000
0001
0100
0010
0100
0010
0100
0001
1000
,
0001
1000
0010
1000
0010
0100
0010
0100
0001
0100
0001
0010
0001
0100
0010
0100
,
0001
0100
0001
1000
0010
1000
0010
1000
0001
0010
0001
0010
0001
1000
0100
1000
,
0100
1000
0010
0100
0010
0100
0010
1000
0100
1000
0100
1000
0001
0100
0001
0100
,
0001
0000
0000
0000
0001
0000
0000
0100
0000
0000
0010
0000
0000
1000
0000
0000
,
0010
0000
1000
0000
0010
0000
0000
0100
0000
0000
0001
0000
0000
0100
0000
0000
,
0110
0000
0000
0000
;
