#VERSION:0.83;
#TITLE:Dreamland;
#ARTIST:Ayla;
#GENRE:Dream Trance;
#CREDIT:B. M'Rey;
#MUSIC:Dreamland.ogg;
#BANNER:Dreamland-bn.png;
#BACKGROUND:Dreamland-bg.png;
#CDTITLE:./CDTITLES/BMR Superstars.PNG;
#SAMPLESTART:92.181;
#SAMPLELENGTH:15;
#OFFSET:-0.324;
#BPMS:0=105;

//--------------- dance-single - B. M'Rey ----------------
#NOTEDATA:;
#STEPSTYPE:dance-single;
#DESCRIPTION:B. M'Rey;
#CREDIT:B. M'Rey;
#DIFFICULTY:Beginner;
#METER:2;
#RADARVALUES:0.074,0.087,0,0.007,0;
#NOTES:
0000
0000
0000
0000
,
0000
0000
0000
0000
,
0000
0000
0000
0000
,
0000
0000
0000
0000
,
0000
1000
0000
0000
,
0000
0001
0000
0000
,
0000
0100
0000
0000
,
0000
0001
0000
0000
,
0000
1000
0000
0000
,
0000
0100
0000
0000
,
0000
0001
0000
0000
,
0000
0100
0000
0000
,
0000
0010
0000
0000
,
0000
1000
0000
0000
,
0000
0001
0000
0000
,
0000
0100
0000
0000
,
0000
0010
0000
0000
,
0000
1000
0000
0000
,
0000
0001
0000
0000
,
0000
0100
0000
0000
,
0000
0001
0000
0000
,
0000
0100
0000
0000
,
0000
0001
0000
0000
,
0000
1000
0000
0000
,
0000
0001
0000
0000
,
0000
0010
0000
0000
,
0000
0100
0000
0000
,
0000
0010
0000
0000
,
0000
0001
0000
0000
,
0000
1000
0000
0000
,
0000
0100
0000
0000
,
0000
0001
0000
0000
,
0000
0010
0000
0000
,
0000
0100
0000
0000
,
0000
0001
0000
0000
,
0000
1000
0000
0000
,
0000
0100
0000
0000
,
0000
0001
0000
0000
,
0000
0010
0000
0000
,
0000
0001
0000
0000
,
0000
1000
0000
0001
,
0000
0100
0000
0010
,
0000
1000
0000
0001
,
0000
0010
0000
0001
,
0000
0100
0000
0001
,
0000
0100
0000
0010
,
0000
1000
0000
0100
,
0000
1000
0000
0010
,
0000
0100
0000
0010
,
0000
0001
0000
0010
,
0000
0100
0000
1000
,
0000
0010
0000
0100
,
0000
0001
0000
0010
,
0000
0001
0000
0100
,
0000
0010
0000
1000
,
0000
0001
0000
0010
,
0000
1000
0000
0000
,
0000
0100
0000
0000
,
0000
0001
0000
0000
,
0000
0010
0000
0000
,
0000
0100
0000
0000
,
0000
1000
0000
0000
,
0000
0001
0000
0000
,
0000
0100
0000
0000
,
0002
0000
0000
0000
,
0000
0000
0000
0003
;

//--------------- dance-single - B. M'Rey ----------------
#NOTEDATA:;
#STEPSTYPE:dance-single;
#DESCRIPTION:B. M'Rey;
#CREDIT:B. M'Rey;
#DIFFICULTY:Easy;
#METER:3;
#RADARVALUES:0.107,0.109,0,0.007,0;
#NOTES:
0000
0000
0000
0000
,
0000
0000
0000
0000
,
0000
0000
0000
0000
,
0000
0000
0000
0000
,
0000
1000
0000
0000
,
0000
0001
0000
0000
,
0000
0100
0000
0000
,
0000
0001
0000
0000
,
0000
1000
0000
0000
,
0000
0100
0000
0000
,
0000
0001
0000
0000
,
0000
0100
0000
0000
,
0000
0010
0000
1000
,
0000
1000
0000
0001
,
0000
0001
0000
0100
,
0000
0100
0000
0001
,
0000
0010
0000
0100
,
0000
1000
0000
0001
,
0000
0001
0000
0100
,
0000
0100
0000
0010
,
0000
0001
0000
1000
,
0000
0100
0000
0010
,
0000
0001
0000
0001
,
0000
1000
0000
0100
,
0000
0001
0000
1000
,
0000
0010
0000
0001
,
0000
0100
0000
0010
,
0000
0010
0000
1000
,
0000
0001
0000
0010
,
0000
1000
0000
0001
,
0000
0100
0000
0100
,
0000
0001
0000
1000
,
0000
0010
0000
0001
,
0000
0100
0000
0100
,
0000
0001
0000
1000
,
0000
1000
0000
0010
,
0000
0100
0000
0100
,
0000
0001
0000
1000
,
0000
0010
0000
0001
,
0000
0001
0000
0100
,
0000
1000
0000
0001
,
0000
0100
0000
0010
,
0000
1000
0000
0001
,
0000
0010
0000
0001
,
0000
0100
0000
0001
,
0000
0100
0000
0010
,
0000
1000
0000
0100
,
0000
1000
0000
0010
,
0000
0100
0000
0010
,
0000
0001
0000
0010
,
0000
0100
0000
1000
,
0000
0010
0000
0100
,
0000
0001
0000
0010
,
0000
0001
0000
0100
,
0000
0010
0000
1000
,
0000
0001
0000
0010
,
0000
1000
0000
0001
,
0000
0100
0000
0100
,
0000
0001
0000
1000
,
0000
0010
0000
0100
,
0000
0100
0000
0001
,
0000
1000
0000
0010
,
0000
0001
0000
1000
,
0000
0100
0000
0002
,
0000
0000
0000
0000
,
0000
0000
0000
0003
;

//--------------- dance-single - B. M'Rey ----------------
#NOTEDATA:;
#STEPSTYPE:dance-single;
#DESCRIPTION:B. M'Rey;
#CREDIT:B. M'Rey;
#DIFFICULTY:Medium;
#METER:7;
#RADARVALUES:0.283,0.35,0,0.1,0;
#NOTES:
0000
0000
0000
0000
,
0000
0000
0000
0000
,
0000
0000
0000
0000
,
0000
0000
0000
0000
,
0000
2000
0000
0000
,
0000
3002
0000
0000
,
0000
0203
0000
0000
,
0000
0302
0000
0000
,
0000
2003
0000
0000
,
0000
3200
0000
0000
,
0000
0302
0000
0000
,
0000
0203
0000
0000
,
0000
0310
0000
1000
,
0000
1000
0000
0001
,
0000
0001
0000
0100
,
0000
0100
0000
0001
,
0100
0010
0001
0100
,
0010
1000
0100
0001
,
1000
0001
0010
0100
,
0001
0100
1000
0010
,
0100
0000
0001
0000
1000
0000
1000
0100
,
0001
0000
0100
0000
0010
0000
0010
1000
,
0001
0000
0001
0000
1000
0000
0001
0010
,
0100
0000
1000
0000
0010
0000
0100
0001
,
1000
0000
0001
0000
0010
0000
1000
0010
,
0100
0000
0010
0000
0001
0000
0001
0010
,
1000
0000
0100
0000
0010
0000
0010
1000
,
0001
0000
0010
0000
1000
0000
1000
0100
,
0010
0000
0001
0000
0100
0000
0010
1000
,
0001
0000
1000
0000
0010
0000
0001
0010
,
1000
0000
0100
0000
0010
0000
0100
0001
,
1000
0000
0001
0000
0010
0000
1000
0100
,
0001
0010
0100
0001
,
1000
0100
0010
0100
,
0001
0001
0010
1000
,
0001
1000
0100
0010
,
1000
0100
0001
0100
,
0010
0001
0100
1000
,
0001
0010
1000
0001
,
0100
0001
1000
0100
,
0001
0010
1000
0100
0010
1000
0001
0001
,
0100
0010
0100
1000
0001
0100
0010
0010
,
1000
0100
1000
0001
0010
1000
0001
0010
,
0100
0001
0010
0100
1000
0010
0001
1000
,
0100
0001
0100
1000
0010
0100
0001
0010
,
1000
0001
0100
0010
0001
1000
0010
0001
,
0100
0010
1000
0001
0010
1000
0100
0100
,
0001
0010
1000
0001
0100
1000
0010
0100
,
1000
0001
0100
0010
0001
1000
0010
0001
,
0100
0010
0001
1000
0010
0001
0010
0100
,
1000
0001
0100
1000
0001
0010
1000
0100
,
0010
1000
0010
0001
0100
0010
0100
1000
,
0001
0010
0001
0100
1000
0001
0010
1000
,
0100
0010
0001
0100
1000
0010
0100
0001
,
0010
0100
0010
1000
0001
0100
1000
0010
,
0010
1000
0001
0010
0100
0001
0010
0100
,
1000
0100
1000
0000
0010
0000
0001
0010
,
0100
0000
0100
0000
0001
0000
0100
0001
,
1000
0000
0001
0000
0010
0000
1000
0100
,
0001
0000
0010
0000
0100
0000
0100
0010
,
1000
0100
0010
0001
,
0200
0000
0302
0000
,
2003
0000
3020
0000
,
0032
0000
0023
0000
,
0032
0000
0000
0000
,
0000
0003
0000
0000
;

//--------------- dance-single - B. M'Rey ----------------
#NOTEDATA:;
#STEPSTYPE:dance-single;
#DESCRIPTION:B. M'Rey;
#CREDIT:B. M'Rey;
#DIFFICULTY:Hard;
#METER:9;
#RADARVALUES:0,0,0,0,0;
#NOTES:
0000
0000
0000
0000
,
0000
0000
0000
0000
,
0000
0000
0000
0000
,
0000
0000
0000
0000
,
0000
0000
1000
0000
0001
0000
0010
0100
,
1000
0000
0100
0000
0010
0000
0001
0010
,
0100
0001
1000
0010
,
0100
0001
0010
0001
,
1000
0000
0010
0000
0100
0000
0001
0010
,
0100
0000
1000
0000
0010
0000
0100
0010
,
0001
1000
0010
0100
,
0001
0010
0001
0100
,
0010
0000
0001
1000
0001
0000
0001
0100
,
0010
0000
0010
1000
0001
0000
0100
0010
,
0100
0000
0100
1000
0010
0000
0100
1000
,
0010
0000
0010
0100
0001
0000
0010
1000
,
0010
0000
0010
0100
0001
0000
0001
0100
,
0010
0000
0010
1000
0010
0000
0001
0010
,
0001
0000
0001
1000
0010
0000
0010
1000
,
0100
0000
0001
0010
0100
0000
0100
1000
,
0001
0000
0001
0010
0001
0100
0010
0100
,
0001
0000
0001
1000
0001
1000
0010
1000
,
0010
0000
0010
0100
0001
0100
0001
1000
,
0010
0000
0010
0100
0010
1000
0001
1000
,
0001
0000
0100
0010
0100
0010
0100
1000
,
0010
0000
0001
1000
0001
0100
0001
0100
,
0010
0000
0001
1000
0010
1000
0001
0010
,
0100
0000
0100
0010
0001
1000
0001
0100
,
0001
0000
0100
0010
0001
0010
0001
1000
,
0001
0000
0100
1000
0100
1000
0100
0010
,
0001
0000
0100
0010
0001
1000
0001
0010
,
0100
0000
0100
0010
0001
1000
0001
1000
,
0011
1010
0110
0011
,
1100
0110
0101
0110
,
1010
0110
0101
0110
,
0101
1010
0110
0011
,
2000
0000
3200
0000
,
0320
0000
2030
0000
,
3200
0000
0302
0000
,
2003
0000
0000
0000
3200
0000
0301
0010
,
0100
0000
0000
0100
1000
0000
0100
0010
0000
0001
0000
1000
0010
0000
0100
0000
,
0001
0000
0000
0010
0100
0000
0001
1000
0000
0100
0000
0010
0001
0000
0100
0000
,
0010
0000
0000
0001
1000
0000
1000
0010
0000
1000
0000
0010
1000
0000
0001
0000
,
0010
0000
0000
0100
1000
0000
1000
0010
0000
0100
0000
0001
0100
0000
0001
0000
,
1000
0000
0000
0010
0100
0000
0100
0001
0000
0010
0000
0100
0010
0000
0001
0000
,
1000
0000
0000
0010
0100
0000
0100
0001
0000
1000
0000
0010
1000
0000
0100
0000
,
0010
0000
0000
0100
1000
0000
1000
0100
0000
1000
0000
0001
1000
0000
0001
0000
,
0100
0000
0000
0010
1000
0000
1000
0100
0000
1000
0000
0010
0100
0000
0001
0000
,
1000
0000
0000
0010
1000
0000
1000
0001
0000
0010
0000
0100
0010
0000
0100
0000
,
0010
0000
0000
0001
1000
0000
1000
0010
0000
0100
0000
0001
0010
0000
0100
0000
,
0010
0000
0000
0100
0010
0000
0010
0001
0000
0100
0000
0010
1000
0000
0010
0000
,
1000
0000
0000
0100
1000
0000
1000
0100
0000
0010
0000
0100
1000
0000
0001
0000
,
1000
0000
0000
0001
1000
0000
1000
0010
0000
0100
0000
0001
0100
0000
0001
0000
,
0010
0000
0000
0100
1000
0000
1000
0010
0000
0100
0000
0010
0100
0000
0010
0000
,
1000
0000
0000
0100
1000
0000
1000
0001
0000
0100
0000
0010
1000
0000
0100
0000
,
0010
0000
0000
0100
0010
0000
0010
0100
0000
1000
0000
0001
0010
0000
0001
0000
,
0010
0000
0001
0010
0001
1000
0100
1000
,
0001
0000
0100
1000
0001
1000
0001
0010
,
0100
0000
0001
0100
0001
0100
0001
0010
,
0100
0000
0001
0100
0010
0100
0010
1000
,
0100
1000
0100
1000
,
0001
0010
0001
0100
,
0001
1000
0100
0010
,
0001
0010
0100
1000
,
0200
0000
0000
0000
,
0000
0300
0000
0000
;
