#TITLE:Dove (I'll Be Loving You);
#SUBTITLE:(T&F Vs. Moltosugo Club Mix);
#ARTIST:Moony;
#GENRE:Club House;
#CREDIT:B. M'Rey;
#MUSIC:Dove (I'll Be Loving You) (T&F Vs. Moltosugo Club Mix).ogg;
#BANNER:Dove (I'll Be Loving You) (T&F Vs. Moltosugo Club Mix)-bn.png;
#BACKGROUND:Dove (I'll Be Loving You) (T&F Vs. Moltosugo Club Mix)-bg.png;
#CDTITLE:./CDTITLES/LOVE HOUSE PLATINUM.PNG;
#SAMPLESTART:66.51;
#SAMPLELENGTH:12;
#OFFSET:-0.373;
#BPMS:0=127.01;

//--------------- dance-single - B. M'Rey ----------------
#NOTES:
     dance-single:
     B. M'Rey:
     Beginner:
     1:
     0,0,0,0,0:
0000
0000
0000
0000
,
0000
0000
0000
0000
,
0000
0000
0000
0000
,
0000
0000
0000
0000
,
1000
0000
0000
0000
,
0010
0000
0000
0000
,
0100
0000
0000
0000
,
0001
0000
0000
0000
,
1000
0000
1000
0000
,
0001
0000
0001
0000
,
0100
0000
0100
0000
,
0010
0000
0010
0000
,
0100
0000
0100
0000
,
0001
0000
0001
0000
,
1000
0000
1000
0000
,
0010
0000
0010
0000
,
0100
0000
0000
0000
,
1000
0000
0000
0000
,
0010
0000
0000
0000
,
0100
0000
0000
0000
,
0001
0000
0000
0000
,
0100
0000
0000
0000
,
0010
0000
0000
0000
,
1000
0000
0000
0000
,
0100
0000
0000
0000
,
0001
0000
0010
0000
,
0100
0000
0000
0000
,
1000
0000
0000
0000
,
0001
0000
0000
0000
,
0100
0000
0010
0000
,
0001
0000
0000
0000
,
0001
0000
1000
0000
,
0010
0000
0000
0000
,
0100
0000
0000
0000
,
0000
0000
0000
0000
,
2000
0000
0000
3000
,
0010
0000
0100
0000
,
0020
0000
0000
0030
,
0001
0000
0000
0000
,
1000
0000
0000
0000
,
0010
0000
0000
0000
,
0100
0000
0010
0000
,
0002
0000
0000
0003
,
1001
0000
0000
0000
,
0010
0000
0100
0000
,
0001
0000
0000
0000
,
0010
0000
0000
0000
,
1000
0000
0000
0000
,
0010
0000
0100
0000
,
0001
0000
0000
0000
,
1000
0000
0000
0000
,
0010
0000
0000
0000
,
0100
0000
0000
0000
,
0001
0000
0000
0000
,
1000
0000
0000
0000
,
0010
0000
0000
0000
,
0100
0000
0001
0000
,
1000
0000
0000
0000
,
0010
0000
0100
0000
,
0001
0000
0000
0000
,
1000
0000
0000
0000
,
0110
0000
0000
0000
,
0001
0000
0000
0000
,
1000
0000
0010
0000
,
0100
0000
0000
0000
,
0010
0000
0001
0000
,
1000
0000
0000
0000
,
0010
0000
0000
0000
,
0100
0000
0000
0000
,
0001
0000
0000
0000
,
1001
0000
0000
0000
;

//--------------- dance-single - B. M'Rey ----------------
#NOTES:
     dance-single:
     B. M'Rey:
     Easy:
     2:
     0,0,0,0,0:
0000
0000
0000
0000
,
0000
0000
0000
0000
,
0000
0000
0000
0000
,
0000
0000
0000
0000
,
1000
0000
0000
0000
,
0010
0000
0000
0000
,
0100
0000
0000
0000
,
0001
0000
0000
0000
,
1010
0010
0000
0000
,
0100
0100
0000
0000
,
0001
0001
0000
0000
,
0100
0100
0000
0000
,
1000
1000
0000
0000
,
0001
0001
0000
0000
,
0100
0100
0000
0000
,
0010
0010
0000
0000
,
1000
0000
0001
0000
,
1000
0000
0010
0000
,
0100
0000
0000
0001
,
1000
0000
0000
0010
,
0000
0100
0000
0000
,
1000
0000
0010
0000
,
0001
0100
0000
0010
,
1000
0000
0000
0010
,
0000
0001
0000
0000
,
0100
0010
0000
1000
,
0001
0000
0000
0100
,
0010
0000
0000
1000
,
0000
0001
0000
0000
,
0010
0100
0000
1000
,
0001
0000
0000
0000
,
0010
0100
0000
0001
,
1000
0000
0010
0000
,
0100
0000
0000
0000
,
0001
0000
0000
0000
,
2000
0000
0000
3001
,
0010
0000
0100
0000
,
2000
0000
3010
0100
,
0010
0000
0001
0000
,
1000
0000
0010
0000
,
0100
0000
0001
0010
,
0001
0000
0100
0000
,
1000
0100
1000
0000
,
0010
0000
0000
0000
,
0100
0000
0010
0000
,
1000
0000
0000
0001
,
0010
0000
0000
0100
,
0000
0010
0000
0000
,
1000
0001
0000
0100
,
0000
0010
0000
1000
,
0001
0000
0000
0100
,
0000
0010
0000
0000
,
1000
0100
0000
0001
,
0000
0010
0000
0100
,
0001
0000
0000
0010
,
0000
1000
0000
0000
,
0010
0100
0000
0001
,
1000
0000
0010
0100
,
0001
0000
1000
0010
,
0100
0000
0010
0000
,
0100
0000
0000
0000
,
1001
0000
0000
0000
,
2000
0000
0000
3001
,
0010
0000
0100
0000
,
2000
0000
3010
0100
,
0010
0000
0001
0000
,
1000
0000
0010
0000
,
0100
0000
0001
0010
,
0001
0010
0100
1000
,
0001
0100
1000
0100
,
0110
0000
0000
0000
;

//--------------- dance-single - B. M'Rey ----------------
#NOTES:
     dance-single:
     B. M'Rey:
     Medium:
     4:
     0,0,0,0,0:
0000
0000
0000
0000
,
0000
0000
0000
0000
,
0000
0000
0000
0000
,
0000
0000
0000
0000
,
1000
0001
0000
0000
,
0010
0100
0000
0000
,
0001
1000
0000
0000
,
0010
0100
0000
0000
,
0010
1000
0001
0010
,
0001
0100
0001
0010
,
0100
0010
0100
1000
,
0010
0100
0001
0100
,
0001
0010
0100
0010
,
0100
1000
0001
1000
,
0100
0010
0100
0010
,
0001
0100
0010
1000
,
0100
0000
0010
0000
,
0100
1000
0100
1000
,
0100
0020
0030
0100
,
0002
0000
0003
1000
,
0001
0200
0000
0300
,
0010
0100
0001
0100
,
0000
1000
0000
0000
0000
0000
1000
0000
,
0200
0000
0000
0300
0000
0000
0020
0000
,
0000
0032
0000
0003
,
0001
0010
0100
0010
,
0100
0000
2000
0000
0000
3000
1000
0001
,
1000
0010
0100
0020
,
0000
2030
3000
0010
,
0100
1000
0100
0010
,
0001
1000
0001
0000
0010
0000
0100
0000
,
0010
1000
0001
0100
,
0001
0100
0001
0000
0001
0000
1000
0000
,
0100
0010
0010
0100
,
0100
0000
0001
0000
0001
0000
1000
0001
,
2000
0000
0100
0000
3100
0000
1000
0001
,
0000
0100
0000
0001
0000
0010
0000
1000
,
0100
0000
1000
0000
0010
0000
1000
0100
,
0000
0010
0000
0001
0100
0000
0010
0000
,
0100
1000
0000
0010
0000
0001
0100
0000
,
0001
0000
0100
0000
0001
1000
0001
0000
,
0010
0000
0100
0000
0010
0100
0000
0020
,
0000
1000
0001
0100
,
0130
0000
1001
0000
,
0001
1000
0100
1000
,
0010
0100
0000
0100
,
0020
0000
0130
1000
,
0000
0100
0000
0000
,
0001
0010
0100
0010
,
0000
0100
0000
0100
,
0020
0000
0031
1000
,
0000
0020
0000
0130
,
0001
0100
0001
0010
,
0100
0000
0000
0000
0000
0000
0100
0001
,
0200
0000
0300
2000
,
0000
3200
0000
0300
,
0001
0100
0010
1000
,
0100
0001
0010
0000
0001
0000
0010
0000
,
0001
0010
0100
1000
,
0001
0100
0001
0000
0001
0000
0100
0000
,
0010
1000
0100
0000
0001
0100
0010
0000
,
1001
1010
0011
0110
,
2000
0000
0100
0000
3100
0000
1000
0001
,
0000
0100
0000
0001
0000
0010
0000
1000
,
0100
0000
1000
0000
0010
0000
1000
0100
,
0000
0010
0000
0001
0100
0000
0010
0000
,
0100
1000
0000
0010
0000
0001
0100
0000
,
0001
0000
0100
0000
0001
1000
0001
0000
,
0010
0000
0100
0000
0010
0100
0000
0020
,
0000
1000
0001
0100
,
0130
0000
0000
0000
;

//--------------- dance-single - B. M'Rey ----------------
#NOTES:
     dance-single:
     B. M'Rey:
     Hard:
     6:
     0,0,0,0,0:
0000
0000
0000
0000
,
0000
0000
0000
0000
,
0000
0000
0000
0000
,
0000
0000
0000
0000
,
1000
0001
1000
0000
0010
0000
0100
0000
,
0001
1000
0001
0000
0010
0000
0100
0000
,
0010
0100
0010
0000
1000
0000
0001
0000
,
0100
0001
0100
0000
0010
0000
0000
0000
,
0001
1000
0010
0100
0001
0010
0001
0010
,
0001
0100
0010
0100
0001
0100
0010
1000
,
0010
0100
0010
0100
0001
0100
0001
0010
,
0001
0010
0100
0010
0100
1000
0010
0100
,
0020
0000
0001
0000
0001
0000
0031
0010
,
0002
0000
0010
0000
0010
0000
0013
1000
,
0002
0000
0100
0000
0100
0000
0103
0010
,
2000
0000
0001
0000
0001
0000
3010
0100
,
1001
1001
0011
0110
,
0001
1000
0001
0000
0001
0100
0010
0000
,
0010
0000
0002
0000
0003
0000
0010
1000
,
0020
0000
0001
0000
0031
0100
0001
0000
,
0100
0010
0100
0000
0001
0000
1000
0000
,
0001
1000
0100
0000
0100
0010
0001
0000
,
0100
0001
0000
0000
0010
0000
0001
1000
,
0200
0000
0010
0000
0301
0000
0001
0100
,
0001
0000
0100
0010
0100
0000
0001
1000
,
0010
0000
0000
1000
0000
0000
1000
0000
0100
0000
0000
0010
0000
0000
0010
0000
,
0001
0010
0200
0000
0300
0000
0001
1000
,
0200
0000
0001
0000
0301
0000
0001
1000
,
0100
0000
0100
1000
0001
0000
0001
1000
,
0001
0000
0000
0010
0000
0000
1000
0000
0001
0000
0000
0010
0000
0000
0010
0000
,
0001
0100
0010
0000
0001
0000
0001
1000
,
0001
0000
0000
1000
0000
0000
1000
0000
0100
0000
0000
0010
0000
0000
0010
0000
,
0001
0010
0001
0000
0010
0100
0010
0100
,
0001
1000
0001
1000
,
0001
0000
0100
0010
0100
0010
0100
0000
,
0020
0000
1000
0000
1030
0000
0001
1000
,
0001
1000
0001
0010
0100
0010
0001
0010
,
0002
0000
1000
0000
1003
0000
0100
0010
,
0000
0001
0000
0001
0010
0001
0000
0010
,
0100
0010
0100
0000
1000
0001
1000
0100
,
0000
0010
0000
0001
0100
0010
0100
0001
,
1000
0000
1000
0001
0000
0010
0100
0010
,
0200
1000
0010
1000
,
0310
1100
1100
0011
,
0010
1000
0010
0000
0010
0100
0001
0000
,
0001
0000
1100
0000
0001
0000
0010
0100
,
0010
0000
1000
0000
0000
0010
0100
0000
,
0001
1000
0001
0000
0010
0000
0100
0000
,
0100
1000
0010
0000
0001
1000
0100
0000
,
0100
0010
0100
0000
0010
0000
0100
1000
,
0200
0000
0010
0000
0310
0000
0010
1000
,
0100
0000
0100
1000
0100
0000
0001
0100
,
0001
0000
0000
0010
0000
0000
1000
0000
0010
0000
0000
1000
0000
0000
0100
0000
,
0001
0000
0010
0000
0001
0000
0100
0010
,
0001
0000
1000
0000
0001
0000
0100
0010
,
0001
0000
0001
0010
0100
0000
0100
1000
,
0100
0000
0000
0001
0000
0000
0010
0000
0001
0000
0000
0100
0000
0000
1000
0000
,
0010
0100
0010
0000
0001
0000
0010
1000
,
0100
0000
0000
0001
0000
0000
1000
0000
0010
0000
0000
0100
0000
0000
0100
0000
,
0010
1000
0001
0000
0010
1000
0010
0000
,
0010
0100
0001
0010
0001
1000
0001
0100
,
0110
0110
1001
1010
,
0020
0000
1000
0000
1030
0000
0001
1000
,
0001
1000
0001
0010
0100
0010
0001
0010
,
0002
0000
1000
0000
1003
0000
0100
0010
,
0000
0001
0000
0001
0010
0001
0000
0010
,
0100
0010
0100
0000
1000
0001
1000
0100
,
0000
0010
0000
0001
0100
0010
0100
0001
,
1000
0000
1000
0001
0000
0010
0100
0010
,
0200
1000
0010
1000
,
0310
1100
1100
0011
,
0010
0000
0000
0000
;
