#TITLE:Dona Pudor;
#ARTIST:Gloria Trevi;
#GENRE:Latin Pop;
#CREDIT:B. M'Rey;
#MUSIC:Dona Pudor.ogg;
#BANNER:Dona Pudor-bn.png;
#BACKGROUND:Dona Pudor-bg.png;
#CDTITLE:./CDTITLES/BMR Superstars.PNG;
#SAMPLESTART:56.791;
#SAMPLELENGTH:12;
#OFFSET:-0.288;
#BPMS:0=140.037;

//--------------- dance-single - B. M'Rey ----------------
#NOTES:
     dance-single:
     B. M'Rey:
     Beginner:
     2:
     0,0,0,0,0:
0000
0000
0000
0000
,
0000
0000
0000
0000
,
0000
0000
0000
0000
,
0000
0000
0000
0000
,
1000
0001
0010
0000
,
0100
0000
1000
0000
,
0001
0000
0010
0000
,
0001
0000
0100
0000
,
0010
0000
1000
0000
,
0001
0000
0000
0000
,
0100
0000
0010
0000
,
1001
0000
0000
0000
,
0100
0000
0010
0000
,
1000
0000
0001
0000
,
0100
0000
0010
0000
,
1001
0000
0000
0000
,
0010
0000
0100
0000
,
0001
0000
0000
0000
,
1000
0000
0010
0000
,
0100
0000
0000
0000
,
1000
0000
0001
0000
,
0010
0000
0001
0000
,
0100
0000
0010
0000
,
1001
0000
0000
0000
,
0100
0000
1000
0000
,
0010
0000
0100
0000
,
0001
0000
0010
0000
,
0001
0000
0000
0000
,
1000
0000
0100
0000
,
1000
0000
0010
0000
,
0100
0000
0001
0000
,
1001
0000
0000
0000
,
0000
0000
0000
0000
,
0010
0000
0100
0000
,
0001
0000
1000
0000
,
0100
0000
1000
0000
,
0010
0000
0100
0000
,
1000
0000
0001
0000
,
0010
0000
0001
0000
,
0100
0000
0010
0000
,
1000
0000
0001
0000
,
1000
0001
1000
0000
,
0000
0000
0000
0000
,
0000
0000
0010
0000
,
0001
0000
0100
0000
,
0010
0000
0001
0000
,
1000
0000
0010
0000
,
0100
0000
0001
0000
,
0010
0000
0001
0000
,
1000
0000
0010
0000
,
0100
0000
0001
0000
,
1001
0000
0000
0000
,
0000
0000
0000
0000
,
0001
0000
1000
0000
,
0010
0000
0100
0000
,
0001
0000
0010
0000
,
0001
0000
1000
0000
,
0100
0000
1000
0000
,
0010
0000
0001
0000
,
0100
0000
0010
0000
,
1000
0000
0001
0000
,
0010
0000
0001
0000
,
0100
0000
0010
0000
,
1000
0000
0100
0000
,
1000
0000
0010
0000
,
0100
0000
0001
0000
,
0010
0000
0001
0000
,
1000
0000
0010
0000
,
0100
0000
0001
1000
,
0001
0000
0100
0000
,
0010
0000
1000
0000
,
0001
0000
0100
0000
,
0010
0000
1000
0001
,
1000
0000
0010
0000
,
0100
0000
1000
0000
,
0010
0000
0100
0000
,
0001
0000
1001
0000
,
0000
0000
0110
0000
,
0000
0000
0101
0000
,
0000
0000
0110
0000
,
0000
0000
1001
0000
;

//--------------- dance-single - B. M'Rey ----------------
#NOTES:
     dance-single:
     B. M'Rey:
     Easy:
     4:
     0,0,0,0,0:
0000
0000
0000
0000
,
0000
0000
0000
0000
,
0000
0000
0000
0000
,
0000
0000
0000
0000
,
0010
0100
0001
0000
,
0001
0100
0001
0000
,
0100
1000
0001
0000
,
0010
0100
0010
0000
,
0100
1000
0010
1000
,
0100
0010
0000
0000
,
0100
1000
0001
0010
,
0001
0000
0000
0000
,
0001
1000
0010
0100
,
0010
0100
0001
1000
,
0010
0000
0001
0010
,
0002
0000
0000
0000
,
0013
1000
0001
1000
,
0100
0010
0000
0100
,
0010
0100
0010
1000
,
0100
0000
0001
0000
,
0001
0100
0001
0010
,
0100
1000
0010
1000
,
0001
0100
0001
0010
,
0001
0000
0010
0000
,
0100
1000
0001
0100
,
0001
0010
0100
1000
,
0100
0000
0001
0000
,
0002
0000
0000
0000
,
0103
0010
0001
0010
,
0100
1000
0010
1000
,
0100
0000
0001
0000
,
1001
0000
0100
0000
,
1001
0000
0010
0000
,
0001
1000
0010
0100
,
0001
0010
0100
0010
,
0100
0010
0001
1000
,
0010
0100
0010
0100
,
0001
0010
0100
1000
,
0010
0100
0001
0010
,
0001
0100
0010
0100
,
0001
1000
0001
0100
,
0010
1000
0100
0000
,
0010
0000
0001
0000
,
0100
0000
0010
0100
,
0010
1000
0010
0000
,
0100
1000
0000
0100
,
0001
1000
0000
1000
,
0100
0000
0100
1000
,
0001
0000
0100
0010
,
0001
0000
0010
1000
,
0100
0000
0010
1000
,
0100
0000
0001
1000
,
0100
0000
0010
0100
,
0001
0000
0010
1000
,
0010
0100
0010
0100
,
0001
0010
0100
1000
,
0010
0100
0010
1000
,
0100
0010
0100
0010
,
0001
0100
0010
1000
,
0100
0010
0100
1000
,
0010
1000
0010
0100
,
0001
0010
0001
0100
,
0001
0010
0100
1000
,
0010
0100
0001
0010
,
0001
0010
0000
1000
,
0010
0100
0010
1000
,
0100
0010
0001
0100
,
0010
1000
0001
1000
,
0100
0010
0001
1000
,
0010
0000
0001
0010
,
0001
0000
0001
0100
,
0010
1000
0100
0010
,
0001
1000
0001
0100
,
0010
0000
0100
0010
,
0100
0000
0010
0100
,
0001
0100
0010
1000
,
0100
0010
0001
0000
,
0100
0000
1000
0000
,
0001
0000
0010
0000
,
0100
0000
0001
0000
,
1000
0000
0110
0000
;

//--------------- dance-single - B. M'Rey ----------------
#NOTES:
     dance-single:
     B. M'Rey:
     Medium:
     7:
     0,0,0,0,0:
0000
0000
0000
0000
,
0000
0000
0000
0000
,
0000
0000
0000
0000
,
0000
0000
0000
0000
,
0010
0000
0001
0000
0010
0000
0001
0010
,
0000
0010
0000
2000
0000
0000
3001
0100
,
0000
0100
0000
2000
0000
0000
3100
0010
,
0000
1000
0000
0010
0000
0020
0000
0000
,
0130
0000
0010
0000
0010
0100
0001
0000
,
0001
0000
0100
0000
0000
0000
0000
1000
,
0100
0000
0100
0000
0010
0100
0010
0000
,
0100
0000
0000
0001
0000
0000
0010
0100
,
0001
0000
0001
0000
0001
1000
0010
0000
,
0001
0000
0001
0010
0001
0000
0100
0000
,
0010
0000
0000
0010
0100
0000
0001
0000
,
0020
0000
0100
0000
0100
0000
0130
1000
,
0001
0000
0001
0000
0010
1000
0001
0000
,
0100
0001
0100
1000
,
0100
0000
0001
1000
0000
0010
0001
0000
,
0001
0000
0010
0000
0001
0000
0010
0100
,
0001
0000
0001
1000
0001
0000
0010
2000
,
0000
3010
0001
0100
0000
1000
0010
0000
,
0010
0000
0100
0000
0010
0100
0010
0000
,
0200
0000
0000
0000
,
0310
0100
0010
0000
0001
1000
0001
1000
,
0000
0010
0100
1000
0000
1000
0010
0000
,
0001
0000
0110
0000
,
0220
0000
0000
0000
0000
0000
0000
0000
0000
0000
0000
0000
0000
0000
0000
0000
0000
0000
0000
0000
0000
0000
0000
0000
0000
0000
0000
0000
0000
0000
0000
0000
0000
0000
0000
0000
0000
0000
0000
0000
0000
0000
0000
0000
0000
0000
0000
0000
0000
0000
0000
0000
0000
0000
0000
0000
0000
0000
0000
0000
0000
0000
0000
0000
0000
0000
0000
0000
0000
0000
0000
0000
0000
0000
0000
0000
0000
0000
0000
0000
0000
0000
0000
0000
0000
0000
0000
0000
0000
0000
0000
0000
0000
0000
0000
0000
0000
0000
0000
0000
0000
0000
0000
0000
0000
0000
0000
0000
0000
0000
0000
0000
0000
0000
0000
0000
0000
0000
0000
0000
0000
0000
0000
0000
0000
0000
0000
0000
0000
0000
0000
0000
0000
0000
0000
0000
0000
0000
0000
0000
0000
0000
0000
0000
0000
0000
0000
0000
0000
0000
0000
0330
0000
0000
0000
0000
0000
0000
0000
0000
0000
0000
0000
0000
0000
0000
0000
0000
0000
0000
0000
0000
0000
0000
0000
0000
0000
0000
0000
0000
0000
0000
0000
0000
0000
0000
0000
0000
0000
0000
0000
0000
,
0001
0000
0100
0010
0100
0000
0010
2000
,
0000
0000
3010
0000
0001
0000
0010
1000
,
0100
0000
0110
0000
,
0110
0000
0001
1000
0000
0010
0000
0100
,
0001
0000
0100
1000
0000
0100
0000
1000
,
0100
1000
0010
0000
0001
0100
0010
1000
,
0000
1000
0100
1000
0000
0100
0010
0100
,
0010
1000
0001
0010
0000
0010
0001
1000
,
0100
1000
0000
1000
0000
0000
0001
1000
,
0010
0100
0001
0200
0000
1300
0001
0100
,
0001
0010
0001
0010
0000
0010
0000
1000
,
0100
0010
0001
0100
0000
1000
0000
1000
,
0100
0010
0001
0010
0100
0000
0100
0000
,
0100
0010
0001
1000
0100
0000
0001
0000
,
0000
0010
0000
1000
0010
0000
0010
0000
,
0000
1000
0000
0000
0010
0000
0010
0100
,
0000
0010
0001
0010
0000
0100
0000
0000
,
0010
0000
0001
0100
0000
0100
0000
0010
,
0100
0000
0001
0010
0000
1000
0000
1000
,
0010
0100
0000
0200
0000
0301
0000
1000
,
0001
0000
0001
1000
0000
0010
0001
0000
,
0100
1000
0000
0100
0000
0100
0001
0000
,
0001
0010
0000
1000
0000
0000
0010
0100
,
1010
0000
0000
0010
0100
0010
0000
1000
,
0000
1000
0000
1000
0100
0010
0000
0002
,
0000
0000
0000
0003
0100
1000
0010
0000
,
0001
0100
0010
1000
0000
1000
0100
1000
,
0000
0100
0010
0100
0010
1000
0001
0010
,
0000
0010
0001
1000
0100
1000
0000
1000
,
0000
0000
0001
1000
0010
0100
0001
0200
,
0000
1300
0001
0100
0001
0010
0001
0010
,
0000
0010
0000
1000
0100
0010
0001
0100
,
0000
1000
0000
1000
0100
0010
0001
0010
,
0100
1000
0010
0000
0001
0100
0010
1000
,
0000
1000
0100
1000
0000
0100
0010
0100
,
0010
1000
0001
0010
0000
0010
0001
1000
,
0100
1000
0000
1000
0000
0000
0001
1000
,
0010
0100
0001
0200
0000
1300
0001
0100
,
0001
0010
0001
0010
0000
0010
0000
1000
,
0100
0010
0001
0100
0000
1000
0000
1000
,
0100
0010
0001
0010
0100
0000
0100
0000
,
0001
0000
0010
0100
0000
0100
0000
2000
,
0000
0000
3001
0100
0000
1000
0000
0010
,
0001
0000
0010
0100
0000
1001
0000
0010
,
0100
0000
0100
1000
0100
0000
0001
0000
,
1000
0000
0010
1000
0000
0010
0000
2000
,
0000
0000
3010
1000
0000
0010
0000
0010
,
0100
0000
0010
0100
0000
0110
0000
1000
,
0100
0000
0001
0010
0100
0000
0010
1000
,
0000
1000
0001
0000
0001
0000
0001
0010
,
0000
0010
0100
0000
0001
0000
0010
1000
,
0000
1000
0010
0000
0100
0000
0001
1000
,
0000
1000
0100
0000
0110
0000
0000
0000
;

//--------------- dance-single - B. M'Rey ----------------
#NOTES:
     dance-single:
     B. M'Rey:
     Hard:
     8:
     0,0,0,0,0:
0000
0000
0000
0000
,
0000
0000
0000
0000
,
0000
0000
0000
0000
,
0000
0000
0000
0000
,
0010
0100
0001
0000
0010
0000
0010
1000
,
0000
0101
0000
1010
0000
0010
0100
1000
,
0000
0110
0000
1100
0000
0100
0010
0100
,
0000
1010
0000
0011
0000
0022
0000
0033
,
0001
0000
0100
1000
0001
0010
0100
0000
,
0100
0000
0001
0010
0000
1000
0010
0100
,
0001
0000
0100
0000
0010
1000
0010
0000
,
0001
0000
0100
1000
0000
1000
0010
1000
,
0001
0010
0100
1000
0010
0100
0010
0100
,
0000
1000
0100
1000
0010
0100
0001
1000
,
0010
0100
0000
1000
0001
0100
0010
0000
,
0010
0010
0100
0100
,
0010
0100
0001
1000
0001
0100
0001
0000
,
0010
0000
0100
1000
0001
0100
0010
0000
,
0001
0000
0100
0010
0000
1000
0010
0000
,
0010
1000
0001
1000
0100
0010
0100
0010
,
0001
0010
0100
1000
0001
0010
0001
0100
,
0000
1000
0100
0010
0000
1000
0010
0100
,
0000
1000
0000
1000
0100
0010
0001
0010
,
0110
1100
1100
1001
,
0100
0010
0001
0010
0100
1000
0001
1000
,
0000
0010
0100
0010
0100
1000
0010
0000
,
1001
0100
0110
0100
,
0001
1000
0001
1000
0100
0010
0001
0010
,
0100
0000
0010
0100
0010
1000
0010
0100
,
0000
0010
0100
0000
0100
1000
0010
0000
,
0011
0100
0011
0001
,
0011
0000
0100
1000
0000
0010
0100
1000
,
0100
0000
0100
0010
0000
0010
0001
0100
,
0001
1000
0001
1000
0001
0100
0010
0100
,
0010
0100
0001
1000
0001
1000
0001
0010
,
0100
0010
0100
0010
0001
0100
0001
0100
,
0001
1000
0100
1000
0001
0100
0010
0100
,
0010
0100
0001
0010
0100
0010
0001
0010
,
0100
1000
0010
1000
0010
1000
0001
0010
,
0001
1000
0001
1000
0010
1000
0001
0010
,
0001
0010
0001
1000
0100
1000
0100
1000
,
0010
0100
0001
0100
0010
0000
0001
0000
,
0010
0000
0100
1000
0001
0000
0001
0000
,
0010
0000
0001
0000
0010
1000
0100
0010
,
0000
1000
0010
1000
0000
1000
0000
0000
,
0100
0010
0100
1000
0000
1000
0100
0010
,
0100
1000
0001
0100
0000
1000
0001
0100
,
0010
0100
0000
1000
0000
0100
0001
0100
,
0001
0010
0100
0010
0000
1000
0100
1000
,
0010
0100
0000
0010
0000
0010
0001
0100
,
0010
1000
0000
0010
0000
1000
0100
1000
,
1001
0000
0000
0100
0010
0100
0010
0100
,
0000
1000
0000
1000
0100
0010
0100
0010
,
0001
0000
0100
0000
0001
1000
0001
1000
,
0001
0100
0010
0100
0010
0100
0001
1000
,
0001
1000
0001
0010
0100
0010
0100
0010
,
0001
0100
0001
0100
0001
1000
0100
1000
,
0001
0100
0010
0100
0010
0100
0001
0010
,
0100
0010
0001
0010
0100
1000
0010
1000
,
0010
1000
0001
0010
0001
1000
0001
1000
,
0010
1000
0001
0010
0001
0010
0001
1000
,
0001
1000
0010
1000
0100
1000
0010
0110
,
0000
1000
0010
1100
0000
0010
0100
1000
,
0001
0100
0010
0101
0000
0010
0100
0010
,
0100
0011
0000
1100
0000
0100
1000
0100
,
1000
0100
0010
0001
0010
0001
0010
0100
,
1000
0100
1000
0100
0010
0001
0010
0001
,
0010
0100
1000
0100
1000
0010
1000
0100
,
0010
0100
0010
0100
1010
0000
1001
0000
,
1100
0000
0001
1000
0010
0101
0000
0110
,
0000
1000
0001
0101
0000
1010
0000
0100
,
0001
0100
0010
0100
0000
0011
0000
0100
,
0001
0100
0010
1000
0101
0000
0110
0000
,
1010
0000
0001
1000
0000
0110
0000
0110
,
0000
1000
0001
1010
0000
1001
0000
0010
,
0100
1000
0001
0010
0000
1010
0000
0100
,
0001
0010
0100
0010
0110
0000
0001
1000
,
0000
1000
0100
0010
0100
0000
0010
0100
,
0000
0010
0100
0010
0100
0000
0010
1000
,
0000
0010
0001
0100
0010
0000
0010
1000
,
0000
0010
0001
0010
0202
0000
0000
0303
;

//--------------- dance-single - B. M'Rey ----------------
#NOTES:
     dance-single:
     B. M'Rey:
     Challenge:
     12:
     0,0,0,0,0:
0000
0000
0000
0000
,
0000
0000
0000
0000
,
0000
0000
0000
0000
,
4000
0004
0000
0000
0000
0000
0000
0003
,
3001
1000
0001
1000
0001
0100
0010
0100
0010
0100
0001
0010
0001
0010
0001
1000
,
0010
1000
0010
1000
0001
0010
0001
0010
0001
1000
0010
1000
0001
1000
0001
0100
,
0001
0010
0100
0010
0100
0010
0001
0100
0010
0100
0010
0100
0001
1000
0001
1000
,
0001
0100
0010
0100
0001
0100
0010
1000
0010
0100
0010
0100
0001
0100
0001
1000
,
0001
0000
0100
1000
0001
0010
0100
0000
,
0100
0000
0001
0010
0000
1000
0010
0100
,
0001
0000
0100
0000
0010
1000
0010
0000
,
0001
0000
0100
1000
0000
1000
0010
1000
,
0001
0010
0100
1000
0010
0100
0010
0100
,
0000
1000
0100
1000
0010
0100
0001
1000
,
0010
0100
0000
1000
0001
0100
0010
0000
,
0011
1010
0101
1100
,
0100
0010
0001
0100
0010
0100
0001
0100
,
0001
0010
0001
1000
0010
0100
0001
0010
,
0001
0100
0010
1000
0001
0010
0100
1000
,
0010
2000
3002
2003
3200
0320
0230
1300
,
0010
0100
0001
0010
0001
0100
0010
1000
,
0100
1000
0100
0010
0100
1000
0010
1000
,
0001
0010
0100
1000
0001
0100
0010
1000
,
0110
1100
0110
0101
,
0001
0010
0001
0100
0010
1000
0001
0010
,
0100
1000
0001
1000
0100
0010
0100
1000
,
0001
0010
0001
1000
0010
1000
0100
1000
,
0001
1000
0001
1000
0100
1000
0100
0010
0100
1000
0010
1000
0010
1000
0001
0100
,
0001
0100
0001
0010
0100
0010
0001
1000
,
0100
1000
0010
1000
0010
0100
0001
0100
,
0010
1000
0001
0100
0010
1000
0100
1000
,
0110
0000
1010
0110
0000
1001
0110
0011
,
0101
0000
1100
1010
0000
0101
1001
1100
,
0001
1000
0001
1000
0010
1000
0010
0100
0001
0100
0001
1000
0100
1000
0100
1000
,
0001
0100
0001
0100
0010
0100
0010
1000
0010
1000
0001
1000
0001
0010
0001
0100
,
0010
0100
0001
0100
0001
1000
0001
0010
0100
1000
0010
0100
0010
0100
0010
1000
,
0100
1000
0100
1000
0010
0100
0010
1000
0001
1000
0010
1000
0010
0100
0010
0100
,
0001
0100
0001
1000
0010
1000
0010
1000
0001
0100
0001
0100
0001
1000
0100
1000
,
0100
1000
0001
0010
0001
0100
0001
1000
0010
1000
0010
1000
0001
0010
0001
1000
,
0001
1000
0010
1000
0001
0100
0001
0100
0001
0010
0100
0010
0100
0010
0001
1000
,
0001
1000
0010
1000
0001
0010
0100
1000
0010
1000
0010
0100
0010
0100
0001
0100
,
0001
1000
0001
1000
0010
1000
0010
0100
0010
0000
0000
0010
0100
0000
0100
0010
,
0000
0001
0100
0000
1000
0001
0010
0100
1000
0000
0000
0010
1000
0000
1000
0010
,
0000
0100
0010
0000
0010
0001
0100
0010
0001
0000
0010
1000
0100
0000
0001
0100
,
0010
0000
0001
0100
0010
1000
0001
0010
0100
0000
0010
1000
0001
0000
0001
0100
,
0001
0000
0100
1000
0001
0000
0100
1000
0010
0000
0010
1000
0100
0000
0010
0100
,
0010
0000
0001
1000
0010
0000
0010
1000
0100
0000
0010
0100
0001
0000
0100
0010
,
0100
0000
0100
1000
0010
0000
0100
0010
0001
0000
0010
0100
0010
0000
0100
1000
,
0010
0000
0001
1000
0100
0000
0100
1000
0010
0000
0001
0010
0100
0000
0001
0010
,
0001
0000
0010
1000
0001
0000
0100
1000
0010
0000
0001
1000
0010
0000
0001
0010
,
0001
0000
0001
1000
0010
0000
0001
0100
0010
0000
0001
1000
0010
0000
0001
0000
,
1001
0000
0000
0100
0010
0100
0010
0100
,
0000
1000
0000
1100
0110
0011
0110
1010
,
0001
1000
0000
0010
0100
0000
0010
0000
0001
1000
0100
1000
0100
1000
0001
0010
,
0001
0010
0001
1000
0010
1000
0010
1000
0001
0010
0100
0010
0100
0010
0001
1000
,
0100
1000
0001
1000
0001
0010
0100
0010
0100
0010
0001
1000
0001
0010
0001
0010
,
0100
0010
0100
1000
0010
1000
0010
1000
0001
0010
0001
0010
0001
1000
0100
1000
,
0100
1000
0001
0100
0001
0100
0001
1000
0010
1000
0001
1000
0001
0100
0001
0100
,
0010
0100
0010
1000
0010
1000
0100
1000
0100
0010
0100
0010
0001
0010
0001
1000
,
0001
1000
0100
1000
0100
0010
0100
0010
0001
0010
0001
0100
0001
0100
0010
0100
,
0010
1000
0010
1000
0001
1000
0001
0010
0001
0010
0100
0010
0100
1000
0100
1000
,
0001
1000
0001
0100
0001
0010
0100
0010
0100
0010
0001
0100
0001
0100
0010
0100
,
0010
1000
0100
1000
0100
1000
0001
0100
0001
0100
0001
0010
0100
0010
0100
0010
,
0001
1000
0001
0010
0100
0010
0001
0010
0001
0100
0001
0100
0010
0100
0010
1000
,
0010
0100
0001
0100
0001
0100
0010
1000
0010
1000
0010
0100
0001
0100
0001
0100
,
0010
1000
0001
1000
0001
1000
0010
0100
0010
0100
0010
1000
0001
1000
0001
1000
,
0100
0010
0001
0010
0001
0010
0100
1000
0010
1000
0010
1000
0001
0010
0001
1000
,
0001
1000
0010
1000
0010
0100
0010
0100
0001
0100
0001
0010
0001
0010
0100
0010
,
0100
1000
0010
1000
0010
1000
0100
0010
0010
1000
0010
1000
0010
0100
0001
0100
,
0001
0100
0010
1000
0100
1000
0100
1000
0001
0010
0100
0010
0100
0010
0001
0100
,
0010
0100
0010
0100
0001
0010
0001
0010
0001
1000
0100
1000
0100
1000
0010
1000
,
0010
1000
0100
1000
0100
0010
0100
1000
0010
0100
0001
0100
0001
1000
0001
0100
,
0010
0100
0010
0100
0001
1000
0010
1000
0001
1000
0001
1000
0100
1000
0100
0010
,
0001
0010
0001
0010
0100
1000
0100
1000
0100
0010
0001
0010
0001
1000
0001
1000
,
0010
1000
0010
0100
0010
1000
0001
1000
0001
0010
0001
0010
0100
0010
0100
0010
,
0001
0010
0001
1000
0010
1000
0010
1000
0001
0100
0001
0100
0001
0010
0100
0010
,
0100
0010
0001
0100
0001
0100
0001
1000
0110
0000
0000
0000
1010
0000
0110
0000
,
0000
1001
0110
0011
0101
0000
1100
1010
,
0000
0101
1001
1100
1010
0000
1001
1100
,
0000
1001
1001
0101
1010
0000
0011
1100
,
0000
1010
1100
0110
0220
0000
0000
0000
,
0330
0000
0000
0000
;
