#VERSION:0.83;
#TITLE:Don't Say Goodbye;
#ARTIST:Paulina Rubio;
#GENRE:Dance Pop;
#CREDIT:B. M'Rey;
#MUSIC:Don't Say Goodbye.ogg;
#BANNER:Don't Say Goodbye-bn.PNG;
#BACKGROUND:Don't Say Goodbye-bg.PNG;
#CDTITLE:./CDTITLES/BMR Superstars.PNG;
#SAMPLESTART:58.600;
#SAMPLELENGTH:16.000;
#OFFSET:-0.145;
#BPMS:0=120.010;

//--------------- dance-single - B. M'Rey ----------------
#NOTEDATA:;
#STEPSTYPE:dance-single;
#DESCRIPTION:B. M'Rey;
#CREDIT:B. M'Rey;
#DIFFICULTY:Beginner;
#METER:4;
#RADARVALUES:0.203677,0.238484,0.11709,0.048213,0,207,190,17,7,0,0,0.203677,0.238484,0.11709,0.048213,0,207,190,17,7,0,0;
#NOTES:
0000
0000
0000
0000
,
0000
0000
0000
0000
,
0000
0000
0000
0000
,
0000
0000
0000
0000
,
0000
0000
0000
0000
,
0000
0000
0000
2000
,
0000
0000
3010
0002
,
0000
0000
0103
0020
,
0000
0000
1030
0200
,
0000
0000
0000
0310
,
0002
0000
0000
0013
,
0200
0000
0310
2000
,
0000
0000
3100
0020
,
0000
0000
0030
0000
,
0001
0000
0100
0000
,
0000
0100
0000
0010
,
0100
0000
0000
0100
,
0010
0000
0000
0100
,
0000
0001
0000
0100
,
0000
0100
0010
0100
,
0000
0000
0100
1000
,
0000
0100
0000
0100
,
0000
0002
0000
0013
,
0000
0010
0100
1000
,
0000
0010
0000
0020
,
0000
0030
0000
0000
,
0000
1000
0100
0010
,
0000
0001
0000
0100
,
0000
1000
0000
0002
,
0000
0023
0000
0130
,
0000
0002
0000
0103
,
0000
0010
0000
1000
,
0000
0100
0000
0001
,
0000
0200
0000
0310
,
0000
1000
0000
0001
,
0000
0010
0000
0001
,
0000
0100
0000
0010
,
0000
2000
0000
3010
,
0000
1000
0000
0010
,
0000
0100
0000
0001
,
0000
0100
0000
0001
,
0000
2000
0000
3010
,
0000
0100
0000
0001
,
0000
1000
0000
0010
,
0000
0100
0000
0002
,
0000
0000
0000
2003
,
0000
0000
3010
0002
,
0000
0000
0103
0020
,
0000
0000
1030
0200
,
0000
0000
0000
0310
,
0002
0000
0000
0013
,
0200
0000
0310
2000
,
0000
0000
3100
0200
,
0000
0320
0000
0130
,
0000
0002
0000
0103
,
0000
0010
0000
1000
,
0000
0100
0000
0001
,
0000
0200
0000
0310
,
0000
1000
0000
0001
,
0000
0010
0000
0001
,
0000
0100
0000
0010
,
0000
2000
0000
3010
,
0000
1000
0000
0010
,
0000
0100
0000
0001
,
0000
0100
0000
0001
,
0000
2000
0000
3020
,
0000
0000
0000
0000
,
0000
0000
0000
0030
;

//--------------- dance-single - B. M'Rey ----------------
#NOTEDATA:;
#STEPSTYPE:dance-single;
#DESCRIPTION:B. M'Rey;
#CREDIT:B. M'Rey;
#DIFFICULTY:Easy;
#METER:5;
#RADARVALUES:0.210564,0.263279,0.179078,0.055101,0,214,188,26,8,0,0,0.210564,0.263279,0.179078,0.055101,0,214,188,26,8,0,0;
#NOTES:
0000
0000
0000
0000
,
0000
0000
0000
0000
,
0000
0000
0000
0000
,
0000
0000
0000
0000
,
0000
0000
0000
0000
,
0000
0001
0001
0010
,
0100
0100
0000
0010
,
0010
0010
0000
0000
,
1000
1000
1000
0000
,
0001
1000
0010
0000
,
1000
0001
0001
0000
,
0010
1000
0001
0000
,
1000
0001
0100
0010
,
0010
1000
0001
1001
,
0000
1000
0001
0000
,
0001
0010
0001
0001
,
0002
0000
0000
0003
0000
0000
1000
0000
,
0002
0000
0003
1000
,
0000
0001
0001
0010
,
0000
1000
0100
0010
,
1000
0100
0100
0010
,
0001
0010
0000
1000
,
0000
0001
0001
0001
,
0000
0100
0100
0100
,
0000
1000
0000
2000
,
0000
3000
0000
1000
,
0000
0100
1000
1000
,
0000
0001
0000
0001
,
0000
0001
0000
0020
,
0000
0130
1000
0100
,
0000
0010
0001
0010
,
0000
0001
0100
0001
,
1000
0010
1000
0001
,
0000
0100
0001
0100
,
0000
1000
1000
0100
,
0001
1000
0010
2000
,
0000
3000
0000
0000
0100
0000
0020
0000
,
0000
1030
0000
0010
,
0001
0001
0001
0000
,
1000
1000
1000
0000
,
0100
0010
0001
0100
,
0000
0001
1000
0001
,
0000
0010
1000
0001
,
0100
0001
1000
0020
,
0000
0030
0000
0000
0001
0000
0200
0000
,
0000
0300
0001
0000
0000
0000
0010
0000
,
0100
0100
0000
0010
,
0010
0010
0000
0000
,
1000
1000
1000
0000
,
0001
1000
0010
0000
,
1000
0001
0001
0000
,
0010
1000
0001
0000
,
1000
0001
0100
0010
,
0010
0100
1000
0100
,
0000
0010
0001
0010
,
0000
0001
0100
0001
,
1000
0010
1000
0001
,
0000
0100
0001
0100
,
0000
1000
1000
0100
,
0001
1000
0010
2000
,
0000
3000
0000
0000
0100
0000
0020
0000
,
0000
1030
0000
0010
,
0001
0001
0001
0000
,
1000
1000
1000
0000
,
0100
0010
0001
0100
,
0000
0001
1000
0002
,
0000
0000
0000
0000
,
0000
0000
0000
0003
;

//--------------- dance-single - B. M'Rey ----------------
#NOTEDATA:;
#STEPSTYPE:dance-single;
#DESCRIPTION:B. M'Rey;
#CREDIT:B. M'Rey;
#DIFFICULTY:Medium;
#METER:8;
#RADARVALUES:0.385707,0.47869,0.282392,0.082651,0.037882,392,351,41,12,0,0,0.385707,0.47869,0.282392,0.082651,0.037882,392,351,41,12,0,0;
#NOTES:
0000
0000
0000
0000
,
0000
0000
0000
0000
,
0000
0000
0000
0000
,
0000
0000
0000
0000
,
0000
0000
0000
0000
,
0000
0000
0100
1000
0100
0010
0000
0100
,
1000
0100
1000
0100
0000
0000
0000
0010
,
0001
0010
0001
0010
0000
0000
0000
0100
,
0010
0100
0010
0100
0000
0000
0000
1000
,
0100
1000
0010
0100
0000
0000
0000
0001
,
0010
0001
0100
1000
0000
0000
0000
0010
,
0001
0100
0010
1000
0100
0000
0000
0100
,
0010
0001
0100
0010
0000
0100
0001
0010
,
0001
0100
0010
1000
0100
0000
0110
0000
,
0000
0001
0010
0000
0100
2000
0000
0000
,
0000
0000
3010
0000
0001
0000
0000
0010
0000
0000
1000
0000
0100
0000
1000
0000
,
0200
0000
0000
0300
0000
0001
0010
0001
,
0200
0000
0300
0010
,
0000
1000
0100
0000
0100
0020
0000
0000
,
0000
0000
0031
0000
0010
0000
0000
1000
0000
0000
0010
0000
0001
0000
0100
0000
,
0010
0000
0000
0000
0000
0000
0100
0000
1000
0000
0010
0000
0001
0000
0000
0100
,
0000
2000
0000
0000
3000
0000
0010
0000
,
0000
0000
0100
0010
0100
0010
0100
0000
,
0000
0000
0000
0000
1000
0000
0100
0000
1000
0000
0100
0000
1000
0000
0000
0001
,
0000
0000
0100
0000
0010
0000
0000
1000
0000
0000
0100
0000
0020
0000
0000
0000
,
0000
0031
0000
0010
,
0000
0000
0100
0000
1000
0000
0000
0100
0000
0000
0001
0000
0010
0000
0000
0000
,
0000
0000
0000
0000
0100
0000
0000
1000
0000
0000
0010
0000
0100
0000
0000
0001
,
0000
0000
0010
0000
0100
0000
0000
1000
0000
0000
0200
0000
0000
0000
0000
0000
,
0000
0300
1000
0001
1000
0002
0000
0000
,
1003
0000
0001
0010
0001
0020
0000
0000
,
0031
0000
0100
1000
1000
0100
0000
0010
,
0010
0001
0000
0010
0010
0100
0100
0000
,
0001
0000
0100
0010
0100
0010
0100
0000
,
1000
0000
0010
0100
0010
1000
0000
0100
,
0100
0010
0000
0001
0001
0010
0020
0000
,
0000
0030
0000
0100
1000
0200
0000
0000
,
0000
0000
0300
0000
0010
0000
0000
1000
0000
0000
0100
0000
0010
0000
1000
0000
,
0100
1000
0100
1000
0200
0000
0300
0001
,
0010
0001
0010
0001
0020
0000
0030
0100
,
1000
0000
0100
0000
0001
0000
0000
0000
0100
0000
0010
0000
1000
0000
0000
0100
,
0000
0010
0001
0010
0001
0010
0002
0000
,
1003
0010
0001
0001
0000
0010
0000
0100
,
1000
1000
0000
0100
0010
0010
0002
0000
,
0013
0000
1000
0010
0100
0010
2000
0000
,
0000
0000
3000
0000
0100
0000
0000
0010
0000
0000
0100
0000
1000
0000
0100
0000
,
1000
0100
1000
0100
0000
0000
0000
0010
,
0001
0010
0001
0010
0000
0000
0000
0100
,
0010
0100
0010
0100
0000
0000
0000
1000
,
0100
1000
0010
0100
0000
0000
0000
0001
,
0010
0001
0100
1000
0000
0000
0000
0010
,
0001
0100
0010
1000
0100
0000
0000
0100
,
0010
0001
0100
0010
0000
0100
0001
0010
,
0001
0100
1000
0001
1000
0002
0000
0000
,
1003
0000
0001
0010
0001
0020
0000
0000
,
0031
0000
0100
1000
1000
0100
0000
0010
,
0010
0001
0000
0010
0010
0100
0100
0000
,
0001
0000
0100
0010
0100
0010
0100
0000
,
1000
0000
0010
0100
0010
1000
0000
0100
,
0100
0010
0000
0001
0001
0010
0020
0000
,
0000
0030
0000
0100
1000
0200
0000
0000
,
0000
0000
0300
0000
0010
0000
0000
1000
0000
0000
0100
0000
0010
0000
1000
0000
,
0100
1000
0100
1000
0200
0000
0300
0001
,
0010
0001
0010
0001
0020
0000
0030
0100
,
1000
0000
0100
0000
0001
0000
0000
0000
0100
0000
0010
0000
1000
0000
0000
0100
,
0000
0010
0001
0010
0001
0010
0002
0000
,
0000
0000
0000
0000
,
0000
0000
0000
0003
;

//--------------- dance-single - B. M'Rey ----------------
#NOTEDATA:;
#STEPSTYPE:dance-single;
#DESCRIPTION:B. M'Rey;
#CREDIT:B. M'Rey;
#DIFFICULTY:Hard;
#METER:11;
#RADARVALUES:0,0,0,0,0;
#NOTES:
0000
0000
0000
0000
,
0000
0000
0000
0000
,
0000
0000
0000
0000
,
0000
0000
0000
0000
,
0000
0000
0000
0000
,
0000
0000
0000
0000
0100
0000
1000
0000
0100
0000
0010
0000
0000
0000
1000
0010
,
1000
0000
1000
0001
0000
0100
0000
0001
0000
0000
1000
0000
0100
0000
0001
0100
,
0001
0000
1000
0010
0000
1000
0000
0010
0000
0000
0100
0000
0010
0000
1000
0001
,
1000
0000
0010
0001
0000
1000
0100
0000
0010
0000
0000
0000
0010
0000
0100
0001
,
1000
0000
1000
0001
0000
0010
0000
0001
0000
0000
0100
0000
0010
0000
0100
0001
,
0100
0000
0100
0001
0000
0010
0000
1000
0000
0000
1000
0000
0010
0000
1000
0100
,
1000
0000
0010
0001
0000
0100
0000
0001
0000
0000
0100
0000
0001
0000
1000
0100
,
1000
0000
1000
0100
0000
0010
0000
0100
0000
0000
0010
0000
0001
1000
0001
1000
,
0001
0000
1000
0000
0010
0100
0010
0100
0010
0000
0010
0000
0100
0000
0000
0000
,
0100
0000
0010
0001
1000
0000
0000
0001
0010
0000
2000
0000
0000
0000
3000
0000
,
0100
0000
0000
0001
0100
0000
1000
0100
0000
0000
1000
0000
0010
0000
1000
0000
,
0001
0000
0001
0010
0001
0100
0010
1000
,
0010
0000
0001
0100
0001
1000
0100
0000
,
0100
0010
0001
0000
0001
0100
0000
1000
,
0010
0000
0001
1000
0100
0010
0100
0010
,
0001
0000
0000
0000
0100
0000
1000
0000
0100
0000
0010
0000
0001
0000
0000
0100
,
0000
0000
0001
0000
0010
1000
0010
1000
0010
1000
0010
0000
0001
0000
0000
0000
,
0001
0000
0010
0000
0100
1000
0000
0001
0010
0000
1000
0100
0001
0000
0010
0000
,
0100
0000
0000
0000
0001
1000
0000
0100
0010
0000
0100
0000
0010
0100
0000
0010
,
0001
0000
0010
0000
0001
0100
0000
1000
0010
0000
0100
0000
0002
0000
0000
0000
,
0000
0013
0001
1000
0010
1000
0100
0000
,
0100
0000
0010
0000
0001
1000
0000
1000
0001
0000
1000
0000
0100
0000
0000
0000
,
0001
0000
1000
0000
0010
1000
0000
1000
0100
0000
1000
0000
0001
0010
0000
1000
,
0100
0000
1000
0000
0100
1000
0000
0010
0100
0000
0001
0000
0100
0010
0100
0010
,
0100
0010
0100
0000
0101
0000
0101
0000
1010
0000
1010
0000
0010
0000
1000
0000
,
0010
0100
0001
1000
0010
0100
0010
0100
,
0001
1000
0100
0010
0100
1000
0010
1000
,
0001
0010
0001
0100
0010
1000
0100
1000
,
0001
1000
0101
0110
1010
1010
0001
0010
,
0001
0100
0001
1000
0100
0010
0100
1000
,
0010
0100
0010
1000
0100
1000
0010
0100
,
0010
0100
0001
0010
0001
1000
0001
0010
,
0100
0000
1000
0000
0100
0000
0000
1000
0000
0000
0010
0000
0100
0000
0010
0100
,
0001
0000
0010
0001
0000
1000
0000
0001
0000
0000
0100
0000
0010
0000
1000
0010
,
1000
0000
0000
1000
0000
0010
0000
0001
0000
0000
0100
0000
0010
0000
0100
0000
,
0010
0000
1000
0010
0000
0000
0100
0000
0001
0000
0010
0000
0001
0000
0000
0010
,
0000
0100
0010
1000
0010
0100
0001
0000
,
0001
0010
0001
0100
0010
1000
0010
0100
,
0010
1000
0100
1000
0010
1000
0001
0000
,
0010
0000
0000
0000
0001
0000
0010
0000
0001
0000
0010
0000
0001
0100
0001
0100
,
0001
0100
0001
0000
0010
1000
0000
0010
0100
0000
1000
0000
0001
0000
1000
0010
,
1000
0000
1000
0001
0000
0100
0000
0001
0000
0000
1000
0000
0100
0000
0001
0100
,
0001
0000
1000
0010
0000
1000
0000
0010
0000
0000
0100
0000
0010
0000
1000
0001
,
1000
0000
0010
0001
0000
1000
0100
0000
0010
0000
0000
0000
0010
0000
0100
0001
,
1000
0000
1000
0001
0000
0010
0000
0001
0000
0000
0100
0000
0010
0000
0100
0001
,
0100
0000
0100
0001
0000
0010
0000
1000
0000
0000
1000
0000
0010
0000
1000
0100
,
1000
0000
0010
0001
0000
0100
0000
0001
0000
0000
0100
0000
0001
0000
1000
0100
,
1000
0000
1000
0100
0000
0010
0000
0100
0000
0000
0010
0000
0001
1000
0001
1000
,
0001
1000
0101
0101
1010
1010
0010
1000
,
0010
0100
0001
1000
0010
0100
0010
0100
,
0001
1000
0100
0010
0100
1000
0010
1000
,
0001
0010
0001
0100
0010
1000
0100
1000
,
0001
1000
0101
0110
1010
1010
0001
0010
,
0001
0100
0001
1000
0100
0010
0100
1000
,
0010
0100
0010
1000
0100
1000
0010
0100
,
0010
0100
0001
0010
0001
1000
0001
0010
,
0100
0000
1000
0000
0100
0000
0000
1000
0000
0000
0010
0000
0100
0000
0010
0100
,
0001
0000
0010
0001
0000
1000
0000
0001
0000
0000
0100
0000
0010
0000
1000
0010
,
1000
0000
0000
1000
0000
0010
0000
0001
0000
0000
0100
0000
0010
0000
0100
0000
,
0010
0000
1000
0010
0000
0000
0100
0000
0001
0000
0010
0000
0001
0000
0000
0010
,
0000
0100
0010
1000
0010
0100
0002
0000
,
0000
0000
0000
0000
,
0000
0000
0000
0003
;
